osu file format v14

[General]
AudioFilename: audio.mp3
AudioLeadIn: 0
PreviewTime: -1
Countdown: 1
SampleSet: Normal
StackLeniency: 0.7
Mode: 3
LetterboxInBreaks: 0
SpecialStyle: 0
WidescreenStoryboard: 0

[Editor]
DistanceSpacing: 0.7
BeatDivisor: 4
GridSize: 4
TimelineZoom: 1

[Metadata]
Title:CULPABLE
TitleUnicode:CULPABLE
Artist:EL SONIDO DE LA RESISTENCIA
ArtistUnicode:EL SONIDO DE LA RESISTENCIA
Creator:artumax
Version:artimañaMX
Source:
Tags:
BeatmapID:1312330
BeatmapSetID:622513

[Difficulty]
HPDrainRate:5
CircleSize:4
OverallDifficulty:5
ApproachRate:5
SliderMultiplier:1.4
SliderTickRate:1

[Events]
//Background and Video events
0,0,"hqdefault.jpg",0,0
//Break Periods
//Storyboard Layer 0 (Background)
//Storyboard Layer 1 (Fail)
//Storyboard Layer 2 (Pass)
//Storyboard Layer 3 (Foreground)
//Storyboard Sound Samples

[TimingPoints]
0,333.333333333333,4,1,0,100,1,0

[HitObjects]
64,192,2941,128,0,3871:0:0:0:0:
448,192,4643,128,0,5883:0:0:0:0:
192,192,6811,128,0,7741:0:0:0:0:
320,192,8359,128,0,9289:0:0:0:0:
192,192,8359,128,0,9289:0:0:0:0:
448,192,10990,128,0,12540:0:0:0:0:
64,192,10990,128,0,12540:0:0:0:0:
192,192,13003,128,0,14244:0:0:0:0:
320,192,13003,128,0,14244:0:0:0:0:
64,192,14396,128,0,15326:0:0:0:0:
448,192,14550,128,0,15325:0:0:0:0:
320,192,15789,128,0,17184:0:0:0:0:
192,192,15789,128,0,17184:0:0:0:0:
448,192,18111,128,0,19351:0:0:0:0:
64,192,18111,128,0,19351:0:0:0:0:
192,192,20123,1,0,0:0:0:0:
320,192,20123,1,0,0:0:0:0:
448,192,20588,128,0,21828:0:0:0:0:
64,192,20588,128,0,21828:0:0:0:0:
192,192,21981,128,0,22911:0:0:0:0:
320,192,21981,128,0,22911:0:0:0:0:
448,192,23064,128,0,23994:0:0:0:0:
64,192,23064,128,0,24149:0:0:0:0:
448,192,24458,1,0,0:0:0:0:
64,192,25541,1,0,0:0:0:0:
320,192,25541,128,0,26161:0:0:0:0:
192,192,25696,128,0,26161:0:0:0:0:
448,192,26315,1,0,0:0:0:0:
64,192,26470,1,0,0:0:0:0:
192,192,26625,1,0,0:0:0:0:
448,192,26934,1,0,0:0:0:0:
192,192,27089,1,0,0:0:0:0:
320,192,27244,1,0,0:0:0:0:
64,192,27399,1,0,0:0:0:0:
192,192,27553,1,0,0:0:0:0:
448,192,27708,1,0,0:0:0:0:
320,192,27708,1,0,0:0:0:0:
64,192,27863,1,0,0:0:0:0:
192,192,27863,1,0,0:0:0:0:
320,192,28173,1,0,0:0:0:0:
64,192,28173,1,0,0:0:0:0:
320,192,28637,1,0,0:0:0:0:
64,192,28792,1,0,0:0:0:0:
448,192,28792,1,0,0:0:0:0:
192,192,28947,1,0,0:0:0:0:
64,192,29101,1,0,0:0:0:0:
448,192,29256,1,0,0:0:0:0:
320,192,29411,1,0,0:0:0:0:
192,192,29411,1,0,0:0:0:0:
64,192,29566,1,0,0:0:0:0:
448,192,29721,1,0,0:0:0:0:
192,192,29721,1,0,0:0:0:0:
320,192,29875,1,0,0:0:0:0:
64,192,30030,1,0,0:0:0:0:
192,192,30030,1,0,0:0:0:0:
320,192,30185,1,0,0:0:0:0:
448,192,30185,1,0,0:0:0:0:
64,192,30495,1,0,0:0:0:0:
448,192,30649,1,0,0:0:0:0:
64,192,30804,1,0,0:0:0:0:
320,192,31114,1,0,0:0:0:0:
192,192,31269,1,0,0:0:0:0:
448,192,31578,1,0,0:0:0:0:
64,192,31578,1,0,0:0:0:0:
192,192,31733,1,0,0:0:0:0:
448,192,31888,1,0,0:0:0:0:
64,192,31888,1,0,0:0:0:0:
192,192,32043,1,0,0:0:0:0:
320,192,32197,1,0,0:0:0:0:
448,192,32352,1,0,0:0:0:0:
64,192,32352,1,0,0:0:0:0:
192,192,32662,1,0,0:0:0:0:
320,192,32817,1,0,0:0:0:0:
448,192,32971,1,0,0:0:0:0:
64,192,32971,1,0,0:0:0:0:
192,192,32971,1,0,0:0:0:0:
320,192,33281,1,0,0:0:0:0:
448,192,33281,1,0,0:0:0:0:
64,192,33591,1,0,0:0:0:0:
192,192,33745,1,0,0:0:0:0:
320,192,33745,1,0,0:0:0:0:
448,192,33745,1,0,0:0:0:0:
64,192,34055,1,0,0:0:0:0:
192,192,34055,1,0,0:0:0:0:
320,192,34210,1,0,0:0:0:0:
448,192,34210,1,0,0:0:0:0:
64,192,34365,1,0,0:0:0:0:
192,192,34519,1,0,0:0:0:0:
448,192,34674,1,0,0:0:0:0:
320,192,34674,1,0,0:0:0:0:
192,192,34829,1,0,0:0:0:0:
64,192,34829,1,0,0:0:0:0:
448,192,34984,1,0,0:0:0:0:
320,192,34984,1,0,0:0:0:0:
64,192,35293,1,0,0:0:0:0:
192,192,35293,1,0,0:0:0:0:
320,192,35448,1,0,0:0:0:0:
448,192,35448,1,0,0:0:0:0:
192,192,35603,1,0,0:0:0:0:
64,192,35603,1,0,0:0:0:0:
448,192,35758,1,0,0:0:0:0:
320,192,35758,1,0,0:0:0:0:
192,192,35913,1,0,0:0:0:0:
64,192,35913,1,0,0:0:0:0:
320,192,36067,1,0,0:0:0:0:
448,192,36067,1,0,0:0:0:0:
192,192,36222,1,0,0:0:0:0:
64,192,36222,1,0,0:0:0:0:
320,192,36377,1,0,0:0:0:0:
448,192,36377,1,0,0:0:0:0:
192,192,36532,1,0,0:0:0:0:
320,192,36687,1,0,0:0:0:0:
64,192,36687,1,0,0:0:0:0:
448,192,36687,1,0,0:0:0:0:
192,192,36996,1,0,0:0:0:0:
320,192,36996,1,0,0:0:0:0:
448,192,37151,1,0,0:0:0:0:
64,192,37151,1,0,0:0:0:0:
192,192,37306,1,0,0:0:0:0:
320,192,37461,1,0,0:0:0:0:
448,192,37461,1,0,0:0:0:0:
64,192,37615,1,0,0:0:0:0:
192,192,37770,1,0,0:0:0:0:
448,192,37925,1,0,0:0:0:0:
320,192,37925,1,0,0:0:0:0:
64,192,38080,1,0,0:0:0:0:
192,192,38235,1,0,0:0:0:0:
448,192,38389,1,0,0:0:0:0:
320,192,38389,1,0,0:0:0:0:
64,192,38544,1,0,0:0:0:0:
192,192,38699,1,0,0:0:0:0:
448,192,38699,128,0,39009:0:0:0:0:
320,192,38854,1,0,0:0:0:0:
64,192,38854,1,0,0:0:0:0:
192,192,39163,1,0,0:0:0:0:
320,192,39163,1,0,0:0:0:0:
448,192,39163,1,0,0:0:0:0:
64,192,39318,1,0,0:0:0:0:
448,192,39473,1,0,0:0:0:0:
192,192,39628,1,0,0:0:0:0:
448,192,39783,1,0,0:0:0:0:
320,192,39783,1,0,0:0:0:0:
64,192,39783,1,0,0:0:0:0:
192,192,40092,1,0,0:0:0:0:
320,192,40092,1,0,0:0:0:0:
448,192,40092,1,0,0:0:0:0:
64,192,40402,1,0,0:0:0:0:
320,192,40402,1,0,0:0:0:0:
64,192,40866,1,0,0:0:0:0:
192,192,40866,1,0,0:0:0:0:
448,192,40866,1,0,0:0:0:0:
320,192,40866,1,0,0:0:0:0:
64,192,41485,1,0,0:0:0:0:
320,192,41485,1,0,0:0:0:0:
192,192,41640,1,0,0:0:0:0:
320,192,41795,1,0,0:0:0:0:
64,192,41950,1,0,0:0:0:0:
448,192,41950,1,0,0:0:0:0:
192,192,42104,1,0,0:0:0:0:
320,192,42259,1,0,0:0:0:0:
64,192,42414,1,0,0:0:0:0:
448,192,42414,1,0,0:0:0:0:
192,192,42569,1,0,0:0:0:0:
320,192,42724,1,0,0:0:0:0:
448,192,42724,1,0,0:0:0:0:
64,192,42878,1,0,0:0:0:0:
192,192,42878,1,0,0:0:0:0:
448,192,43033,1,0,0:0:0:0:
320,192,43188,1,0,0:0:0:0:
64,192,43343,1,0,0:0:0:0:
192,192,43498,1,0,0:0:0:0:
320,192,43652,1,0,0:0:0:0:
448,192,43652,1,0,0:0:0:0:
64,192,43807,1,0,0:0:0:0:
192,192,43807,1,0,0:0:0:0:
448,192,43962,1,0,0:0:0:0:
320,192,43962,1,0,0:0:0:0:
64,192,44117,1,0,0:0:0:0:
192,192,44272,1,0,0:0:0:0:
320,192,44426,1,0,0:0:0:0:
448,192,44426,1,0,0:0:0:0:
64,192,44581,1,0,0:0:0:0:
192,192,44581,1,0,0:0:0:0:
448,192,44736,1,0,0:0:0:0:
320,192,44736,1,0,0:0:0:0:
64,192,44891,1,0,0:0:0:0:
192,192,44891,1,0,0:0:0:0:
320,192,45046,1,0,0:0:0:0:
448,192,45046,1,0,0:0:0:0:
320,192,45510,1,0,0:0:0:0:
448,192,45510,1,0,0:0:0:0:
320,192,45820,1,0,0:0:0:0:
448,192,45820,1,0,0:0:0:0:
320,192,45974,1,0,0:0:0:0:
448,192,45974,1,0,0:0:0:0:
64,192,46129,1,0,0:0:0:0:
192,192,46129,1,0,0:0:0:0:
320,192,46594,1,0,0:0:0:0:
448,192,46594,1,0,0:0:0:0:
64,192,46748,1,0,0:0:0:0:
192,192,46748,1,0,0:0:0:0:
320,192,46903,1,0,0:0:0:0:
448,192,46903,1,0,0:0:0:0:
64,192,47213,1,0,0:0:0:0:
192,192,47213,1,0,0:0:0:0:
320,192,47368,1,0,0:0:0:0:
448,192,47368,1,0,0:0:0:0:
192,192,47522,1,0,0:0:0:0:
64,192,47677,1,0,0:0:0:0:
448,192,47832,1,0,0:0:0:0:
320,192,47832,1,0,0:0:0:0:
192,192,47987,1,0,0:0:0:0:
64,192,47987,1,0,0:0:0:0:
320,192,48142,1,0,0:0:0:0:
448,192,48296,1,0,0:0:0:0:
64,192,48451,1,0,0:0:0:0:
192,192,48451,1,0,0:0:0:0:
320,192,48606,1,0,0:0:0:0:
448,192,48761,1,0,0:0:0:0:
64,192,48761,1,0,0:0:0:0:
192,192,48916,1,0,0:0:0:0:
320,192,48916,128,0,49226:0:0:0:0:
448,192,49070,128,0,49380:0:0:0:0:
64,192,49225,1,0,0:0:0:0:
192,192,49380,1,0,0:0:0:0:
320,192,49535,1,0,0:0:0:0:
448,192,49535,1,0,0:0:0:0:
64,192,49690,1,0,0:0:0:0:
192,192,49844,1,0,0:0:0:0:
320,192,49999,1,0,0:0:0:0:
448,192,49999,1,0,0:0:0:0:
64,192,50154,1,0,0:0:0:0:
192,192,50154,1,0,0:0:0:0:
320,192,50309,1,0,0:0:0:0:
448,192,50309,1,0,0:0:0:0:
64,192,50464,1,0,0:0:0:0:
192,192,50618,1,0,0:0:0:0:
320,192,50773,1,0,0:0:0:0:
448,192,50928,1,0,0:0:0:0:
64,192,50928,1,0,0:0:0:0:
192,192,51083,1,0,0:0:0:0:
320,192,51238,1,0,0:0:0:0:
448,192,51238,1,0,0:0:0:0:
64,192,51392,1,0,0:0:0:0:
192,192,51392,1,0,0:0:0:0:
320,192,51547,1,0,0:0:0:0:
448,192,51702,1,0,0:0:0:0:
64,192,51702,1,0,0:0:0:0:
192,192,51857,1,0,0:0:0:0:
320,192,52012,1,0,0:0:0:0:
448,192,52012,1,0,0:0:0:0:
64,192,52166,1,0,0:0:0:0:
192,192,52166,1,0,0:0:0:0:
448,192,52321,1,0,0:0:0:0:
320,192,52476,1,0,0:0:0:0:
64,192,52476,1,0,0:0:0:0:
192,192,52631,1,0,0:0:0:0:
448,192,52786,1,0,0:0:0:0:
320,192,52940,1,0,0:0:0:0:
64,192,52940,1,0,0:0:0:0:
192,192,53095,1,0,0:0:0:0:
448,192,53095,1,0,0:0:0:0:
320,192,53250,1,0,0:0:0:0:
64,192,53405,1,0,0:0:0:0:
192,192,53405,1,0,0:0:0:0:
320,192,53560,1,0,0:0:0:0:
192,192,53714,1,0,0:0:0:0:
64,192,53714,1,0,0:0:0:0:
448,192,53869,1,0,0:0:0:0:
320,192,53869,1,0,0:0:0:0:
192,192,54024,1,0,0:0:0:0:
64,192,54024,1,0,0:0:0:0:
448,192,54179,1,0,0:0:0:0:
320,192,54179,1,0,0:0:0:0:
192,192,54334,1,0,0:0:0:0:
64,192,54488,1,0,0:0:0:0:
320,192,54643,1,0,0:0:0:0:
448,192,54643,1,0,0:0:0:0:
64,192,54798,1,0,0:0:0:0:
192,192,54798,1,0,0:0:0:0:
320,192,54953,1,0,0:0:0:0:
448,192,54953,1,0,0:0:0:0:
64,192,55107,1,0,0:0:0:0:
320,192,55417,1,0,0:0:0:0:
192,192,55417,1,0,0:0:0:0:
64,192,55727,1,0,0:0:0:0:
448,192,55727,1,0,0:0:0:0:
192,192,56036,1,0,0:0:0:0:
448,192,56036,1,0,0:0:0:0:
192,192,56191,1,0,0:0:0:0:
320,192,56191,1,0,0:0:0:0:
448,192,56501,1,0,0:0:0:0:
64,192,56655,1,0,0:0:0:0:
320,192,56810,1,0,0:0:0:0:
448,192,57120,1,0,0:0:0:0:
64,192,57120,1,0,0:0:0:0:
192,192,57275,1,0,0:0:0:0:
320,192,57275,1,0,0:0:0:0:
64,192,57429,1,0,0:0:0:0:
448,192,57584,1,0,0:0:0:0:
192,192,57739,1,0,0:0:0:0:
320,192,57739,1,0,0:0:0:0:
64,192,57894,1,0,0:0:0:0:
448,192,57894,1,0,0:0:0:0:
192,192,58049,1,0,0:0:0:0:
320,192,58203,1,0,0:0:0:0:
448,192,58358,1,0,0:0:0:0:
64,192,58358,1,0,0:0:0:0:
192,192,58513,1,0,0:0:0:0:
320,192,58513,1,0,0:0:0:0:
448,192,58668,1,0,0:0:0:0:
64,192,58668,1,0,0:0:0:0:
192,192,58823,1,0,0:0:0:0:
320,192,58977,1,0,0:0:0:0:
448,192,58977,1,0,0:0:0:0:
64,192,59132,1,0,0:0:0:0:
192,192,59287,1,0,0:0:0:0:
320,192,59287,1,0,0:0:0:0:
448,192,59442,1,0,0:0:0:0:
64,192,59597,1,0,0:0:0:0:
320,192,59597,1,0,0:0:0:0:
192,192,59751,1,0,0:0:0:0:
448,192,59906,1,0,0:0:0:0:
64,192,60061,1,0,0:0:0:0:
448,192,60216,1,0,0:0:0:0:
192,192,60216,1,0,0:0:0:0:
64,192,60680,1,0,0:0:0:0:
320,192,60680,1,0,0:0:0:0:
192,192,60835,1,0,0:0:0:0:
320,192,60835,1,0,0:0:0:0:
448,192,61299,1,0,0:0:0:0:
64,192,61299,1,0,0:0:0:0:
192,192,61454,1,0,0:0:0:0:
320,192,61454,1,0,0:0:0:0:
448,192,61764,1,0,0:0:0:0:
192,192,61764,1,0,0:0:0:0:
320,192,61919,1,0,0:0:0:0:
448,192,62073,1,0,0:0:0:0:
320,192,62073,1,0,0:0:0:0:
192,192,62073,1,0,0:0:0:0:
320,192,62693,1,0,0:0:0:0:
64,192,62693,1,0,0:0:0:0:
192,192,63002,1,0,0:0:0:0:
448,192,63002,1,0,0:0:0:0:
320,192,63157,1,0,0:0:0:0:
64,192,63157,1,0,0:0:0:0:
192,192,63312,1,0,0:0:0:0:
320,192,63312,1,0,0:0:0:0:
448,192,63467,1,0,0:0:0:0:
64,192,63621,1,0,0:0:0:0:
320,192,63621,1,0,0:0:0:0:
192,192,63776,1,0,0:0:0:0:
448,192,63776,1,0,0:0:0:0:
320,192,63931,1,0,0:0:0:0:
192,192,64086,1,0,0:0:0:0:
448,192,64241,1,0,0:0:0:0:
64,192,64395,1,0,0:0:0:0:
320,192,64550,1,0,0:0:0:0:
192,192,64550,1,0,0:0:0:0:
64,192,64705,1,0,0:0:0:0:
320,192,64860,1,0,0:0:0:0:
320,192,65015,1,0,0:0:0:0:
192,192,65169,1,0,0:0:0:0:
320,192,65324,1,0,0:0:0:0:
64,192,65634,1,0,0:0:0:0:
448,192,65634,1,0,0:0:0:0:
192,192,65789,1,0,0:0:0:0:
320,192,65943,1,0,0:0:0:0:
448,192,65943,1,0,0:0:0:0:
64,192,66098,1,0,0:0:0:0:
320,192,66253,1,0,0:0:0:0:
192,192,66408,1,0,0:0:0:0:
448,192,66563,1,0,0:0:0:0:
320,192,66563,1,0,0:0:0:0:
192,192,66717,1,0,0:0:0:0:
64,192,66717,1,0,0:0:0:0:
320,192,66872,1,0,0:0:0:0:
448,192,66872,1,0,0:0:0:0:
192,192,67027,1,0,0:0:0:0:
64,192,67182,1,0,0:0:0:0:
320,192,67337,1,0,0:0:0:0:
448,192,67337,1,0,0:0:0:0:
64,192,67491,1,0,0:0:0:0:
192,192,67491,1,0,0:0:0:0:
320,192,67801,1,0,0:0:0:0:
448,192,67801,1,0,0:0:0:0:
192,192,67801,1,0,0:0:0:0:
320,192,68111,1,0,0:0:0:0:
448,192,68111,1,0,0:0:0:0:
64,192,68111,1,0,0:0:0:0:
192,192,68111,1,0,0:0:0:0:
320,192,68265,1,0,0:0:0:0:
448,192,68420,1,0,0:0:0:0:
64,192,68420,1,0,0:0:0:0:
192,192,68575,1,0,0:0:0:0:
320,192,68575,1,0,0:0:0:0:
448,192,68730,1,0,0:0:0:0:
64,192,68730,1,0,0:0:0:0:
192,192,68884,1,0,0:0:0:0:
320,192,69039,1,0,0:0:0:0:
448,192,69039,1,0,0:0:0:0:
64,192,69194,1,0,0:0:0:0:
320,192,69349,1,0,0:0:0:0:
192,192,69349,1,0,0:0:0:0:
448,192,69504,1,0,0:0:0:0:
320,192,69504,1,0,0:0:0:0:
64,192,69504,1,0,0:0:0:0:
192,192,69813,1,0,0:0:0:0:
320,192,69813,1,0,0:0:0:0:
64,192,70123,128,0,70898:0:0:0:0:
448,192,70123,128,0,70898:0:0:0:0:
192,192,70587,128,0,70897:0:0:0:0:
320,192,70587,128,0,70897:0:0:0:0:
320,192,71206,1,0,0:0:0:0:
64,192,71206,1,0,0:0:0:0:
448,192,71206,1,0,0:0:0:0:
192,192,71516,1,0,0:0:0:0:
320,192,71671,1,0,0:0:0:0:
64,192,71826,1,0,0:0:0:0:
320,192,71826,1,0,0:0:0:0:
448,192,71826,1,0,0:0:0:0:
192,192,72135,1,0,0:0:0:0:
320,192,72135,1,0,0:0:0:0:
448,192,72290,1,0,0:0:0:0:
64,192,72290,1,0,0:0:0:0:
192,192,72445,1,0,0:0:0:0:
320,192,72600,1,0,0:0:0:0:
448,192,72600,1,0,0:0:0:0:
64,192,72600,1,0,0:0:0:0:
192,192,72754,1,0,0:0:0:0:
64,192,73064,128,0,74769:0:0:0:0:
448,192,73219,128,0,74769:0:0:0:0:
320,192,74922,128,0,75232:0:0:0:0:
192,192,74922,128,0,75232:0:0:0:0:
64,192,75386,1,0,0:0:0:0:
448,192,75386,1,0,0:0:0:0:
192,192,75696,1,0,0:0:0:0:
320,192,75696,1,0,0:0:0:0:
192,192,76005,1,0,0:0:0:0:
320,192,76005,1,0,0:0:0:0:
64,192,76315,1,0,0:0:0:0:
448,192,76315,1,0,0:0:0:0:
192,192,76470,1,0,0:0:0:0:
320,192,76470,1,0,0:0:0:0:
448,192,76624,1,0,0:0:0:0:
64,192,76624,1,0,0:0:0:0:
320,192,76779,1,0,0:0:0:0:
192,192,76934,1,0,0:0:0:0:
320,192,76934,1,0,0:0:0:0:
64,192,77089,1,0,0:0:0:0:
448,192,77089,1,0,0:0:0:0:
192,192,77398,1,0,0:0:0:0:
320,192,77398,1,0,0:0:0:0:
448,192,77398,1,0,0:0:0:0:
64,192,77553,1,0,0:0:0:0:
448,192,77708,1,0,0:0:0:0:
192,192,77863,1,0,0:0:0:0:
320,192,77863,1,0,0:0:0:0:
64,192,78018,1,0,0:0:0:0:
320,192,78018,1,0,0:0:0:0:
448,192,78018,1,0,0:0:0:0:
192,192,78172,1,0,0:0:0:0:
320,192,78327,1,0,0:0:0:0:
448,192,78327,1,0,0:0:0:0:
64,192,78482,1,0,0:0:0:0:
448,192,78637,1,0,0:0:0:0:
320,192,78637,1,0,0:0:0:0:
64,192,78792,1,0,0:0:0:0:
192,192,78792,1,0,0:0:0:0:
320,192,78792,1,0,0:0:0:0:
448,192,78792,1,0,0:0:0:0:
320,192,79101,1,0,0:0:0:0:
448,192,79101,1,0,0:0:0:0:
64,192,79256,1,0,0:0:0:0:
320,192,79411,1,0,0:0:0:0:
448,192,79411,1,0,0:0:0:0:
192,192,79411,1,0,0:0:0:0:
64,192,79566,1,0,0:0:0:0:
192,192,79720,1,0,0:0:0:0:
320,192,79720,1,0,0:0:0:0:
448,192,79720,1,0,0:0:0:0:
192,192,79875,1,0,0:0:0:0:
64,192,79875,1,0,0:0:0:0:
320,192,80030,1,0,0:0:0:0:
448,192,80030,1,0,0:0:0:0:
192,192,80185,1,0,0:0:0:0:
64,192,80185,1,0,0:0:0:0:
448,192,80185,1,0,0:0:0:0:
320,192,80185,1,0,0:0:0:0:
192,192,80340,1,0,0:0:0:0:
64,192,80340,1,0,0:0:0:0:
448,192,80494,1,0,0:0:0:0:
320,192,80494,1,0,0:0:0:0:
192,192,80649,1,0,0:0:0:0:
64,192,80649,1,0,0:0:0:0:
448,192,80804,1,0,0:0:0:0:
320,192,80804,1,0,0:0:0:0:
192,192,80959,1,0,0:0:0:0:
64,192,80959,1,0,0:0:0:0:
448,192,80959,1,0,0:0:0:0:
320,192,81114,1,0,0:0:0:0:
192,192,81114,1,0,0:0:0:0:
64,192,81114,1,0,0:0:0:0:
448,192,81268,1,0,0:0:0:0:
320,192,81268,1,0,0:0:0:0:
192,192,81423,1,0,0:0:0:0:
64,192,81423,1,0,0:0:0:0:
320,192,81578,1,0,0:0:0:0:
192,192,81578,1,0,0:0:0:0:
64,192,81733,1,0,0:0:0:0:
448,192,81733,1,0,0:0:0:0:
320,192,81733,1,0,0:0:0:0:
192,192,81888,1,0,0:0:0:0:
64,192,81888,1,0,0:0:0:0:
448,192,82042,1,0,0:0:0:0:
320,192,82042,1,0,0:0:0:0:
192,192,82197,1,0,0:0:0:0:
64,192,82197,1,0,0:0:0:0:
448,192,82352,1,0,0:0:0:0:
320,192,82352,1,0,0:0:0:0:
192,192,82352,1,0,0:0:0:0:
64,192,82352,1,0,0:0:0:0:
448,192,82507,1,0,0:0:0:0:
320,192,82507,1,0,0:0:0:0:
192,192,82661,1,0,0:0:0:0:
64,192,82661,1,0,0:0:0:0:
448,192,82816,1,0,0:0:0:0:
320,192,82816,1,0,0:0:0:0:
192,192,82971,1,0,0:0:0:0:
320,192,82971,1,0,0:0:0:0:
192,192,83126,1,0,0:0:0:0:
64,192,83281,1,0,0:0:0:0:
320,192,83281,1,0,0:0:0:0:
448,192,83281,1,0,0:0:0:0:
192,192,83435,1,0,0:0:0:0:
320,192,83435,1,0,0:0:0:0:
192,192,83590,1,0,0:0:0:0:
64,192,83745,1,0,0:0:0:0:
320,192,83745,1,0,0:0:0:0:
192,192,83745,1,0,0:0:0:0:
448,192,83900,1,0,0:0:0:0:
320,192,83900,1,0,0:0:0:0:
64,192,84055,1,0,0:0:0:0:
192,192,84055,1,0,0:0:0:0:
320,192,84209,1,0,0:0:0:0:
448,192,84364,1,0,0:0:0:0:
64,192,84364,1,0,0:0:0:0:
192,192,84364,1,0,0:0:0:0:
320,192,84519,1,0,0:0:0:0:
64,192,84674,1,0,0:0:0:0:
192,192,84674,1,0,0:0:0:0:
320,192,84674,1,0,0:0:0:0:
448,192,84674,1,0,0:0:0:0:
192,192,84829,1,0,0:0:0:0:
64,192,84829,1,0,0:0:0:0:
320,192,84983,1,0,0:0:0:0:
192,192,85138,1,0,0:0:0:0:
448,192,85138,1,0,0:0:0:0:
64,192,85293,1,0,0:0:0:0:
320,192,85293,1,0,0:0:0:0:
192,192,85448,1,0,0:0:0:0:
448,192,85448,1,0,0:0:0:0:
320,192,85448,1,0,0:0:0:0:
64,192,85603,1,0,0:0:0:0:
192,192,85603,1,0,0:0:0:0:
448,192,85757,1,0,0:0:0:0:
320,192,85757,1,0,0:0:0:0:
192,192,85912,1,0,0:0:0:0:
64,192,85912,1,0,0:0:0:0:
320,192,86067,1,0,0:0:0:0:
192,192,86067,1,0,0:0:0:0:
320,192,86222,1,0,0:0:0:0:
192,192,86377,1,0,0:0:0:0:
64,192,86377,1,0,0:0:0:0:
448,192,86377,1,0,0:0:0:0:
320,192,86531,1,0,0:0:0:0:
192,192,86531,1,0,0:0:0:0:
64,192,86686,1,0,0:0:0:0:
448,192,86686,1,0,0:0:0:0:
192,192,86841,1,0,0:0:0:0:
320,192,86996,1,0,0:0:0:0:
64,192,87151,1,0,0:0:0:0:
448,192,87151,1,0,0:0:0:0:
192,192,87305,1,0,0:0:0:0:
320,192,87305,1,0,0:0:0:0:
448,192,87460,1,0,0:0:0:0:
64,192,87460,1,0,0:0:0:0:
320,192,87615,1,0,0:0:0:0:
192,192,87615,1,0,0:0:0:0:
192,192,87770,1,0,0:0:0:0:
448,192,87770,1,0,0:0:0:0:
320,192,87925,1,0,0:0:0:0:
64,192,87925,1,0,0:0:0:0:
320,192,88079,1,0,0:0:0:0:
192,192,88079,1,0,0:0:0:0:
448,192,88234,1,0,0:0:0:0:
64,192,88234,1,0,0:0:0:0:
320,192,88389,1,0,0:0:0:0:
192,192,88389,1,0,0:0:0:0:
448,192,88544,1,0,0:0:0:0:
320,192,88699,1,0,0:0:0:0:
64,192,88699,1,0,0:0:0:0:
192,192,88699,1,0,0:0:0:0:
448,192,88853,1,0,0:0:0:0:
320,192,88853,1,0,0:0:0:0:
192,192,88853,1,0,0:0:0:0:
320,192,89008,1,0,0:0:0:0:
448,192,89163,1,0,0:0:0:0:
64,192,89163,1,0,0:0:0:0:
192,192,89163,1,0,0:0:0:0:
320,192,89318,1,0,0:0:0:0:
448,192,89318,1,0,0:0:0:0:
192,192,89318,1,0,0:0:0:0:
64,192,89318,1,0,0:0:0:0:
448,192,89627,1,0,0:0:0:0:
192,192,89627,1,0,0:0:0:0:
192,192,89937,1,0,0:0:0:0:
320,192,89937,1,0,0:0:0:0:
64,192,89937,1,0,0:0:0:0:
448,192,89937,1,0,0:0:0:0:
192,192,90247,1,0,0:0:0:0:
320,192,90247,1,0,0:0:0:0:
192,192,90401,1,0,0:0:0:0:
320,192,90556,1,0,0:0:0:0:
448,192,90556,1,0,0:0:0:0:
64,192,90556,1,0,0:0:0:0:
192,192,90866,1,0,0:0:0:0:
320,192,90866,1,0,0:0:0:0:
448,192,91021,1,0,0:0:0:0:
64,192,91021,1,0,0:0:0:0:
192,192,91175,1,0,0:0:0:0:
320,192,91330,1,0,0:0:0:0:
64,192,91485,1,0,0:0:0:0:
448,192,91640,1,0,0:0:0:0:
192,192,91640,1,0,0:0:0:0:
320,192,91795,1,0,0:0:0:0:
192,192,91795,1,0,0:0:0:0:
448,192,91949,1,0,0:0:0:0:
64,192,91949,1,0,0:0:0:0:
320,192,91949,1,0,0:0:0:0:
192,192,92104,1,0,0:0:0:0:
320,192,92259,1,0,0:0:0:0:
448,192,92259,1,0,0:0:0:0:
64,192,92414,1,0,0:0:0:0:
448,192,92569,1,0,0:0:0:0:
320,192,92569,1,0,0:0:0:0:
192,192,92569,1,0,0:0:0:0:
320,192,92723,1,0,0:0:0:0:
448,192,92723,1,0,0:0:0:0:
64,192,92723,1,0,0:0:0:0:
192,192,92878,1,0,0:0:0:0:
448,192,93033,1,0,0:0:0:0:
320,192,93033,1,0,0:0:0:0:
64,192,93188,1,0,0:0:0:0:
192,192,93343,1,0,0:0:0:0:
320,192,93343,1,0,0:0:0:0:
448,192,93497,1,0,0:0:0:0:
64,192,93652,1,0,0:0:0:0:
192,192,93652,1,0,0:0:0:0:
320,192,93807,1,0,0:0:0:0:
448,192,93807,128,0,94117:0:0:0:0:
64,192,93962,1,0,0:0:0:0:
192,192,94117,1,0,0:0:0:0:
320,192,94271,1,0,0:0:0:0:
448,192,94426,1,0,0:0:0:0:
320,192,94581,1,0,0:0:0:0:
192,192,94736,1,0,0:0:0:0:
64,192,94736,1,0,0:0:0:0:
192,192,94891,1,0,0:0:0:0:
320,192,95045,1,0,0:0:0:0:
192,192,95200,1,0,0:0:0:0:
448,192,95200,1,0,0:0:0:0:
320,192,95355,1,0,0:0:0:0:
448,192,95510,1,0,0:0:0:0:
64,192,95510,1,0,0:0:0:0:
192,192,95665,1,0,0:0:0:0:
320,192,95819,1,0,0:0:0:0:
448,192,95974,1,0,0:0:0:0:
64,192,95974,1,0,0:0:0:0:
192,192,96129,1,0,0:0:0:0:
320,192,96284,1,0,0:0:0:0:
64,192,96438,1,0,0:0:0:0:
448,192,96438,1,0,0:0:0:0:
192,192,96593,1,0,0:0:0:0:
320,192,96593,1,0,0:0:0:0:
448,192,96748,1,0,0:0:0:0:
64,192,96903,1,0,0:0:0:0:
192,192,96903,1,0,0:0:0:0:
320,192,97058,1,0,0:0:0:0:
448,192,97212,1,0,0:0:0:0:
64,192,97212,1,0,0:0:0:0:
192,192,97367,1,0,0:0:0:0:
320,192,97522,1,0,0:0:0:0:
448,192,97522,1,0,0:0:0:0:
64,192,97677,1,0,0:0:0:0:
192,192,97677,1,0,0:0:0:0:
320,192,97832,1,0,0:0:0:0:
448,192,97986,1,0,0:0:0:0:
64,192,97986,1,0,0:0:0:0:
192,192,98141,1,0,0:0:0:0:
320,192,98141,1,0,0:0:0:0:
448,192,98296,1,0,0:0:0:0:
64,192,98451,1,0,0:0:0:0:
192,192,98606,1,0,0:0:0:0:
320,192,98606,1,0,0:0:0:0:
448,192,98760,1,0,0:0:0:0:
64,192,98760,1,0,0:0:0:0:
192,192,98915,1,0,0:0:0:0:
320,192,99070,1,0,0:0:0:0:
64,192,99225,1,0,0:0:0:0:
320,192,99380,1,0,0:0:0:0:
192,192,99534,1,0,0:0:0:0:
64,192,99689,1,0,0:0:0:0:
320,192,99689,1,0,0:0:0:0:
448,192,99844,1,0,0:0:0:0:
64,192,99999,1,0,0:0:0:0:
192,192,100154,1,0,0:0:0:0:
320,192,100154,1,0,0:0:0:0:
64,192,100463,1,0,0:0:0:0:
320,192,100463,1,0,0:0:0:0:
448,192,100463,1,0,0:0:0:0:
192,192,100773,1,0,0:0:0:0:
64,192,100928,1,0,0:0:0:0:
320,192,100928,1,0,0:0:0:0:
448,192,100928,1,0,0:0:0:0:
192,192,101082,1,0,0:0:0:0:
320,192,101237,1,0,0:0:0:0:
448,192,101237,1,0,0:0:0:0:
64,192,101237,1,0,0:0:0:0:
192,192,101392,1,0,0:0:0:0:
320,192,101547,1,0,0:0:0:0:
448,192,101547,1,0,0:0:0:0:
64,192,101702,1,0,0:0:0:0:
192,192,101856,1,0,0:0:0:0:
320,192,101856,1,0,0:0:0:0:
64,192,102011,1,0,0:0:0:0:
448,192,102011,1,0,0:0:0:0:
192,192,102166,1,0,0:0:0:0:
320,192,102166,1,0,0:0:0:0:
64,192,102321,1,0,0:0:0:0:
448,192,102321,128,0,102631:0:0:0:0:
320,192,102476,1,0,0:0:0:0:
192,192,102630,1,0,0:0:0:0:
64,192,102785,1,0,0:0:0:0:
448,192,102785,1,0,0:0:0:0:
192,192,102940,1,0,0:0:0:0:
320,192,102940,1,0,0:0:0:0:
64,192,103095,1,0,0:0:0:0:
320,192,103250,1,0,0:0:0:0:
192,192,103250,1,0,0:0:0:0:
64,192,103559,1,0,0:0:0:0:
448,192,103559,128,0,104179:0:0:0:0:
64,192,103869,128,0,104179:0:0:0:0:
320,192,104178,1,0,0:0:0:0:
192,192,104178,1,0,0:0:0:0:
320,192,104488,1,0,0:0:0:0:
192,192,104488,1,0,0:0:0:0:
64,192,104643,1,0,0:0:0:0:
320,192,104643,1,0,0:0:0:0:
448,192,104643,1,0,0:0:0:0:
192,192,104952,1,0,0:0:0:0:
320,192,104952,1,0,0:0:0:0:
64,192,105107,1,0,0:0:0:0:
320,192,105262,1,0,0:0:0:0:
448,192,105262,1,0,0:0:0:0:
192,192,105417,1,0,0:0:0:0:
320,192,105572,1,0,0:0:0:0:
448,192,105572,1,0,0:0:0:0:
64,192,105726,1,0,0:0:0:0:
320,192,105881,1,0,0:0:0:0:
192,192,105881,1,0,0:0:0:0:
64,192,106191,1,0,0:0:0:0:
320,192,106191,1,0,0:0:0:0:
192,192,106346,1,0,0:0:0:0:
448,192,106346,1,0,0:0:0:0:
320,192,106500,1,0,0:0:0:0:
64,192,106500,1,0,0:0:0:0:
192,192,106655,1,0,0:0:0:0:
448,192,106655,1,0,0:0:0:0:
320,192,106965,1,0,0:0:0:0:
64,192,106965,1,0,0:0:0:0:
192,192,107120,1,0,0:0:0:0:
320,192,107274,1,0,0:0:0:0:
64,192,107429,1,0,0:0:0:0:
448,192,107429,1,0,0:0:0:0:
320,192,107429,1,0,0:0:0:0:
192,192,107584,1,0,0:0:0:0:
64,192,107739,1,0,0:0:0:0:
448,192,107739,1,0,0:0:0:0:
192,192,107739,1,0,0:0:0:0:
64,192,107894,1,0,0:0:0:0:
320,192,108048,1,0,0:0:0:0:
192,192,108048,1,0,0:0:0:0:
448,192,108203,1,0,0:0:0:0:
64,192,108203,1,0,0:0:0:0:
320,192,108358,1,0,0:0:0:0:
192,192,108358,1,0,0:0:0:0:
64,192,108513,1,0,0:0:0:0:
448,192,108513,1,0,0:0:0:0:
320,192,108513,1,0,0:0:0:0:
192,192,108668,1,0,0:0:0:0:
448,192,108668,1,0,0:0:0:0:
64,192,108668,1,0,0:0:0:0:
320,192,108822,1,0,0:0:0:0:
192,192,108822,1,0,0:0:0:0:
448,192,108977,1,0,0:0:0:0:
64,192,108977,1,0,0:0:0:0:
320,192,109132,1,0,0:0:0:0:
192,192,109132,1,0,0:0:0:0:
64,192,109287,1,0,0:0:0:0:
448,192,109287,1,0,0:0:0:0:
320,192,109441,1,0,0:0:0:0:
64,192,109596,1,0,0:0:0:0:
192,192,109596,1,0,0:0:0:0:
320,192,109596,1,0,0:0:0:0:
448,192,109596,1,0,0:0:0:0:
64,192,109751,1,0,0:0:0:0:
192,192,109751,1,0,0:0:0:0:
448,192,109906,1,0,0:0:0:0:
320,192,109906,1,0,0:0:0:0:
192,192,110061,1,0,0:0:0:0:
64,192,110061,1,0,0:0:0:0:
320,192,110215,1,0,0:0:0:0:
448,192,110215,1,0,0:0:0:0:
64,192,110215,1,0,0:0:0:0:
192,192,110215,1,0,0:0:0:0:
320,192,110370,1,0,0:0:0:0:
448,192,110370,1,0,0:0:0:0:
64,192,110525,1,0,0:0:0:0:
192,192,110525,1,0,0:0:0:0:
320,192,110680,1,0,0:0:0:0:
448,192,110680,1,0,0:0:0:0:
64,192,110835,1,0,0:0:0:0:
192,192,110835,1,0,0:0:0:0:
320,192,110989,1,0,0:0:0:0:
448,192,110989,1,0,0:0:0:0:
320,192,111299,1,0,0:0:0:0:
448,192,111299,1,0,0:0:0:0:
320,192,111454,1,0,0:0:0:0:
448,192,111454,1,0,0:0:0:0:
320,192,111763,1,0,0:0:0:0:
448,192,111763,1,0,0:0:0:0:
64,192,112228,1,0,0:0:0:0:
192,192,112228,1,0,0:0:0:0:
320,192,112692,1,0,0:0:0:0:
448,192,112692,1,0,0:0:0:0:
448,192,112847,1,0,0:0:0:0:
320,192,112847,1,0,0:0:0:0:
320,192,113311,1,0,0:0:0:0:
448,192,113311,1,0,0:0:0:0:
448,192,113466,1,0,0:0:0:0:
320,192,113466,1,0,0:0:0:0:
64,192,113931,1,0,0:0:0:0:
192,192,113931,1,0,0:0:0:0:
192,192,114085,1,0,0:0:0:0:
64,192,114085,1,0,0:0:0:0:
64,192,114240,1,0,0:0:0:0:
192,192,114240,1,0,0:0:0:0:
192,192,114550,1,0,0:0:0:0:
320,192,114550,1,0,0:0:0:0:
192,192,114705,1,0,0:0:0:0:
320,192,114705,1,0,0:0:0:0:
64,192,115014,1,0,0:0:0:0:
320,192,115014,1,0,0:0:0:0:
448,192,115014,1,0,0:0:0:0:
448,192,115169,1,0,0:0:0:0:
192,192,115169,1,0,0:0:0:0:
320,192,115324,1,0,0:0:0:0:
192,192,115479,1,0,0:0:0:0:
64,192,115479,1,0,0:0:0:0:
320,192,115479,1,0,0:0:0:0:
448,192,115479,1,0,0:0:0:0:
320,192,115788,1,0,0:0:0:0:
448,192,115788,1,0,0:0:0:0:
64,192,115788,1,0,0:0:0:0:
192,192,116098,1,0,0:0:0:0:
448,192,116098,1,0,0:0:0:0:
64,192,116098,1,0,0:0:0:0:
320,192,116098,1,0,0:0:0:0:
320,192,116253,1,0,0:0:0:0:
448,192,116253,1,0,0:0:0:0:
192,192,116253,1,0,0:0:0:0:
448,192,116407,1,0,0:0:0:0:
64,192,116562,1,0,0:0:0:0:
320,192,116562,1,0,0:0:0:0:
192,192,116562,1,0,0:0:0:0:
192,192,116717,1,0,0:0:0:0:
64,192,116717,1,0,0:0:0:0:
320,192,116717,1,0,0:0:0:0:
448,192,116717,1,0,0:0:0:0:
64,192,117027,1,0,0:0:0:0:
320,192,117027,1,0,0:0:0:0:
192,192,117181,1,0,0:0:0:0:
320,192,117181,1,0,0:0:0:0:
192,192,117336,1,0,0:0:0:0:
320,192,117336,1,0,0:0:0:0:
64,192,117491,1,0,0:0:0:0:
192,192,117646,1,0,0:0:0:0:
448,192,117646,1,0,0:0:0:0:
192,192,117801,1,0,0:0:0:0:
448,192,117801,1,0,0:0:0:0:
64,192,117955,1,0,0:0:0:0:
448,192,118110,1,0,0:0:0:0:
320,192,118265,1,0,0:0:0:0:
192,192,118265,1,0,0:0:0:0:
64,192,118420,1,0,0:0:0:0:
320,192,118420,1,0,0:0:0:0:
192,192,118420,1,0,0:0:0:0:
320,192,118575,1,0,0:0:0:0:
448,192,118575,1,0,0:0:0:0:
192,192,118729,1,0,0:0:0:0:
64,192,118729,1,0,0:0:0:0:
192,192,118884,1,0,0:0:0:0:
320,192,118884,1,0,0:0:0:0:
448,192,118884,1,0,0:0:0:0:
64,192,119039,1,0,0:0:0:0:
448,192,119194,1,0,0:0:0:0:
320,192,119194,1,0,0:0:0:0:
320,192,119349,1,0,0:0:0:0:
448,192,119349,1,0,0:0:0:0:
64,192,119349,1,0,0:0:0:0:
192,192,119349,1,0,0:0:0:0:
192,192,119658,1,0,0:0:0:0:
320,192,119658,1,0,0:0:0:0:
192,192,119813,1,0,0:0:0:0:
320,192,119813,1,0,0:0:0:0:
448,192,119968,1,0,0:0:0:0:
64,192,119968,1,0,0:0:0:0:
320,192,120277,1,0,0:0:0:0:
192,192,120277,1,0,0:0:0:0:
64,192,120432,1,0,0:0:0:0:
448,192,120432,1,0,0:0:0:0:
320,192,120432,1,0,0:0:0:0:
192,192,120587,1,0,0:0:0:0:
320,192,120742,1,0,0:0:0:0:
64,192,120897,1,0,0:0:0:0:
448,192,120897,1,0,0:0:0:0:
192,192,121051,1,0,0:0:0:0:
320,192,121051,1,0,0:0:0:0:
448,192,121206,1,0,0:0:0:0:
64,192,121206,1,0,0:0:0:0:
192,192,121361,1,0,0:0:0:0:
320,192,121361,1,0,0:0:0:0:
64,192,121516,1,0,0:0:0:0:
320,192,121516,1,0,0:0:0:0:
448,192,121671,1,0,0:0:0:0:
192,192,121825,1,0,0:0:0:0:
448,192,121825,1,0,0:0:0:0:
320,192,121825,1,0,0:0:0:0:
64,192,121980,1,0,0:0:0:0:
448,192,121980,1,0,0:0:0:0:
320,192,121980,1,0,0:0:0:0:
192,192,122135,1,0,0:0:0:0:
320,192,122290,1,0,0:0:0:0:
448,192,122290,1,0,0:0:0:0:
64,192,122445,1,0,0:0:0:0:
448,192,122445,1,0,0:0:0:0:
320,192,122445,1,0,0:0:0:0:
320,192,122754,1,0,0:0:0:0:
448,192,122754,1,0,0:0:0:0:
192,192,122754,1,0,0:0:0:0:
64,192,122754,1,0,0:0:0:0:
192,192,122909,1,0,0:0:0:0:
320,192,122909,1,0,0:0:0:0:
448,192,122909,1,0,0:0:0:0:
64,192,123064,1,0,0:0:0:0:
320,192,123218,1,0,0:0:0:0:
64,192,123218,1,0,0:0:0:0:
320,192,123373,1,0,0:0:0:0:
192,192,123528,1,0,0:0:0:0:
320,192,123683,1,0,0:0:0:0:
192,192,123683,1,0,0:0:0:0:
448,192,123683,1,0,0:0:0:0:
64,192,123683,1,0,0:0:0:0:
448,192,123838,1,0,0:0:0:0:
64,192,123838,1,0,0:0:0:0:
192,192,123992,1,0,0:0:0:0:
320,192,124147,1,0,0:0:0:0:
448,192,124147,1,0,0:0:0:0:
64,192,124302,1,0,0:0:0:0:
192,192,124302,1,0,0:0:0:0:
448,192,124302,1,0,0:0:0:0:
320,192,124302,1,0,0:0:0:0:
192,192,124612,1,0,0:0:0:0:
448,192,124612,1,0,0:0:0:0:
320,192,124612,1,0,0:0:0:0:
64,192,124612,1,0,0:0:0:0:
192,192,124766,1,0,0:0:0:0:
320,192,124921,1,0,0:0:0:0:
64,192,125076,1,0,0:0:0:0:
448,192,125076,1,0,0:0:0:0:
320,192,125076,1,0,0:0:0:0:
192,192,125231,1,0,0:0:0:0:
320,192,125231,1,0,0:0:0:0:
64,192,125386,1,0,0:0:0:0:
448,192,125386,1,0,0:0:0:0:
320,192,125540,1,0,0:0:0:0:
192,192,125695,1,0,0:0:0:0:
64,192,125695,1,0,0:0:0:0:
448,192,125850,1,0,0:0:0:0:
320,192,125850,1,0,0:0:0:0:
192,192,126005,1,0,0:0:0:0:
64,192,126005,1,0,0:0:0:0:
320,192,126005,1,0,0:0:0:0:
448,192,126005,1,0,0:0:0:0:
192,192,126160,1,0,0:0:0:0:
64,192,126160,1,0,0:0:0:0:
320,192,126314,1,0,0:0:0:0:
448,192,126314,1,0,0:0:0:0:
192,192,126469,1,0,0:0:0:0:
320,192,126469,1,0,0:0:0:0:
448,192,126624,1,0,0:0:0:0:
64,192,126624,1,0,0:0:0:0:
320,192,126779,1,0,0:0:0:0:
448,192,126779,1,0,0:0:0:0:
192,192,126934,1,0,0:0:0:0:
64,192,126934,128,0,127244:0:0:0:0:
448,192,127088,1,0,0:0:0:0:
192,192,127088,1,0,0:0:0:0:
320,192,127243,1,0,0:0:0:0:
64,192,127398,1,0,0:0:0:0:
192,192,127398,1,0,0:0:0:0:
320,192,127553,1,0,0:0:0:0:
448,192,127553,1,0,0:0:0:0:
64,192,127553,1,0,0:0:0:0:
192,192,127553,1,0,0:0:0:0:
192,192,127862,1,0,0:0:0:0:
448,192,127862,1,0,0:0:0:0:
320,192,127862,1,0,0:0:0:0:
64,192,128017,1,0,0:0:0:0:
448,192,128017,1,0,0:0:0:0:
320,192,128017,1,0,0:0:0:0:
64,192,128327,1,0,0:0:0:0:
192,192,128327,1,0,0:0:0:0:
320,192,128327,1,0,0:0:0:0:
448,192,128327,1,0,0:0:0:0:
192,192,128636,1,0,0:0:0:0:
64,192,128636,1,0,0:0:0:0:
448,192,128636,1,0,0:0:0:0:
320,192,128636,1,0,0:0:0:0:
192,192,128946,1,0,0:0:0:0:
320,192,128946,1,0,0:0:0:0:
64,192,129256,1,0,0:0:0:0:
448,192,129256,1,0,0:0:0:0:
192,192,129565,1,0,0:0:0:0:
320,192,129565,1,0,0:0:0:0:
64,192,129875,1,0,0:0:0:0:
448,192,129875,1,0,0:0:0:0:
192,192,130184,1,0,0:0:0:0:
320,192,130184,1,0,0:0:0:0:
64,192,130339,1,0,0:0:0:0:
448,192,130339,1,0,0:0:0:0:
192,192,130494,1,0,0:0:0:0:
320,192,130494,1,0,0:0:0:0:
64,192,130804,1,0,0:0:0:0:
448,192,130804,1,0,0:0:0:0:
192,192,130958,1,0,0:0:0:0:
320,192,130958,1,0,0:0:0:0:
448,192,131113,1,0,0:0:0:0:
64,192,131113,1,0,0:0:0:0:
320,192,131268,1,0,0:0:0:0:
192,192,131423,1,0,0:0:0:0:
64,192,131578,1,0,0:0:0:0:
448,192,131578,1,0,0:0:0:0:
320,192,131732,1,0,0:0:0:0:
192,192,131732,1,0,0:0:0:0:
192,192,131887,1,0,0:0:0:0:
320,192,131887,1,0,0:0:0:0:
64,192,132042,1,0,0:0:0:0:
448,192,132042,1,0,0:0:0:0:
192,192,132197,1,0,0:0:0:0:
320,192,132197,1,0,0:0:0:0:
64,192,132352,1,0,0:0:0:0:
448,192,132352,1,0,0:0:0:0:
192,192,132661,1,0,0:0:0:0:
320,192,132661,1,0,0:0:0:0:
64,192,132816,1,0,0:0:0:0:
448,192,132816,1,0,0:0:0:0:
192,192,132971,1,0,0:0:0:0:
320,192,132971,1,0,0:0:0:0:
64,192,133280,1,0,0:0:0:0:
448,192,133280,1,0,0:0:0:0:
192,192,133435,1,0,0:0:0:0:
320,192,133435,1,0,0:0:0:0:
448,192,133590,1,0,0:0:0:0:
64,192,133590,1,0,0:0:0:0:
192,192,133745,1,0,0:0:0:0:
320,192,133745,1,0,0:0:0:0:
448,192,134054,1,0,0:0:0:0:
64,192,134054,1,0,0:0:0:0:
320,192,134209,1,0,0:0:0:0:
192,192,134209,1,0,0:0:0:0:
448,192,134364,1,0,0:0:0:0:
64,192,134364,1,0,0:0:0:0:
320,192,134674,1,0,0:0:0:0:
320,192,134828,1,0,0:0:0:0:
192,192,135138,1,0,0:0:0:0:
64,192,135448,1,0,0:0:0:0:
448,192,135448,1,0,0:0:0:0:
448,192,135602,1,0,0:0:0:0:
448,192,135757,1,0,0:0:0:0:
448,192,136067,1,0,0:0:0:0:
320,192,136222,1,0,0:0:0:0:
192,192,136222,1,0,0:0:0:0:
192,192,136376,1,0,0:0:0:0:
192,192,136531,1,0,0:0:0:0:
192,192,136841,1,0,0:0:0:0:
320,192,136841,1,0,0:0:0:0:
448,192,136995,1,0,0:0:0:0:
192,192,137150,1,0,0:0:0:0:
64,192,137150,1,0,0:0:0:0:
192,192,137305,1,0,0:0:0:0:
448,192,137460,1,0,0:0:0:0:
64,192,137615,1,0,0:0:0:0:
192,192,137615,1,0,0:0:0:0:
320,192,137769,1,0,0:0:0:0:
192,192,137924,1,0,0:0:0:0:
64,192,137924,1,0,0:0:0:0:
320,192,137924,1,0,0:0:0:0:
448,192,137924,1,0,0:0:0:0:
192,192,138234,1,0,0:0:0:0:
320,192,138389,1,0,0:0:0:0:
448,192,138389,1,0,0:0:0:0:
64,192,138389,1,0,0:0:0:0:
192,192,138389,1,0,0:0:0:0:
320,192,138698,1,0,0:0:0:0:
192,192,138698,1,0,0:0:0:0:
320,192,138853,1,0,0:0:0:0:
448,192,138853,1,0,0:0:0:0:
64,192,139008,1,0,0:0:0:0:
192,192,139008,1,0,0:0:0:0:
320,192,139163,1,0,0:0:0:0:
448,192,139163,1,0,0:0:0:0:
192,192,139317,1,0,0:0:0:0:
64,192,139627,1,0,0:0:0:0:
192,192,139627,1,0,0:0:0:0:
320,192,139627,1,0,0:0:0:0:
448,192,139627,1,0,0:0:0:0:
192,192,139782,1,0,0:0:0:0:
448,192,139937,1,0,0:0:0:0:
64,192,139937,1,0,0:0:0:0:
320,192,139937,1,0,0:0:0:0:
192,192,140091,1,0,0:0:0:0:
320,192,140091,128,0,140401:0:0:0:0:
448,192,140556,1,0,0:0:0:0:
64,192,140556,1,0,0:0:0:0:
192,192,140711,1,0,0:0:0:0:
320,192,140711,1,0,0:0:0:0:
64,192,141020,1,0,0:0:0:0:
320,192,141020,1,0,0:0:0:0:
448,192,141020,1,0,0:0:0:0:
192,192,141175,1,0,0:0:0:0:
320,192,141330,1,0,0:0:0:0:
448,192,141330,1,0,0:0:0:0:
64,192,141330,1,0,0:0:0:0:
448,192,141485,1,0,0:0:0:0:
320,192,141485,1,0,0:0:0:0:
192,192,141639,1,0,0:0:0:0:
320,192,141794,1,0,0:0:0:0:
64,192,141949,1,0,0:0:0:0:
448,192,141949,1,0,0:0:0:0:
192,192,142104,1,0,0:0:0:0:
320,192,142104,1,0,0:0:0:0:
64,192,142259,1,0,0:0:0:0:
448,192,142259,128,0,142569:0:0:0:0:
320,192,142413,1,0,0:0:0:0:
192,192,142413,1,0,0:0:0:0:
448,192,142723,1,0,0:0:0:0:
64,192,142723,1,0,0:0:0:0:
320,192,142723,1,0,0:0:0:0:
192,192,142878,1,0,0:0:0:0:
320,192,143033,1,0,0:0:0:0:
64,192,143033,1,0,0:0:0:0:
448,192,143187,1,0,0:0:0:0:
320,192,143187,1,0,0:0:0:0:
192,192,143342,1,0,0:0:0:0:
320,192,143342,1,0,0:0:0:0:
64,192,143497,1,0,0:0:0:0:
448,192,143652,1,0,0:0:0:0:
320,192,143652,1,0,0:0:0:0:
192,192,143807,1,0,0:0:0:0:
320,192,143961,1,0,0:0:0:0:
64,192,143961,1,0,0:0:0:0:
448,192,144116,1,0,0:0:0:0:
320,192,144116,1,0,0:0:0:0:
192,192,144271,1,0,0:0:0:0:
448,192,144426,1,0,0:0:0:0:
64,192,144426,1,0,0:0:0:0:
192,192,144735,1,0,0:0:0:0:
320,192,144735,1,0,0:0:0:0:
320,192,144890,1,0,0:0:0:0:
64,192,145045,128,0,145355:0:0:0:0:
448,192,145200,1,0,0:0:0:0:
192,192,145509,1,0,0:0:0:0:
320,192,145509,1,0,0:0:0:0:
448,192,145664,1,0,0:0:0:0:
192,192,145664,1,0,0:0:0:0:
64,192,145664,1,0,0:0:0:0:
320,192,145819,1,0,0:0:0:0:
192,192,145974,1,0,0:0:0:0:
64,192,146283,1,0,0:0:0:0:
192,192,146283,1,0,0:0:0:0:
448,192,146438,1,0,0:0:0:0:
320,192,146438,1,0,0:0:0:0:
192,192,146593,1,0,0:0:0:0:
64,192,146748,1,0,0:0:0:0:
320,192,146748,1,0,0:0:0:0:
448,192,146748,1,0,0:0:0:0:
192,192,146903,1,0,0:0:0:0:
64,192,146903,1,0,0:0:0:0:
448,192,147057,1,0,0:0:0:0:
320,192,147057,1,0,0:0:0:0:
192,192,147212,1,0,0:0:0:0:
64,192,147212,1,0,0:0:0:0:
320,192,147367,1,0,0:0:0:0:
448,192,147367,1,0,0:0:0:0:
192,192,147522,1,0,0:0:0:0:
320,192,147677,1,0,0:0:0:0:
448,192,147677,1,0,0:0:0:0:
64,192,147677,1,0,0:0:0:0:
192,192,147677,1,0,0:0:0:0:
320,192,147831,1,0,0:0:0:0:
448,192,147831,1,0,0:0:0:0:
64,192,148141,1,0,0:0:0:0:
192,192,148141,1,0,0:0:0:0:
320,192,148141,1,0,0:0:0:0:
448,192,148141,1,0,0:0:0:0:
64,192,148451,1,0,0:0:0:0:
192,192,148451,1,0,0:0:0:0:
320,192,148451,1,0,0:0:0:0:
448,192,148451,1,0,0:0:0:0:
64,192,148605,1,0,0:0:0:0:
192,192,148605,1,0,0:0:0:0:
448,192,148605,1,0,0:0:0:0:
320,192,148605,1,0,0:0:0:0:
64,192,148760,1,0,0:0:0:0:
192,192,148760,1,0,0:0:0:0:
320,192,148760,1,0,0:0:0:0:
448,192,148760,1,0,0:0:0:0:
64,192,149070,1,0,0:0:0:0:
192,192,149070,1,0,0:0:0:0:
320,192,149070,1,0,0:0:0:0:
448,192,149070,1,0,0:0:0:0:
192,192,149379,1,0,0:0:0:0:
320,192,149379,1,0,0:0:0:0:
320,192,149844,1,0,0:0:0:0:
448,192,149844,1,0,0:0:0:0:
64,192,149844,1,0,0:0:0:0:
192,192,149844,1,0,0:0:0:0:
64,192,149999,1,0,0:0:0:0:
192,192,149999,1,0,0:0:0:0:
320,192,149999,1,0,0:0:0:0:
448,192,149999,1,0,0:0:0:0:
64,192,150463,1,0,0:0:0:0:
192,192,150463,1,0,0:0:0:0:
320,192,150463,1,0,0:0:0:0:
448,192,150463,1,0,0:0:0:0:
64,192,150618,1,0,0:0:0:0:
192,192,150618,1,0,0:0:0:0:
320,192,150618,1,0,0:0:0:0:
448,192,150618,1,0,0:0:0:0:
64,192,150772,1,0,0:0:0:0:
320,192,150772,1,0,0:0:0:0:
448,192,150772,1,0,0:0:0:0:
192,192,150772,1,0,0:0:0:0:
448,192,150927,1,0,0:0:0:0:
320,192,150927,1,0,0:0:0:0:
64,192,150927,1,0,0:0:0:0:
192,192,150927,1,0,0:0:0:0:
448,192,151082,1,0,0:0:0:0:
320,192,151082,1,0,0:0:0:0:
64,192,151082,1,0,0:0:0:0:
192,192,151082,1,0,0:0:0:0:
320,192,151237,1,0,0:0:0:0:
448,192,151237,1,0,0:0:0:0:
64,192,151237,1,0,0:0:0:0:
192,192,151237,1,0,0:0:0:0:
192,192,151546,1,0,0:0:0:0:
64,192,151546,1,0,0:0:0:0:
320,192,151546,1,0,0:0:0:0:
448,192,151546,1,0,0:0:0:0:
448,192,152011,1,0,0:0:0:0:
320,192,152011,1,0,0:0:0:0:
64,192,152011,1,0,0:0:0:0:
64,192,152166,1,0,0:0:0:0:
192,192,152166,1,0,0:0:0:0:
320,192,152166,1,0,0:0:0:0:
448,192,152166,1,0,0:0:0:0:
64,192,152475,1,0,0:0:0:0:
192,192,152475,1,0,0:0:0:0:
320,192,152475,1,0,0:0:0:0:
448,192,152475,1,0,0:0:0:0:
192,192,152940,1,0,0:0:0:0:
320,192,152940,1,0,0:0:0:0:
64,192,152940,1,0,0:0:0:0:
448,192,152940,1,0,0:0:0:0:
64,192,153094,1,0,0:0:0:0:
448,192,153094,1,0,0:0:0:0:
192,192,153094,1,0,0:0:0:0:
320,192,153094,1,0,0:0:0:0:
320,192,153249,1,0,0:0:0:0:
448,192,153249,1,0,0:0:0:0:
64,192,153249,1,0,0:0:0:0:
192,192,153404,1,0,0:0:0:0:
448,192,153404,1,0,0:0:0:0:
320,192,153404,1,0,0:0:0:0:
64,192,153559,1,0,0:0:0:0:
192,192,153559,1,0,0:0:0:0:
448,192,153559,1,0,0:0:0:0:
64,192,153714,1,0,0:0:0:0:
192,192,153714,1,0,0:0:0:0:
320,192,153714,1,0,0:0:0:0:
448,192,153714,1,0,0:0:0:0:
192,192,153868,1,0,0:0:0:0:
64,192,153868,1,0,0:0:0:0:
64,192,154178,1,0,0:0:0:0:
192,192,154178,1,0,0:0:0:0:
320,192,154178,1,0,0:0:0:0:
448,192,154178,1,0,0:0:0:0:
64,192,154488,1,0,0:0:0:0:
192,192,154488,1,0,0:0:0:0:
320,192,154488,1,0,0:0:0:0:
448,192,154488,1,0,0:0:0:0:
192,192,154952,1,0,0:0:0:0:
64,192,154952,1,0,0:0:0:0:
320,192,154952,1,0,0:0:0:0:
448,192,154952,1,0,0:0:0:0:
320,192,155416,1,0,0:0:0:0:
448,192,155416,1,0,0:0:0:0:
64,192,155416,1,0,0:0:0:0:
192,192,155416,1,0,0:0:0:0:
448,192,155571,1,0,0:0:0:0:
64,192,155571,1,0,0:0:0:0:
320,192,155571,1,0,0:0:0:0:
192,192,155571,1,0,0:0:0:0:
64,192,155881,1,0,0:0:0:0:
320,192,155881,1,0,0:0:0:0:
448,192,155881,1,0,0:0:0:0:
192,192,155881,1,0,0:0:0:0:
320,192,156036,1,0,0:0:0:0:
448,192,156036,1,0,0:0:0:0:
64,192,156036,1,0,0:0:0:0:
192,192,156036,1,0,0:0:0:0:
448,192,156190,1,0,0:0:0:0:
320,192,156190,1,0,0:0:0:0:
64,192,156190,1,0,0:0:0:0:
192,192,156190,1,0,0:0:0:0:
320,192,156345,1,0,0:0:0:0:
448,192,156345,1,0,0:0:0:0:
64,192,156345,1,0,0:0:0:0:
192,192,156345,1,0,0:0:0:0:
64,192,156500,1,0,0:0:0:0:
192,192,156500,1,0,0:0:0:0:
320,192,156500,1,0,0:0:0:0:
448,192,156500,1,0,0:0:0:0:
192,192,158358,1,0,0:0:0:0:
448,192,158358,1,0,0:0:0:0:
320,192,158358,1,0,0:0:0:0:
192,192,158822,1,0,0:0:0:0:
320,192,158822,1,0,0:0:0:0:
448,192,158977,1,0,0:0:0:0:
192,192,159751,1,0,0:0:0:0:
448,192,159751,1,0,0:0:0:0:
192,192,159906,1,0,0:0:0:0:
320,192,159906,1,0,0:0:0:0:
448,192,159906,1,0,0:0:0:0:
64,192,159906,1,0,0:0:0:0:
320,192,160060,1,0,0:0:0:0:
448,192,160060,1,0,0:0:0:0:
64,192,160060,1,0,0:0:0:0:
192,192,160060,1,0,0:0:0:0:
320,192,160215,1,0,0:0:0:0:
448,192,160215,1,0,0:0:0:0:
64,192,160215,1,0,0:0:0:0:
192,192,160215,1,0,0:0:0:0:
320,192,160370,1,0,0:0:0:0:
448,192,160370,1,0,0:0:0:0:
64,192,160370,1,0,0:0:0:0:
192,192,160370,1,0,0:0:0:0:
320,192,160525,1,0,0:0:0:0:
448,192,160525,1,0,0:0:0:0:
64,192,160525,1,0,0:0:0:0:
192,192,160525,1,0,0:0:0:0:
320,192,160680,1,0,0:0:0:0:
448,192,160680,1,0,0:0:0:0:
64,192,160680,1,0,0:0:0:0:
192,192,160680,1,0,0:0:0:0:
320,192,160834,1,0,0:0:0:0:
448,192,160834,1,0,0:0:0:0:
64,192,160834,1,0,0:0:0:0:
192,192,160834,1,0,0:0:0:0:
320,192,160989,1,0,0:0:0:0:
448,192,160989,1,0,0:0:0:0:
192,192,160989,1,0,0:0:0:0:
64,192,160989,128,0,161299:0:0:0:0:
192,192,161144,1,0,0:0:0:0:
320,192,161144,1,0,0:0:0:0:
448,192,161144,1,0,0:0:0:0:
64,192,161454,1,0,0:0:0:0:
448,192,161454,1,0,0:0:0:0:
192,192,161454,1,0,0:0:0:0:
320,192,161454,1,0,0:0:0:0:
448,192,161608,1,0,0:0:0:0:
64,192,161608,1,0,0:0:0:0:
192,192,161763,1,0,0:0:0:0:
64,192,161763,1,0,0:0:0:0:
320,192,161918,1,0,0:0:0:0:
448,192,161918,1,0,0:0:0:0:
64,192,162073,1,0,0:0:0:0:
192,192,162073,1,0,0:0:0:0:
448,192,162073,1,0,0:0:0:0:
320,192,162073,1,0,0:0:0:0:
192,192,162228,1,0,0:0:0:0:
320,192,162382,1,0,0:0:0:0:
448,192,162382,1,0,0:0:0:0:
64,192,162382,1,0,0:0:0:0:
192,192,162382,1,0,0:0:0:0:
320,192,162537,1,0,0:0:0:0:
448,192,162537,1,0,0:0:0:0:
64,192,162692,1,0,0:0:0:0:
192,192,162692,1,0,0:0:0:0:
320,192,162847,1,0,0:0:0:0:
448,192,162847,1,0,0:0:0:0:
64,192,162847,1,0,0:0:0:0:
192,192,162847,1,0,0:0:0:0:
320,192,163002,1,0,0:0:0:0:
448,192,163002,1,0,0:0:0:0:
192,192,163002,1,0,0:0:0:0:
320,192,163311,1,0,0:0:0:0:
448,192,163311,1,0,0:0:0:0:
64,192,163311,1,0,0:0:0:0:
64,192,163466,1,0,0:0:0:0:
192,192,163466,1,0,0:0:0:0:
448,192,163621,1,0,0:0:0:0:
320,192,163621,1,0,0:0:0:0:
64,192,163776,1,0,0:0:0:0:
192,192,163776,1,0,0:0:0:0:
320,192,163930,1,0,0:0:0:0:
448,192,163930,1,0,0:0:0:0:
64,192,163930,1,0,0:0:0:0:
192,192,163930,1,0,0:0:0:0:
320,192,164085,1,0,0:0:0:0:
448,192,164085,1,0,0:0:0:0:
64,192,164240,1,0,0:0:0:0:
192,192,164240,1,0,0:0:0:0:
320,192,164395,1,0,0:0:0:0:
448,192,164395,1,0,0:0:0:0:
64,192,164395,1,0,0:0:0:0:
192,192,164395,1,0,0:0:0:0:
320,192,164549,1,0,0:0:0:0:
448,192,164549,1,0,0:0:0:0:
64,192,164704,1,0,0:0:0:0:
192,192,164704,1,0,0:0:0:0:
320,192,164859,1,0,0:0:0:0:
448,192,164859,1,0,0:0:0:0:
64,192,165014,1,0,0:0:0:0:
192,192,165014,1,0,0:0:0:0:
320,192,165014,1,0,0:0:0:0:
448,192,165014,1,0,0:0:0:0:
64,192,165169,1,0,0:0:0:0:
192,192,165169,1,0,0:0:0:0:
320,192,165323,1,0,0:0:0:0:
448,192,165323,1,0,0:0:0:0:
64,192,165323,1,0,0:0:0:0:
192,192,165323,1,0,0:0:0:0:
320,192,165478,1,0,0:0:0:0:
448,192,165478,1,0,0:0:0:0:
64,192,165633,1,0,0:0:0:0:
192,192,165633,1,0,0:0:0:0:
448,192,165633,1,0,0:0:0:0:
320,192,165633,1,0,0:0:0:0:
64,192,165788,1,0,0:0:0:0:
192,192,165788,1,0,0:0:0:0:
320,192,165943,1,0,0:0:0:0:
448,192,165943,1,0,0:0:0:0:
192,192,165943,1,0,0:0:0:0:
64,192,166097,1,0,0:0:0:0:
320,192,166097,1,0,0:0:0:0:
448,192,166097,1,0,0:0:0:0:
64,192,166252,1,0,0:0:0:0:
192,192,166252,1,0,0:0:0:0:
320,192,166407,1,0,0:0:0:0:
448,192,166407,1,0,0:0:0:0:
64,192,166407,1,0,0:0:0:0:
192,192,166407,1,0,0:0:0:0:
448,192,166562,1,0,0:0:0:0:
320,192,166562,1,0,0:0:0:0:
192,192,166717,1,0,0:0:0:0:
320,192,166871,1,0,0:0:0:0:
192,192,166871,1,0,0:0:0:0:
320,192,167026,1,0,0:0:0:0:
192,192,167181,1,0,0:0:0:0:
64,192,167181,1,0,0:0:0:0:
448,192,167181,1,0,0:0:0:0:
192,192,167336,1,0,0:0:0:0:
320,192,167491,1,0,0:0:0:0:
64,192,167645,1,0,0:0:0:0:
192,192,167645,1,0,0:0:0:0:
448,192,167800,1,0,0:0:0:0:
320,192,167800,1,0,0:0:0:0:
64,192,167800,1,0,0:0:0:0:
192,192,167800,1,0,0:0:0:0:
448,192,167955,1,0,0:0:0:0:
320,192,167955,1,0,0:0:0:0:
192,192,168110,1,0,0:0:0:0:
64,192,168110,1,0,0:0:0:0:
448,192,168265,1,0,0:0:0:0:
320,192,168265,1,0,0:0:0:0:
64,192,168265,1,0,0:0:0:0:
320,192,168419,1,0,0:0:0:0:
192,192,168574,1,0,0:0:0:0:
448,192,168729,1,0,0:0:0:0:
64,192,168729,1,0,0:0:0:0:
320,192,168884,1,0,0:0:0:0:
192,192,169039,1,0,0:0:0:0:
64,192,169039,1,0,0:0:0:0:
448,192,169039,1,0,0:0:0:0:
192,192,169348,1,0,0:0:0:0:
320,192,169348,1,0,0:0:0:0:
64,192,169503,1,0,0:0:0:0:
448,192,169503,1,0,0:0:0:0:
320,192,169658,1,0,0:0:0:0:
192,192,169658,1,0,0:0:0:0:
64,192,169813,1,0,0:0:0:0:
448,192,169813,1,0,0:0:0:0:
192,192,169967,1,0,0:0:0:0:
320,192,170122,1,0,0:0:0:0:
64,192,170277,1,0,0:0:0:0:
448,192,170277,1,0,0:0:0:0:
320,192,170432,1,0,0:0:0:0:
192,192,170432,1,0,0:0:0:0:
448,192,170587,1,0,0:0:0:0:
64,192,170587,1,0,0:0:0:0:
320,192,170741,1,0,0:0:0:0:
192,192,170896,1,0,0:0:0:0:
448,192,171051,1,0,0:0:0:0:
64,192,171051,1,0,0:0:0:0:
320,192,171206,1,0,0:0:0:0:
192,192,171206,1,0,0:0:0:0:
64,192,171361,1,0,0:0:0:0:
448,192,171361,1,0,0:0:0:0:
320,192,171515,1,0,0:0:0:0:
192,192,171515,1,0,0:0:0:0:
320,192,171670,1,0,0:0:0:0:
64,192,171670,1,0,0:0:0:0:
448,192,171825,1,0,0:0:0:0:
192,192,171825,1,0,0:0:0:0:
320,192,171980,1,0,0:0:0:0:
64,192,171980,1,0,0:0:0:0:
192,192,172135,1,0,0:0:0:0:
320,192,172135,1,0,0:0:0:0:
64,192,172289,1,0,0:0:0:0:
448,192,172444,1,0,0:0:0:0:
320,192,172444,1,0,0:0:0:0:
192,192,172599,1,0,0:0:0:0:
448,192,172599,1,0,0:0:0:0:
320,192,172754,1,0,0:0:0:0:
64,192,172754,1,0,0:0:0:0:
192,192,172909,1,0,0:0:0:0:
320,192,172909,1,0,0:0:0:0:
448,192,172909,1,0,0:0:0:0:
448,192,173063,1,0,0:0:0:0:
64,192,173063,1,0,0:0:0:0:
320,192,173063,1,0,0:0:0:0:
192,192,173218,1,0,0:0:0:0:
64,192,173373,1,0,0:0:0:0:
192,192,173373,1,0,0:0:0:0:
320,192,173528,1,0,0:0:0:0:
448,192,173528,1,0,0:0:0:0:
192,192,173683,1,0,0:0:0:0:
320,192,173683,1,0,0:0:0:0:
64,192,173837,1,0,0:0:0:0:
448,192,173837,1,0,0:0:0:0:
320,192,173992,1,0,0:0:0:0:
192,192,173992,1,0,0:0:0:0:
448,192,174147,1,0,0:0:0:0:
64,192,174147,1,0,0:0:0:0:
192,192,174302,1,0,0:0:0:0:
64,192,174302,1,0,0:0:0:0:
320,192,174457,1,0,0:0:0:0:
448,192,174457,1,0,0:0:0:0:
192,192,174611,1,0,0:0:0:0:
448,192,174611,1,0,0:0:0:0:
320,192,174766,1,0,0:0:0:0:
64,192,174766,1,0,0:0:0:0:
320,192,174921,1,0,0:0:0:0:
448,192,174921,1,0,0:0:0:0:
192,192,175076,1,0,0:0:0:0:
448,192,175231,1,0,0:0:0:0:
320,192,175231,1,0,0:0:0:0:
64,192,175231,1,0,0:0:0:0:
192,192,175385,1,0,0:0:0:0:
320,192,175385,1,0,0:0:0:0:
64,192,175540,1,0,0:0:0:0:
448,192,175695,1,0,0:0:0:0:
320,192,175695,1,0,0:0:0:0:
192,192,175850,1,0,0:0:0:0:
448,192,176005,1,0,0:0:0:0:
64,192,176005,1,0,0:0:0:0:
320,192,176005,1,0,0:0:0:0:
448,192,176159,1,0,0:0:0:0:
320,192,176159,1,0,0:0:0:0:
192,192,176314,1,0,0:0:0:0:
64,192,176314,1,0,0:0:0:0:
320,192,176469,1,0,0:0:0:0:
448,192,176469,1,0,0:0:0:0:
192,192,176624,1,0,0:0:0:0:
448,192,176779,1,0,0:0:0:0:
320,192,176779,1,0,0:0:0:0:
64,192,176779,1,0,0:0:0:0:
320,192,176933,1,0,0:0:0:0:
448,192,176933,1,0,0:0:0:0:
192,192,177088,1,0,0:0:0:0:
320,192,177243,1,0,0:0:0:0:
64,192,177243,1,0,0:0:0:0:
448,192,177243,1,0,0:0:0:0:
192,192,177398,1,0,0:0:0:0:
448,192,177553,1,0,0:0:0:0:
320,192,177553,1,0,0:0:0:0:
64,192,177553,1,0,0:0:0:0:
320,192,177862,1,0,0:0:0:0:
192,192,177862,1,0,0:0:0:0:
448,192,178017,1,0,0:0:0:0:
64,192,178172,1,0,0:0:0:0:
320,192,178326,1,0,0:0:0:0:
192,192,178326,1,0,0:0:0:0:
448,192,178481,1,0,0:0:0:0:
64,192,178481,1,0,0:0:0:0:
192,192,178636,1,0,0:0:0:0:
320,192,178791,1,0,0:0:0:0:
448,192,178946,1,0,0:0:0:0:
64,192,178946,1,0,0:0:0:0:
192,192,179100,1,0,0:0:0:0:
320,192,179100,1,0,0:0:0:0:
448,192,179255,1,0,0:0:0:0:
64,192,179255,1,0,0:0:0:0:
192,192,179410,1,0,0:0:0:0:
320,192,179565,1,0,0:0:0:0:
64,192,179720,1,0,0:0:0:0:
448,192,179874,1,0,0:0:0:0:
320,192,180184,1,0,0:0:0:0:
64,192,180339,1,0,0:0:0:0:
448,192,180494,1,0,0:0:0:0:
192,192,180494,1,0,0:0:0:0:
320,192,180648,1,0,0:0:0:0:
64,192,180803,1,0,0:0:0:0:
192,192,180803,1,0,0:0:0:0:
448,192,180958,1,0,0:0:0:0:
64,192,181113,1,0,0:0:0:0:
320,192,181113,1,0,0:0:0:0:
192,192,181268,1,0,0:0:0:0:
320,192,181268,1,0,0:0:0:0:
448,192,181422,1,0,0:0:0:0:
64,192,181422,1,0,0:0:0:0:
192,192,181577,1,0,0:0:0:0:
320,192,181732,1,0,0:0:0:0:
448,192,181732,1,0,0:0:0:0:
64,192,181887,1,0,0:0:0:0:
192,192,181887,1,0,0:0:0:0:
448,192,182042,1,0,0:0:0:0:
320,192,182042,1,0,0:0:0:0:
64,192,182196,1,0,0:0:0:0:
192,192,182196,1,0,0:0:0:0:
320,192,182351,1,0,0:0:0:0:
448,192,182351,1,0,0:0:0:0:
320,192,182661,1,0,0:0:0:0:
448,192,182661,1,0,0:0:0:0:
320,192,182816,1,0,0:0:0:0:
448,192,182816,1,0,0:0:0:0:
64,192,183125,1,0,0:0:0:0:
192,192,183125,1,0,0:0:0:0:
192,192,183280,1,0,0:0:0:0:
64,192,183280,1,0,0:0:0:0:
320,192,183435,1,0,0:0:0:0:
448,192,183435,1,0,0:0:0:0:
320,192,183590,1,0,0:0:0:0:
448,192,183590,1,0,0:0:0:0:
448,192,183744,1,0,0:0:0:0:
320,192,183744,1,0,0:0:0:0:
192,192,184054,1,0,0:0:0:0:
64,192,184054,1,0,0:0:0:0:
320,192,184209,1,0,0:0:0:0:
448,192,184209,1,0,0:0:0:0:
64,192,184518,1,0,0:0:0:0:
192,192,184518,1,0,0:0:0:0:
320,192,184673,1,0,0:0:0:0:
192,192,184828,1,0,0:0:0:0:
64,192,184828,1,0,0:0:0:0:
448,192,184983,1,0,0:0:0:0:
320,192,185138,1,0,0:0:0:0:
192,192,185138,1,0,0:0:0:0:
64,192,185138,1,0,0:0:0:0:
448,192,185292,128,0,185602:0:0:0:0:
192,192,185447,1,0,0:0:0:0:
320,192,185602,1,0,0:0:0:0:
64,192,185602,1,0,0:0:0:0:
192,192,185602,1,0,0:0:0:0:
320,192,185757,1,0,0:0:0:0:
192,192,185912,1,0,0:0:0:0:
64,192,185912,1,0,0:0:0:0:
448,192,186066,1,0,0:0:0:0:
320,192,186066,1,0,0:0:0:0:
192,192,186221,1,0,0:0:0:0:
64,192,186221,1,0,0:0:0:0:
320,192,186376,1,0,0:0:0:0:
448,192,186531,1,0,0:0:0:0:
64,192,186531,1,0,0:0:0:0:
192,192,186531,1,0,0:0:0:0:
320,192,186686,1,0,0:0:0:0:
64,192,186686,1,0,0:0:0:0:
192,192,186686,1,0,0:0:0:0:
320,192,186840,1,0,0:0:0:0:
448,192,186840,1,0,0:0:0:0:
448,192,187150,1,0,0:0:0:0:
320,192,187305,1,0,0:0:0:0:
64,192,187460,1,0,0:0:0:0:
192,192,187460,1,0,0:0:0:0:
320,192,187614,1,0,0:0:0:0:
192,192,187769,1,0,0:0:0:0:
64,192,187924,1,0,0:0:0:0:
320,192,187924,1,0,0:0:0:0:
448,192,188234,1,0,0:0:0:0:
320,192,188234,1,0,0:0:0:0:
64,192,188234,1,0,0:0:0:0:
192,192,188543,1,0,0:0:0:0:
320,192,188543,1,0,0:0:0:0:
64,192,188698,1,0,0:0:0:0:
448,192,188698,1,0,0:0:0:0:
192,192,189008,1,0,0:0:0:0:
320,192,189008,1,0,0:0:0:0:
64,192,189162,1,0,0:0:0:0:
448,192,189162,1,0,0:0:0:0:
320,192,189162,1,0,0:0:0:0:
192,192,189472,1,0,0:0:0:0:
320,192,189472,1,0,0:0:0:0:
64,192,189627,1,0,0:0:0:0:
320,192,189782,1,0,0:0:0:0:
448,192,189782,1,0,0:0:0:0:
320,192,190401,1,0,0:0:0:0:
448,192,190401,1,0,0:0:0:0:
64,192,190865,1,0,0:0:0:0:
192,192,190865,1,0,0:0:0:0:
64,192,191020,1,0,0:0:0:0:
192,192,191020,1,0,0:0:0:0:
320,192,191175,1,0,0:0:0:0:
448,192,191175,1,0,0:0:0:0:
64,192,191484,1,0,0:0:0:0:
192,192,191484,1,0,0:0:0:0:
320,192,191639,1,0,0:0:0:0:
448,192,191639,1,0,0:0:0:0:
320,192,191949,1,0,0:0:0:0:
448,192,191949,1,0,0:0:0:0:
320,192,192258,1,0,0:0:0:0:
448,192,192258,1,0,0:0:0:0:
192,192,192568,1,0,0:0:0:0:
64,192,192568,1,0,0:0:0:0:
64,192,192877,1,0,0:0:0:0:
192,192,192877,1,0,0:0:0:0:
320,192,192877,1,0,0:0:0:0:
448,192,192877,1,0,0:0:0:0:
192,192,193187,1,0,0:0:0:0:
64,192,193187,1,0,0:0:0:0:
320,192,193187,1,0,0:0:0:0:
448,192,193187,1,0,0:0:0:0:
64,192,193497,1,0,0:0:0:0:
192,192,193497,1,0,0:0:0:0:
320,192,193497,1,0,0:0:0:0:
448,192,193497,1,0,0:0:0:0:
64,192,193651,1,0,0:0:0:0:
192,192,193651,1,0,0:0:0:0:
448,192,193651,1,0,0:0:0:0:
320,192,193651,1,0,0:0:0:0:
64,192,193961,1,0,0:0:0:0:
192,192,193961,1,0,0:0:0:0:
320,192,193961,1,0,0:0:0:0:
448,192,193961,1,0,0:0:0:0:
320,192,194580,1,0,0:0:0:0:
192,192,194580,1,0,0:0:0:0:
320,192,194735,1,0,0:0:0:0:
192,192,194735,1,0,0:0:0:0:
64,192,194890,1,0,0:0:0:0:
448,192,194890,1,0,0:0:0:0:
192,192,195199,1,0,0:0:0:0:
320,192,195199,1,0,0:0:0:0:
448,192,195354,1,0,0:0:0:0:
64,192,195354,1,0,0:0:0:0:
320,192,195354,1,0,0:0:0:0:
192,192,195509,1,0,0:0:0:0:
448,192,195664,1,0,0:0:0:0:
64,192,195664,1,0,0:0:0:0:
320,192,195664,1,0,0:0:0:0:
192,192,195819,1,0,0:0:0:0:
64,192,195973,1,0,0:0:0:0:
448,192,195973,1,0,0:0:0:0:
320,192,195973,1,0,0:0:0:0:
192,192,196128,1,0,0:0:0:0:
64,192,196128,1,0,0:0:0:0:
320,192,196283,1,0,0:0:0:0:
192,192,196438,1,0,0:0:0:0:
64,192,196438,1,0,0:0:0:0:
448,192,196593,1,0,0:0:0:0:
320,192,196593,1,0,0:0:0:0:
192,192,196747,1,0,0:0:0:0:
64,192,196747,1,0,0:0:0:0:
320,192,196747,1,0,0:0:0:0:
448,192,196747,1,0,0:0:0:0:
64,192,196902,1,0,0:0:0:0:
192,192,196902,1,0,0:0:0:0:
320,192,197057,1,0,0:0:0:0:
448,192,197057,1,0,0:0:0:0:
64,192,197367,1,0,0:0:0:0:
192,192,197367,1,0,0:0:0:0:
320,192,197367,1,0,0:0:0:0:
448,192,197367,1,0,0:0:0:0:
64,192,197831,1,0,0:0:0:0:
192,192,197831,1,0,0:0:0:0:
448,192,197831,1,0,0:0:0:0:
320,192,197831,1,0,0:0:0:0:
64,192,198295,1,0,0:0:0:0:
192,192,198295,1,0,0:0:0:0:
320,192,198295,1,0,0:0:0:0:
192,192,198605,1,0,0:0:0:0:
320,192,198605,1,0,0:0:0:0:
320,192,198915,1,0,0:0:0:0:
64,192,198915,1,0,0:0:0:0:
192,192,198915,1,0,0:0:0:0:
448,192,198915,1,0,0:0:0:0:
320,192,199224,1,0,0:0:0:0:
448,192,199224,1,0,0:0:0:0:
64,192,199224,1,0,0:0:0:0:
192,192,199224,1,0,0:0:0:0:
320,192,199379,1,0,0:0:0:0:
448,192,199379,1,0,0:0:0:0:
64,192,199379,1,0,0:0:0:0:
192,192,199379,1,0,0:0:0:0:
64,192,199534,1,0,0:0:0:0:
192,192,199534,1,0,0:0:0:0:
320,192,199534,1,0,0:0:0:0:
448,192,199534,1,0,0:0:0:0:
320,192,199998,1,0,0:0:0:0:
448,192,199998,1,0,0:0:0:0:
64,192,199998,1,0,0:0:0:0:
192,192,199998,1,0,0:0:0:0:
192,192,200153,1,0,0:0:0:0:
320,192,200153,1,0,0:0:0:0:
64,192,200463,1,0,0:0:0:0:
320,192,200463,1,0,0:0:0:0:
448,192,200463,1,0,0:0:0:0:
192,192,200617,1,0,0:0:0:0:
320,192,200772,1,0,0:0:0:0:
64,192,200772,1,0,0:0:0:0:
448,192,200927,1,0,0:0:0:0:
192,192,200927,1,0,0:0:0:0:
320,192,201082,1,0,0:0:0:0:
64,192,201237,1,0,0:0:0:0:
320,192,201391,1,0,0:0:0:0:
192,192,201546,1,0,0:0:0:0:
448,192,201701,1,0,0:0:0:0:
320,192,201701,1,0,0:0:0:0:
64,192,201701,1,0,0:0:0:0:
192,192,202011,1,0,0:0:0:0:
320,192,202165,1,0,0:0:0:0:
448,192,202165,1,0,0:0:0:0:
64,192,202165,128,0,202475:0:0:0:0:
192,192,202320,1,0,0:0:0:0:
320,192,202630,1,0,0:0:0:0:
448,192,202630,1,0,0:0:0:0:
64,192,202630,1,0,0:0:0:0:
192,192,202785,1,0,0:0:0:0:
320,192,202939,1,0,0:0:0:0:
448,192,203868,128,0,204954:0:0:0:0:
64,192,203868,128,0,204954:0:0:0:0:
320,192,204952,128,0,206037:0:0:0:0:
192,192,204952,128,0,206192:0:0:0:0:
448,192,206190,128,0,207120:0:0:0:0:
64,192,206190,128,0,207120:0:0:0:0:
192,192,207274,128,0,208514:0:0:0:0:
320,192,207274,128,0,208514:0:0:0:0:
64,192,208822,128,0,209597:0:0:0:0:
448,192,208822,128,0,209597:0:0:0:0:
192,192,209905,128,0,210835:0:0:0:0:
320,192,209905,128,0,210835:0:0:0:0:
64,192,211144,128,0,212229:0:0:0:0:
320,192,211144,128,0,212229:0:0:0:0:
192,192,212537,128,0,213777:0:0:0:0:
448,192,212537,128,0,213932:0:0:0:0:
320,192,213930,1,0,0:0:0:0:
192,192,213930,1,0,0:0:0:0:
64,192,214240,128,0,215015:0:0:0:0:
448,192,214240,128,0,215015:0:0:0:0:
320,192,215168,128,0,216098:0:0:0:0:
192,192,215168,128,0,216098:0:0:0:0:
448,192,216097,1,0,0:0:0:0:
64,192,216097,1,0,0:0:0:0:
320,192,216252,128,0,217182:0:0:0:0:
192,192,216252,128,0,217182:0:0:0:0:
448,192,217181,1,0,0:0:0:0:
64,192,217181,1,0,0:0:0:0:
320,192,217336,128,0,218577:0:0:0:0:
192,192,217336,128,0,218577:0:0:0:0:
64,192,218574,1,0,0:0:0:0:
448,192,218574,128,0,218884:0:0:0:0:
320,192,218729,128,0,219659:0:0:0:0:
192,192,218729,128,0,219659:0:0:0:0:
64,192,219812,1,0,0:0:0:0:
448,192,219812,1,0,0:0:0:0:
320,192,219967,128,0,220587:0:0:0:0:
192,192,219967,128,0,220587:0:0:0:0:
448,192,220896,1,0,0:0:0:0:
64,192,220896,1,0,0:0:0:0:
192,192,221051,1,0,0:0:0:0:
320,192,221205,1,0,0:0:0:0:
448,192,222134,1,0,0:0:0:0:
320,192,222289,1,0,0:0:0:0:
64,192,222444,128,0,222754:0:0:0:0:
448,192,222599,128,0,227405:0:0:0:0:
64,192,223373,1,0,0:0:0:0:
192,192,223527,1,0,0:0:0:0:
64,192,223527,1,0,0:0:0:0:
192,192,223682,1,0,0:0:0:0:
64,192,224147,1,0,0:0:0:0:
192,192,224456,1,0,0:0:0:0:
192,192,224766,1,0,0:0:0:0:
64,192,224921,1,0,0:0:0:0:
192,192,225075,1,0,0:0:0:0:
64,192,225385,1,0,0:0:0:0:
192,192,225540,1,0,0:0:0:0:
192,192,225849,1,0,0:0:0:0:
64,192,225849,1,0,0:0:0:0:
320,192,226159,1,0,0:0:0:0:
192,192,226159,1,0,0:0:0:0:
192,192,226623,1,0,0:0:0:0:
64,192,226778,1,0,0:0:0:0:
192,192,226933,1,0,0:0:0:0:
320,192,226933,1,0,0:0:0:0:
64,192,227088,1,0,0:0:0:0:
320,192,227243,1,0,0:0:0:0:
320,192,227397,1,0,0:0:0:0:
192,192,227397,1,0,0:0:0:0:
320,192,228017,1,0,0:0:0:0:
448,192,228017,1,0,0:0:0:0:
64,192,228171,128,0,230341:0:0:0:0:
320,192,228326,1,0,0:0:0:0:
448,192,228326,1,0,0:0:0:0:
192,192,228636,128,0,228946:0:0:0:0:
320,192,228791,1,0,0:0:0:0:
448,192,228791,1,0,0:0:0:0:
448,192,229255,1,0,0:0:0:0:
320,192,229255,1,0,0:0:0:0:
192,192,229410,128,0,229720:0:0:0:0:
448,192,229719,1,0,0:0:0:0:
320,192,229719,1,0,0:0:0:0:
448,192,229874,1,0,0:0:0:0:
320,192,229874,1,0,0:0:0:0:
448,192,230493,1,0,0:0:0:0:
320,192,230648,1,0,0:0:0:0:
192,192,230648,1,0,0:0:0:0:
320,192,230958,1,0,0:0:0:0:
192,192,230958,1,0,0:0:0:0:
448,192,231113,1,0,0:0:0:0:
64,192,231113,1,0,0:0:0:0:
192,192,231267,1,0,0:0:0:0:
320,192,231267,1,0,0:0:0:0:
64,192,232351,128,0,233436:0:0:0:0:
448,192,232351,128,0,233591:0:0:0:0:
320,192,233434,1,0,0:0:0:0:
192,192,233434,1,0,0:0:0:0:
448,192,233744,128,0,234054:0:0:0:0:
320,192,233744,128,0,234209:0:0:0:0:
192,192,233744,128,0,234364:0:0:0:0:
64,192,233899,128,0,234364:0:0:0:0:
64,192,234518,1,0,0:0:0:0:
448,192,234673,1,0,0:0:0:0:
320,192,234828,128,0,235448:0:0:0:0:
192,192,234828,128,0,235603:0:0:0:0:
448,192,235911,128,0,237306:0:0:0:0:
64,192,235911,128,0,237461:0:0:0:0:
192,192,236066,128,0,237306:0:0:0:0:
320,192,236221,128,0,237461:0:0:0:0:
