osu file format v14

[General]
AudioFilename: audio.mp3
AudioLeadIn: 0
PreviewTime: 10580
Countdown: 0
SampleSet: Soft
StackLeniency: 0.3
Mode: 0
LetterboxInBreaks: 0
WidescreenStoryboard: 0

[Editor]
Bookmarks: 11992,33168,57168,79756,85403,102344,124933
DistanceSpacing: 1.6
BeatDivisor: 4
GridSize: 32
TimelineZoom: 2.799999

[Metadata]
Title:INTERNET
TitleUnicode:ИНТЕРНЕТ
Artist:EGOR NATS
ArtistUnicode:ЕГОР НАТС
Creator:Azinlen
Version:ONLINE
Source:
Tags:a3ther_xx wetdog123 hhjkl ducky- hyperpop hyper pop хайперпоп хайпер поп russian glitchcore hiphop hip hop hip-hop rap русский ДОБРО ПОЖАЛОВАТЬ В HYPERPOP ЧАСТЬ 1 chapter 1 glava 1
BeatmapID:3196258
BeatmapSetID:1565208

[Difficulty]
HPDrainRate:5
CircleSize:4
OverallDifficulty:8.2
ApproachRate:9.2
SliderMultiplier:2.2
SliderTickRate:1

[Events]
//Background and Video events
0,0,"bg.jpg",0,0
//Break Periods
2,79779,83421
//Storyboard Layer 0 (Background)
//Storyboard Layer 1 (Fail)
//Storyboard Layer 2 (Pass)
//Storyboard Layer 3 (Foreground)
//Storyboard Layer 4 (Overlay)
//Storyboard Sound Samples

[TimingPoints]
11992,352.941176470588,4,2,1,100,1,0
33511,-100,4,2,1,100,0,0
37746,-200,4,2,1,100,0,0
38452,-333.333333333333,4,2,1,100,0,0
38805,-333.333333333333,4,2,1,30,0,0
39158,-333.333333333333,4,2,1,100,0,0
39864,-100,4,2,1,100,0,0
44805,-83.3333333333333,4,2,1,100,0,0
45158,-100,4,2,1,100,0,0
58570,-142.857142857143,4,2,1,100,0,0
58923,-100,4,2,1,100,0,0
67040,-83.3333333333333,4,2,1,100,0,0
67393,-100,4,2,1,100,0,0
70658,-100,4,2,1,5,0,0
70746,-100,4,2,1,100,0,0
70834,-100,4,2,1,5,0,0
70923,-100,4,2,1,100,0,0
85393,-133.333333333333,4,2,1,100,0,0
85923,-100,4,2,1,100,0,0
88217,-76.9230769230769,4,2,1,100,0,0
88570,-100,4,2,1,100,0,0
116452,-90.9090909090909,4,2,1,100,0,0
116805,-100,4,2,1,100,0,0

[Colours]
Combo1 : 255,202,221
Combo2 : 211,226,250
Combo3 : 220,206,255
Combo4 : 202,254,255

[HitObjects]
64,121,11992,6,0,B|123:90|178:145|141:166|193:226|261:182,1,220,8|0,0:0|0:0,0:0:0:0:
271,82,12521,2,0,P|228:106|224:136,1,55,8|0,0:0|0:0,0:0:0:0:
321,246,12697,2,0,P|348:191|315:135,1,110,8|0,0:1|0:0,0:0:0:0:
165,290,13050,1,10,0:0:0:0:
178,292,13139,1,2,0:0:0:0:
192,294,13227,1,2,0:0:0:0:
205,297,13315,1,2,0:0:0:0:
271,348,13403,6,0,L|153:367,1,110,2|2,0:0|0:0,0:0:0:0:
321,246,13756,2,0,P|404:263|419:346,1,165,8|0,0:0|0:0,0:0:0:0:
364,375,14109,2,0,P|350:322|365:303,1,55,8|0,0:1|0:0,0:0:0:0:
423,332,14286,1,8,0:0:0:0:
321,246,14462,6,0,L|317:210,3,27.5,2|2|2|2,0:0|0:0|0:0|0:0,0:0:0:0:
374,162,14639,6,0,L|378:126,3,27.5,2|2|2|2,0:0|0:0|0:0|0:0,0:0:0:0:
310,90,14815,6,0,B|256:58|199:105|225:132|166:196|75:125,1,220,8|0,0:0|0:0,0:0:0:0:
95,33,15344,2,0,P|135:58|137:103,1,55,8|0,0:0|0:0,0:0:0:0:
41,207,15521,2,0,P|20:132|54:91,1,110,8|0,0:1|0:0,0:0:0:0:
186,212,15874,1,8,0:0:0:0:
0,279,16050,1,0,0:0:0:0:
171,357,16227,6,0,B|225:389|282:342|256:315|315:251|406:322,1,220,0|10,0:0|0:0,0:0:0:0:
416,358,16668,1,2,0:0:0:0:
416,358,16756,1,2,0:0:0:0:
327,215,16933,1,8,0:1:0:0:
494,310,17109,1,8,0:0:0:0:
473,190,17286,6,0,L|478:163,3,27.5,2|2|2|2,0:0|0:0|0:0|0:0,0:0:0:0:
386,159,17462,6,0,L|381:131,3,27.5,10|2|2|2,0:0|0:0|0:0|0:0,0:0:0:0:
451,78,17639,6,0,B|391:47|391:47|258:94,1,165,8|0,0:0|0:0,0:0:0:0:
231,117,17991,1,0,0:0:0:0:
185,22,18168,2,0,L|260:44,1,55,8|0,0:0|0:0,0:0:0:0:
172,197,18344,2,0,P|140:96|168:75,1,110,8|0,0:1|0:0,0:0:0:0:
271,204,18697,1,10,0:0:0:0:
267,217,18786,1,2,0:0:0:0:
263,230,18874,1,2,0:0:0:0:
259,243,18962,1,2,0:0:0:0:
311,336,19050,6,0,L|287:205,1,110,2|0,0:0|0:0,0:0:0:0:
106,299,19403,2,0,B|153:272|217:314|191:341|250:405|341:334,1,220,8|8,0:0|0:1,0:0:0:0:
490,237,19933,2,0,P|505:290|470:345,1,110,8|2,0:0|0:0,0:0:0:0:
392,203,20286,2,0,P|381:178|391:143,1,55,10|2,0:0|0:0,0:0:0:0:
467,84,20462,6,0,L|224:122,1,220,10|2,0:0|0:0,0:0:0:0:
211,56,20903,1,2,0:0:0:0:
211,56,20991,2,0,L|227:-8,1,55,10|0,0:0|0:0,0:0:0:0:
12,77,21168,2,0,L|34:200,1,110,8|0,0:1|0:0,0:0:0:0:
162,251,21521,6,0,B|111:172|16:219|16:219|90:293|40:381,1,330,8|0,0:0|0:0,0:0:0:0:
47,367,22227,6,0,B|121:334|121:334|229:380,1,165,8|0,0:0|0:0,0:0:0:0:
272,344,22580,2,0,L|256:283,1,55,8|0,0:1|0:0,0:0:0:0:
234,221,22756,1,8,0:0:0:0:
377,353,22933,5,2,0:0:0:0:
380,339,23021,1,2,0:0:0:0:
449,278,23109,1,2,0:0:0:0:
445,261,23197,1,2,0:0:0:0:
369,216,23286,6,0,L|411:-13,1,220,10|0,0:0|0:0,0:0:0:0:
480,62,23815,2,0,B|494:88|494:88|453:141,1,55,8|0,0:0|0:0,0:0:0:0:
369,216,23991,6,0,P|287:220|280:156,1,110,8|0,0:1|0:0,0:0:0:0:
162,83,24344,1,10,0:0:0:0:
164,96,24433,1,2,0:0:0:0:
166,110,24521,1,2,0:0:0:0:
168,123,24609,1,2,0:0:0:0:
171,138,24697,6,0,L|198:333,1,165,2|0,0:0|0:0,0:0:0:0:
109,357,25050,6,0,B|191:317|191:317|285:362,1,165,8|0,0:0|0:0,0:0:0:0:
346,330,25403,2,0,L|268:347,1,55,8|0,0:1|0:0,0:0:0:0:
257,348,25580,1,8,0:0:0:0:
363,210,25756,5,2,0:0:0:0:
366,224,25844,1,2,0:0:0:0:
429,274,25932,1,2,0:0:0:0:
426,288,26020,1,2,0:0:0:0:
467,353,26109,6,0,B|501:301|466:230|451:264|407:203|454:127,1,220,10|0,0:0|0:0,0:0:0:0:
512,42,26639,2,0,P|457:62|438:46,1,55,8|0,0:0|0:0,0:0:0:0:
297,53,26815,2,0,P|359:50|388:117,1,110,8|0,0:1|0:0,0:0:0:0:
256,206,27168,2,0,L|126:180,1,110,8|0,0:0|0:0,0:0:0:0:
92,41,27521,2,0,B|138:58|151:88|151:88|82:89|53:160,1,165,0|0,0:0|0:0,0:0:0:0:
40,265,27874,6,0,P|49:195|39:265,1,220,10|8,0:0|0:1,0:0:0:0:
6,351,28403,2,0,P|71:354|112:321,1,110,8|2,0:0|0:0,0:0:0:0:
235,364,28756,2,0,P|180:337|177:315,1,55,10|2,0:0|0:0,0:0:0:0:
256,206,28933,6,0,B|303:179|367:221|341:248|400:312|491:241,1,220,10|0,0:0|0:1,0:0:0:0:
448,137,29462,2,0,P|422:162|436:218,1,55,8|0,0:0|0:0,0:0:0:0:
455,361,29639,2,0,P|481:262|507:197,1,165,8|0,0:1|0:0,0:0:0:0:
485,69,29991,5,10,0:0:0:0:
469,58,30080,1,2,0:0:0:0:
452,54,30168,1,2,0:0:0:0:
434,57,30256,1,2,0:0:0:0:
369,88,30344,6,0,P|384:19|402:-21,1,110,2|2,0:0|0:0,0:0:0:0:
287,106,30697,2,0,B|240:133|176:91|202:64|143:0|52:71,1,220,8|8,0:0|0:1,0:0:0:0:
33,178,31227,2,0,P|125:174|121:111,1,165,8|2,0:0|0:0,0:0:0:0:
15,28,31580,2,0,P|22:82|46:96,1,55,10|2,0:0|0:0,0:0:0:0:
171,322,31756,6,0,P|183:241|212:146,1,165,10|0,0:0|0:0,0:0:0:0:
223,138,32109,2,0,P|231:176|236:212,2,55,2|2|10,0:0|0:0|0:0,0:0:0:0:
78,329,32462,6,0,P|162:343|246:369,1,165,8|0,0:1|0:0,0:0:0:0:
313,339,32815,2,0,P|290:285|300:226,1,110,8|0,0:0|0:0,0:0:0:0:
344,176,33168,1,0,0:0:0:0:
206,259,33344,1,0,0:0:0:0:
399,370,33521,6,0,P|412:269|450:124,1,220,8|8,0:0|0:1,0:0:0:0:
286,30,34050,2,0,P|287:88|300:99,1,55,8|0,0:0|0:0,0:0:0:0:
339,130,34227,6,0,L|378:118,3,27.5,2|2|2|2,0:0|0:0|0:0|0:0,0:0:0:0:
272,169,34403,6,0,L|233:157,3,27.5,10|2|2|2,0:0|0:0|0:0|0:0,0:0:0:0:
345,211,34580,6,0,B|268:189|253:248|240:301|142:269,1,220,8|0,0:0|0:0,0:0:0:0:
107,128,35109,2,0,P|136:145|138:196,1,55,8|0,0:0|0:0,0:0:0:0:
56,313,35286,2,0,P|69:232|89:183,1,110,8|0,0:1|0:0,0:0:0:0:
29,52,35639,1,10,0:0:0:0:
9,70,35727,1,2,0:0:0:0:
0,96,35815,1,2,0:0:0:0:
3,123,35903,1,2,0:0:0:0:
18,146,35991,5,2,0:0:0:0:
164,73,36168,1,0,0:0:0:0:
270,208,36344,2,0,P|343:188|355:136,1,110,8|0,0:0|0:0,0:0:0:0:
263,49,36697,2,0,P|248:108|240:151,1,55,8|0,0:1|0:0,0:0:0:0:
264,189,36874,1,8,0:0:0:0:
154,66,37050,2,0,P|168:118|172:173,1,110,2|2,0:0|0:0,0:0:0:0:
55,298,37403,6,0,B|140:240|188:269|174:315|130:331|121:284,1,165,10|0,0:0|0:0,0:0:0:0:
126,298,37756,6,0,P|130:271|150:253,1,55,8|0,0:1|0:0,0:0:0:0:
288,352,38109,2,0,P|261:347|243:327,1,55,8|0,0:1|0:0,0:0:0:0:
257,157,38462,6,0,P|278:188|274:215,1,65.9999979858399,8|0,0:0|0:0,0:0:0:0:
275,233,39168,5,10,0:0:0:0:
275,233,39256,1,2,0:0:0:0:
275,233,39344,1,2,0:0:0:0:
385,151,39521,1,8,0:1:0:0:
312,90,39697,1,8,0:0:0:0:
355,239,39874,6,0,P|376:250|394:267,3,27.5,2|2|2|2,0:0|0:0|0:0|0:0,0:0:0:0:
309,311,40050,6,0,P|288:322|270:339,3,27.5,10|2|2|2,0:0|0:0|0:0|0:0,0:0:0:0:
393,341,40227,6,0,P|409:255|432:146,1,165,10|0,0:0|0:0,0:0:0:0:
399,152,40580,1,0,0:0:0:0:
496,47,40756,1,10,0:0:0:0:
496,47,40844,1,0,0:0:0:0:
496,47,40933,2,0,P|431:41|421:3,1,110,8|0,0:1|0:0,0:0:0:0:
250,106,41286,1,10,0:0:0:0:
275,116,41374,1,2,0:0:0:0:
301,110,41462,1,2,0:0:0:0:
320,91,41550,1,2,0:0:0:0:
325,64,41639,5,2,0:0:0:0:
238,10,41815,1,0,0:0:0:0:
121,112,41991,2,0,P|58:136|17:151,1,110,8|0,0:0|0:0,0:0:0:0:
76,32,42344,1,8,0:1:0:0:
135,214,42521,2,0,P|166:158|137:111,1,110,8|2,0:0|0:0,0:0:0:0:
1,189,42874,1,10,0:0:0:0:
79,282,43050,6,0,B|190:259|190:259|224:287|213:322,1,165,10|0,0:0|0:0,0:0:0:0:
167,355,43403,2,0,P|134:347|161:346,1,110,2|10,0:0|0:0,0:0:0:0:
419,211,43756,6,0,B|308:188|308:188|274:216|285:251,1,165,8|0,0:1|0:0,0:0:0:0:
331,284,44109,2,0,P|364:276|337:275,1,110,8|0,0:0|0:0,0:0:0:0:
206,175,44462,5,0,0:0:0:0:
359,112,44639,1,0,0:0:0:0:
218,30,44815,2,0,B|145:15|131:59|113:120|21:88,1,197.99999395752,8|0,0:0|0:0,0:0:0:0:
9,24,45168,1,8,0:1:0:0:
187,129,45344,1,8,0:0:0:0:
21,267,45521,6,0,L|14:229,3,27.5,2|2|2|2,0:0|0:0|0:0|0:0,0:0:0:0:
78,194,45697,6,0,L|85:156,3,27.5,10|2|2|2,0:0|0:0|0:0|0:0,0:0:0:0:
134,255,45874,6,0,B|210:282|231:221|251:162|338:196,1,220,10|0,0:0|0:0,0:0:0:0:
451,291,46403,2,0,P|441:329|434:363,1,55,8|0,0:0|0:0,0:0:0:0:
371,255,46580,1,8,0:1:0:0:
510,208,46756,1,0,0:0:0:0:
389,110,46933,1,10,0:0:0:0:
392,124,47021,1,2,0:0:0:0:
395,137,47109,1,2,0:0:0:0:
399,150,47197,1,2,0:0:0:0:
402,164,47286,5,2,0:0:0:0:
479,53,47462,1,0,0:0:0:0:
325,10,47639,2,0,L|294:133,1,110,8|0,0:0|0:0,0:0:0:0:
111,186,47991,1,8,0:1:0:0:
174,70,48168,1,8,0:0:0:0:
275,251,48344,6,0,L|279:223,3,27.5,2|2|2|2,0:0|0:0|0:0|0:0,0:0:0:0:
214,179,48521,6,0,L|209:151,3,27.5,2|2|2|2,0:0|0:0|0:0|0:0,0:0:0:0:
172,251,48697,6,0,P|110:279|23:167,1,220,10|0,0:0|0:0,0:0:0:0:
142,91,49227,2,0,L|128:147,1,55,8|0,0:0|0:0,0:0:0:0:
92,16,49403,1,8,0:1:0:0:
231,113,49580,1,0,0:0:0:0:
20,181,49756,2,0,P|71:158|138:210,1,110,8|0,0:0|0:0,0:0:0:0:
303,61,50109,5,0,0:0:0:0:
186,18,50286,1,0,0:0:0:0:
247,162,50462,1,10,0:0:0:0:
244,175,50550,1,2,0:0:0:0:
241,189,50639,1,2,0:0:0:0:
326,57,50815,1,8,0:1:0:0:
418,202,50991,2,0,L|396:345,1,110,8|2,0:0|0:0,0:0:0:0:
503,138,51344,1,10,0:0:0:0:
312,375,51521,6,0,L|295:266,1,110,10|0,0:0|0:0,0:0:0:0:
331,118,51874,1,0,0:0:0:0:
216,201,52050,1,8,0:0:0:0:
284,46,52227,2,0,P|334:27|382:50,1,110,8|0,0:1|0:0,0:0:0:0:
235,181,52580,1,10,0:0:0:0:
221,177,52668,1,2,0:0:0:0:
208,174,52756,1,2,0:0:0:0:
194,171,52844,1,2,0:0:0:0:
181,168,52933,5,2,0:0:0:0:
91,74,53109,1,0,0:0:0:0:
186,17,53286,2,0,P|209:75|164:137,1,110,8|0,0:0|0:0,0:0:0:0:
43,187,53639,1,8,0:1:0:0:
197,268,53815,1,8,0:0:0:0:
59,339,53991,2,0,L|30:333,7,27.5,2|2|2|2|10|2|2|2,0:0|0:0|0:0|0:0|0:0|0:0|0:0|0:0,0:0:0:0:
99,268,54344,6,0,B|175:241|196:302|216:361|303:327,1,220,10|2,0:0|0:0,0:0:0:0:
320,310,54786,1,2,0:0:0:0:
320,310,54874,1,10,0:0:0:0:
391,162,55050,1,8,0:1:0:0:
278,214,55227,1,0,0:0:0:0:
377,124,55403,2,0,L|506:145,1,110,8|0,0:0|0:0,0:0:0:0:
485,141,56462,6,0,L|377:124,1,110,8|0,0:1|0:0,0:0:0:0:
326,45,56815,6,0,L|336:5,3,27.5,2|2|2|2,0:0|0:0|0:0|0:0,0:0:0:0:
263,99,56991,6,0,L|269:125,3,27.5,2|2|2|2,0:0|0:0|0:0|0:0,0:0:0:0:
213,29,57168,6,0,P|132:17|103:137,1,220,10|0,0:0|0:0,0:0:0:0:
229,295,57697,2,0,L|244:224,1,55,8|0,0:0|0:0,0:0:0:0:
199,173,57874,1,8,0:1:0:0:
52,295,58050,1,0,0:0:0:0:
298,354,58227,5,10,0:0:0:0:
301,340,58315,1,2,0:0:0:0:
364,290,58403,1,2,0:0:0:0:
361,276,58491,1,2,0:0:0:0:
310,216,58580,6,0,P|336:167|296:91,1,115.49999647522,2|0,0:0|0:0,0:0:0:0:
294,87,58933,6,0,L|436:115,1,110,8|0,0:0|0:0,0:0:0:0:
256,3,59286,6,0,L|187:14,1,55,8|0,0:1|0:0,0:0:0:0:
136,58,59462,2,0,L|81:49,1,55,8|0,0:0|0:0,0:0:0:0:
16,108,59639,6,0,L|13:135,3,27.5,2|2|2|2,0:0|0:0|0:0|0:0,0:0:0:0:
84,164,59815,6,0,L|88:191,3,27.5,2|2|2|2,0:0|0:0|0:0|0:0,0:0:0:0:
6,259,59991,6,0,B|82:232|103:293|123:352|210:318,1,220,10|0,0:0|0:0,0:0:0:0:
369,350,60521,2,0,P|332:292|340:269,1,55,8|0,0:0|0:0,0:0:0:0:
296,141,60697,2,0,P|251:232|204:243,2,110,8|0|8,0:1|0:0|0:0,0:0:0:0:
237,63,61227,1,0,0:0:0:0:
390,146,61403,5,0,0:0:0:0:
439,65,61580,1,0,0:0:0:0:
325,3,61756,1,10,0:0:0:0:
331,20,61844,1,2,0:0:0:0:
335,35,61933,1,2,0:0:0:0:
210,152,62109,1,8,0:1:0:0:
237,63,62286,1,8,0:0:0:0:
31,86,62462,6,0,L|28:59,3,27.5,2|2|2|2,0:0|0:0|0:0|0:0,0:0:0:0:
99,30,62639,6,0,L|103:3,3,27.5,10|2|2|2,0:0|0:0|0:0|0:0,0:0:0:0:
162,90,62815,6,0,P|93:130|122:240,1,165,10|0,0:0|0:0,0:0:0:0:
139,268,63168,1,0,0:0:0:0:
296,145,63344,1,8,0:0:0:0:
352,367,63521,2,0,L|237:328,1,110,8|0,0:1|0:0,0:0:0:0:
387,177,63874,1,10,0:0:0:0:
427,176,63962,1,2,0:0:0:0:
464,195,64050,1,2,0:0:0:0:
487,228,64138,1,2,0:0:0:0:
491,269,64226,5,2,0:0:0:0:
396,345,64403,5,2,0:0:0:0:
346,190,64580,6,0,P|357:123|379:14,1,165,8|0,0:0|0:0,0:0:0:0:
342,0,64933,1,8,0:1:0:0:
246,98,65109,1,8,0:0:0:0:
78,14,65286,6,0,L|75:41,3,27.5,2|2|2|2,0:0|0:0|0:0|0:0,0:0:0:0:
146,70,65462,6,0,L|150:97,3,27.5,10|2|2|2,0:0|0:0|0:0|0:0,0:0:0:0:
8,122,65639,6,0,P|76:134|93:250,1,165,10|0,0:0|0:0,0:0:0:0:
71,284,65991,2,0,L|13:296,2,55,2|2|10,0:0|0:0|0:0,0:0:0:0:
163,342,66344,2,0,L|309:362,1,110,8|0,0:1|0:0,0:0:0:0:
395,234,66697,2,0,B|332:222|308:265|308:265|344:273|375:327,1,165,8|0,0:0|0:0,0:0:0:0:
410,365,67050,6,0,P|425:269|447:139,1,197.99999395752,0|0,0:0|0:0,0:0:0:0:
400,103,67403,1,8,0:0:0:0:
239,46,67580,1,0,0:0:0:0:
300,164,67756,1,8,0:1:0:0:
369,16,67933,1,8,0:0:0:0:
203,138,68109,6,0,L|176:135,3,27.5,2|2|2|2,0:0|0:0|0:0|0:0,0:0:0:0:
121,79,68286,6,0,L|94:83,3,27.5,10|2|2|2,0:0|0:0|0:0|0:0,0:0:0:0:
19,162,68462,6,0,B|95:135|116:196|136:255|223:221,1,220,10|0,0:0|0:0,0:0:0:0:
387,308,68991,1,8,0:0:0:0:
256,376,69168,2,0,P|283:298|308:249,1,110,8|0,0:1|0:0,0:0:0:0:
401,193,69521,1,10,0:0:0:0:
401,193,69609,1,2,0:0:0:0:
401,193,69697,2,0,P|386:125|381:114,1,55,2|2,0:0|0:0,0:0:0:0:
331,85,69874,5,2,0:0:0:0:
290,230,70050,5,2,0:0:0:0:
459,69,70227,6,0,P|372:66|333:-4,1,165,8|0,0:0|0:0,0:0:0:0:
181,126,70580,6,0,P|196:61|200:28,1,55,8|0,0:1|0:0,0:0:0:0:
280,203,70756,2,0,P|265:138|261:105,1,55,8|0,0:0|0:0,0:0:0:0:
162,216,70933,6,0,L|159:243,3,27.5,2|2|2|2,0:0|0:0|0:0|0:0,0:0:0:0:
242,281,71109,6,0,L|246:308,3,27.5,2|2|2|2,0:0|0:0|0:0|0:0,0:0:0:0:
159,367,71286,6,0,B|235:394|256:333|276:274|363:308,1,220,10|0,0:0|0:0,0:0:0:0:
512,192,71815,1,8,0:0:0:0:
473,368,71991,2,0,P|467:302|427:236,1,110,8|0,0:1|0:0,0:0:0:0:
358,133,72344,2,0,P|355:81|418:128,1,165,8|0,0:0|0:0,0:0:0:0:
412,186,72697,6,0,P|323:165|221:147,1,165,0|0,0:0|0:0,0:0:0:0:
176,152,73050,1,10,0:0:0:0:
166,132,73139,1,2,0:0:0:0:
182,116,73227,1,2,0:0:0:0:
324,46,73403,1,8,0:1:0:0:
219,238,73580,2,0,P|233:316|251:395,2,110,8|2|10,0:0|0:0|0:0,0:0:0:0:
113,48,74109,6,0,P|45:40|35:155,1,165,10|0,0:0|0:0,0:0:0:0:
67,167,74462,1,0,0:1:0:0:
212,99,74639,1,8,0:0:0:0:
106,273,74815,2,0,P|33:254|-32:240,1,110,8|0,0:1|0:0,0:0:0:0:
208,349,75168,1,10,0:0:0:0:
208,349,75256,1,2,0:0:0:0:
208,349,75344,2,0,P|274:334|299:328,1,55,2|2,0:0|0:0,0:0:0:0:
397,303,75521,5,2,0:0:0:0:
338,371,75697,5,2,0:0:0:0:
326,252,75874,6,0,P|404:208|469:255,1,165,8|0,0:0|0:0,0:0:0:0:
504,310,76227,5,8,0:1:0:0:
408,172,76403,1,8,0:0:0:0:
485,39,76580,6,0,L|458:42,3,27.5,2|2|2|2,0:0|0:0|0:0|0:0,0:0:0:0:
386,80,76756,6,0,L|359:76,3,27.5,10|2|2|2,0:0|0:0|0:0|0:0,0:0:0:0:
302,17,76933,6,0,P|240:25|255:127,1,165,10|0,0:0|0:0,0:0:0:0:
295,165,77286,2,0,L|311:248,2,55,2|2|10,0:0|0:0|0:0,0:0:0:0:
139,196,77639,1,8,0:1:0:0:
223,245,77815,1,0,0:0:0:0:
64,347,77991,2,0,P|117:315|176:336,1,110,8|0,0:0|0:0,0:0:0:0:
287,382,78344,6,0,P|295:290|312:177,1,165,0|0,0:0|0:0,0:0:0:0:
358,165,78697,2,0,P|411:197|470:176,1,110,8|0,0:0|0:0,0:0:0:0:
427,57,79050,1,8,0:1:0:0:
282,135,79227,2,0,P|265:41|257:2,2,110,8|2|10,0:0|0:0|0:0,0:0:0:0:
406,63,83991,6,0,B|445:175|445:175|390:230,1,165,8|0,0:0|0:0,0:0:0:0:
482,274,84344,6,0,B|370:235|370:235|315:290,1,165,8|0,0:0|0:0,0:0:0:0:
278,346,84697,6,0,B|317:234|317:234|262:179,1,165,8|0,0:0|0:0,0:0:0:0:
226,151,85050,6,0,P|204:202|221:241,1,55,10|2,0:0|0:0,0:0:0:0:
281,64,85227,2,0,P|286:91|303:113,1,55,10|2,0:0|0:0,0:0:0:0:
149,79,85403,6,0,P|227:63|244:-22,1,165,10|0,0:0|0:0,0:0:0:0:
52,40,85933,1,8,0:0:0:0:
126,208,86109,2,0,P|141:132|148:92,1,110,8|0,0:1|0:0,0:0:0:0:
8,256,86462,1,10,0:0:0:0:
28,238,86550,1,2,0:0:0:0:
54,229,86639,1,2,0:0:0:0:
81,231,86727,1,2,0:0:0:0:
106,243,86815,5,2,0:0:0:0:
165,332,86991,1,0,0:0:0:0:
262,210,87168,2,0,P|355:198|389:256,1,165,8|0,0:0|0:0,0:0:0:0:
402,325,87521,1,8,0:1:0:0:
510,211,87697,1,8,0:0:0:0:
386,117,87874,6,0,L|382:164,3,27.5,2|2|2|2,0:0|0:0|0:0|0:0,0:0:0:0:
454,63,88050,6,0,L|451:35,3,27.5,2|2|2|2,0:0|0:0|0:0|0:0,0:0:0:0:
512,121,88227,6,0,B|438:147|417:88|395:28|310:60,1,214.49999018097,10|0,0:0|0:0,0:0:0:0:
259,94,88580,2,0,P|228:76|223:45,2,55,2|2|10,0:0|0:0|0:0,0:0:0:0:
91,34,88933,6,0,P|175:67|157:120,1,165,8|0,0:1|0:0,0:0:0:0:
115,211,89286,2,0,P|94:112|69:-3,1,165,8|0,0:0|0:0,0:0:0:0:
91,34,89639,5,0,0:0:0:0:
18,149,89815,1,0,0:0:0:0:
187,265,89991,2,0,P|275:222|336:273,1,165,8|0,0:0|0:0,0:0:0:0:
374,313,90344,1,8,0:1:0:0:
504,207,90521,1,8,0:0:0:0:
385,147,90697,6,0,L|381:194,3,27.5,2|2|2|2,0:0|0:0|0:0|0:0,0:0:0:0:
450,65,90874,6,0,L|453:93,3,27.5,10|2|2|2,0:0|0:0|0:0|0:0,0:0:0:0:
383,20,91050,6,0,P|311:9|274:106,1,165,10|0,0:0|0:0,0:0:0:0:
305,143,91403,1,0,0:0:0:0:
436,84,91580,1,8,0:0:0:0:
378,213,91756,5,8,0:1:0:0:
205,139,91933,1,0,0:0:0:0:
282,344,92109,1,10,0:0:0:0:
301,325,92197,1,2,0:0:0:0:
312,300,92286,1,2,0:0:0:0:
311,272,92374,1,2,0:0:0:0:
298,248,92462,5,2,0:0:0:0:
156,309,92639,1,0,0:0:0:0:
221,165,92815,2,0,B|297:138|318:199|338:258|425:224,1,220,8|8,0:0|0:1,0:0:0:0:
475,56,93344,6,0,L|451:135,1,55,8|0,0:0|0:0,0:0:0:0:
495,191,93521,1,2,0:0:0:0:
372,82,93697,1,2,0:0:0:0:
500,228,93874,6,0,P|414:272|423:343,1,165,10|0,0:0|0:0,0:0:0:0:
488,363,94227,1,0,0:0:0:0:
387,221,94403,1,8,0:0:0:0:
326,289,94580,5,8,0:1:0:0:
302,363,94756,1,0,0:0:0:0:
255,205,94933,6,0,P|176:179|160:299,1,220,8|0,0:0|0:0,0:0:0:0:
209,330,95462,5,0,0:0:0:0:
186,129,95639,1,10,0:0:0:0:
107,185,95815,5,2,0:0:0:0:
77,348,95991,1,8,0:1:0:0:
19,152,96168,6,0,P|46:77|158:87,1,165,8|2,0:0|0:0,0:0:0:0:
203,111,96521,6,0,L|214:164,1,55,10|2,0:0|0:0,0:0:0:0:
281,224,96697,6,0,B|357:251|378:190|398:131|485:165,1,220,10|0,0:0|0:0,0:0:0:0:
505,232,97227,1,8,0:0:0:0:
339,338,97403,1,8,0:1:0:0:
281,224,97580,1,0,0:0:0:0:
460,126,97756,1,10,0:0:0:0:
470,100,97844,1,2,0:0:0:0:
468,73,97933,1,2,0:0:0:0:
454,50,98021,1,2,0:0:0:0:
432,35,98109,5,2,0:0:0:0:
352,93,98286,1,0,0:0:0:0:
235,22,98462,2,0,P|166:6|148:111,1,165,8|0,0:0|0:0,0:0:0:0:
181,133,98815,5,8,0:1:0:0:
326,71,98991,1,8,0:0:0:0:
237,212,99168,6,0,L|244:257,3,27.5,2|2|2|2,0:0|0:0|0:0|0:0,0:0:0:0:
318,179,99344,6,0,L|322:151,3,27.5,2|2|2|2,0:0|0:0|0:0|0:0,0:0:0:0:
357,262,99521,5,10,0:0:0:0:
255,105,99697,1,0,0:0:0:0:
168,277,99874,1,2,0:0:0:0:
168,277,99962,1,2,0:0:0:0:
168,277,100050,2,0,P|217:321|278:306,1,110,10|8,0:0|0:1,0:0:0:0:
402,184,100403,1,0,0:0:0:0:
465,262,100580,2,0,L|431:372,2,110,8|0|0,0:0|0:0|0:0,0:0:0:0:
439,87,101109,5,0,0:0:0:0:
439,87,101286,2,0,P|384:105|329:53,1,110,8|0,0:0|0:0,0:0:0:0:
272,12,101639,1,8,0:1:0:0:
197,162,101815,1,8,0:0:0:0:
86,71,101991,6,0,L|81:43,3,27.5,2|2|2|2,0:0|0:0|0:0|0:0,0:0:0:0:
5,104,102168,6,0,L|0:131,3,27.5,10|2|2|2,0:0|0:0|0:0|0:0,0:0:0:0:
77,154,102344,6,0,B|153:127|174:188|194:247|281:213,1,220,10|0,0:0|0:0,0:0:0:0:
400,98,102874,1,8,0:0:0:0:
265,16,103050,2,0,P|289:134|290:155,1,110,8|0,0:1|0:0,0:0:0:0:
338,326,103403,6,0,L|346:271,1,55,10|2,0:0|0:0,0:0:0:0:
421,249,103580,6,0,L|412:194,1,55,2|2,0:0|0:0,0:0:0:0:
420,118,103756,6,0,P|469:103|514:141,1,110,2|0,0:0|0:0,0:0:0:0:
347,272,104109,2,0,B|308:249|256:272|286:300|235:344|170:295,1,165,8|0,0:0|0:0,0:0:0:0:
132,269,104462,1,8,0:1:0:0:
262,384,104639,1,8,0:0:0:0:
220,205,104815,6,0,L|215:233,3,27.5,2|2|2|2,0:0|0:0|0:0|0:0,0:0:0:0:
148,171,104991,6,0,L|143:144,3,27.5,2|2|2|2,0:0|0:0|0:0|0:0,0:0:0:0:
95,236,105168,6,0,P|116:126|136:26,1,165,10|0,0:0|0:0,0:0:0:0:
83,9,105521,1,0,0:0:0:0:
216,105,105697,1,8,0:0:0:0:
320,8,105874,5,8,0:1:0:0:
247,26,106050,1,0,0:0:0:0:
343,159,106227,6,0,P|383:100|481:109,1,165,8|0,0:0|0:0,0:0:0:0:
485,210,106580,6,0,P|390:184|283:151,1,165,0|0,0:0|0:0,0:0:0:0:
268,216,106933,1,10,0:0:0:0:
274,232,107021,1,2,0:0:0:0:
280,247,107109,1,2,0:0:0:0:
417,311,107286,1,8,0:1:0:0:
388,213,107462,1,8,0:0:0:0:
218,364,107639,6,0,L|245:369,3,27.5,2|2|2|2,0:0|0:0|0:0|0:0,0:0:0:0:
297,289,107815,6,0,L|269:294,3,27.5,10|2|2|2,0:0|0:0|0:0|0:0,0:0:0:0:
211,232,107991,6,0,B|172:209|120:232|150:260|99:304|34:255,1,165,10|0,0:0|0:0,0:0:0:0:
2,210,108344,5,0,0:0:0:0:
94,351,108521,1,8,0:0:0:0:
107,168,108697,5,8,0:1:0:0:
64,271,108874,1,0,0:0:0:0:
30,108,109050,1,10,0:0:0:0:
47,86,109139,1,2,0:0:0:0:
71,73,109227,1,2,0:0:0:0:
98,69,109315,1,2,0:0:0:0:
124,75,109403,5,2,0:0:0:0:
301,0,109580,5,2,0:0:0:0:
173,13,109756,6,0,P|266:43|351:81,1,165,10|0,0:0|0:0,0:0:0:0:
459,24,110109,6,0,P|419:63|420:105,1,55,8|0,0:1|0:0,0:0:0:0:
378,140,110286,2,0,P|393:162|416:176,1,55,8|0,0:0|0:0,0:0:0:0:
504,125,110462,6,0,L|499:153,3,27.5,2|2|2|2,0:0|0:0|0:0|0:0,0:0:0:0:
438,236,110639,6,0,L|433:209,3,27.5,2|2|2|2,0:0|0:0|0:0|0:0,0:0:0:0:
491,324,110815,6,0,P|440:265|344:308,1,165,10|0,0:0|0:0,0:0:0:0:
296,360,111168,1,2,0:0:0:0:
309,347,111256,1,2,0:0:0:0:
293,337,111344,1,10,0:0:0:0:
218,214,111521,5,8,0:1:0:0:
314,182,111697,1,0,0:0:0:0:
170,285,111874,6,0,P|112:300|136:209,1,165,8|0,0:0|0:0,0:0:0:0:
162,150,112227,5,0,0:0:0:0:
207,304,112403,2,0,P|196:357|188:395,1,55,0|0,0:0|0:0,0:0:0:0:
104,216,112580,5,8,0:0:0:0:
278,106,112756,1,0,0:0:0:0:
133,51,112933,5,8,0:1:0:0:
162,150,113109,1,8,0:0:0:0:
332,21,113286,6,0,L|304:26,3,27.5,2|2|2|2,0:0|0:0|0:0|0:0,0:0:0:0:
233,88,113462,6,0,L|260:93,3,27.5,10|2|2|2,0:0|0:0|0:0|0:0,0:0:0:0:
331,168,113639,6,0,P|436:141|434:54,1,165,10|0,0:0|0:0,0:0:0:0:
428,22,113991,1,0,0:0:0:0:
278,106,114168,1,8,0:0:0:0:
407,213,114344,5,8,0:1:0:0:
495,251,114521,1,0,0:0:0:0:
335,322,114697,1,10,0:0:0:0:
321,325,114786,1,2,0:0:0:0:
308,329,114874,1,2,0:0:0:0:
295,332,114962,1,2,0:0:0:0:
281,336,115050,5,2,0:0:0:0:
174,265,115227,5,2,0:0:0:0:
206,375,115403,6,0,P|217:293|246:187,1,165,10|0,0:0|0:0,0:0:0:0:
331,173,115756,6,0,P|298:140|267:137,1,55,8|0,0:1|0:0,0:0:0:0:
235,83,115933,2,0,P|210:95|195:118,1,55,8|0,0:0|0:0,0:0:0:0:
151,187,116109,6,0,L|123:182,3,27.5,2|2|2|2,0:0|0:0|0:0|0:0,0:0:0:0:
35,111,116286,6,0,L|62:106,3,27.5,2|2|2|2,0:0|0:0|0:0|0:0,0:0:0:0:
132,66,116462,6,0,P|106:144|70:261,1,181.500005538941,10|0,0:0|0:0,0:0:0:0:
41,309,116815,1,0,0:0:0:0:
0,209,116991,1,8,0:0:0:0:
132,66,117168,1,8,0:1:0:0:
132,66,118227,5,2,0:0:0:0:
148,73,118315,1,2,0:0:0:0:
163,80,118403,1,2,0:0:0:0:
69,4,118580,5,8,0:1:0:0:
186,169,118756,2,0,P|248:133|238:37,1,165,8|2,0:0|0:0,0:0:0:0:
68,153,119109,2,0,L|90:234,1,55,10|2,0:0|0:0,0:0:0:0:
226,346,119286,6,0,P|166:264|113:300,1,165,10|0,0:0|0:0,0:0:0:0:
71,334,119639,1,0,0:0:0:0:
208,368,119815,1,8,0:0:0:0:
186,169,119991,5,8,0:1:0:0:
226,262,120168,1,0,0:0:0:0:
319,139,120344,5,10,0:0:0:0:
307,146,120433,1,2,0:0:0:0:
300,157,120521,1,2,0:0:0:0:
301,171,120609,1,2,0:0:0:0:
308,183,120697,5,2,0:0:0:0:
433,128,120874,5,2,0:0:0:0:
346,56,121050,6,0,P|376:145|406:241,1,165,10|0,0:0|0:0,0:0:0:0:
474,273,121403,6,0,P|484:217|491:190,1,55,8|0,0:1|0:0,0:0:0:0:
385,298,121580,2,0,P|390:324|394:352,1,55,8|0,0:0|0:0,0:0:0:0:
295,230,121756,6,0,L|290:258,3,27.5,2|2|2|2,0:0|0:0|0:0|0:0,0:0:0:0:
219,346,121933,6,0,L|214:319,3,27.5,10|2|2|2,0:0|0:0|0:0|0:0,0:0:0:0:
116,241,122109,6,0,P|192:233|205:143,1,165,10|0,0:0|0:0,0:0:0:0:
163,94,122462,1,2,0:0:0:0:
152,100,122550,1,2,0:0:0:0:
141,108,122639,1,10,0:0:0:0:
117,17,122815,5,8,0:1:0:0:
271,56,122991,1,0,0:0:0:0:
78,172,123168,2,0,P|46:127|57:68,1,110,8|0,0:0|0:0,0:0:0:0:
211,156,123521,5,0,0:0:0:0:
116,241,123697,2,0,P|131:303|133:340,1,55,0|0,0:0|0:0,0:0:0:0:
196,358,123874,5,8,0:0:0:0:
239,178,124050,1,0,0:0:0:0:
24,259,124227,5,8,0:1:0:0:
129,294,124403,1,8,0:0:0:0:
154,65,124580,6,2,L|149:93,3,27.5
78,172,124757,6,2,L|73:145,4,27.5,10|2|2|2|2,0:0|0:0|0:0|0:0|0:0,0:0:0:0:
