osu file format v14

[General]
AudioFilename: audio.mp3
AudioLeadIn: 0
PreviewTime: 10580
Countdown: 0
SampleSet: Soft
StackLeniency: 0.7
Mode: 0
LetterboxInBreaks: 0
WidescreenStoryboard: 1

[Editor]
Bookmarks: 11992,33168,57168,79756,85403,102344,124933
DistanceSpacing: 1.4
BeatDivisor: 4
GridSize: 32
TimelineZoom: 2.799999

[Metadata]
Title:INTERNET
TitleUnicode:ИНТЕРНЕТ
Artist:EGOR NATS
ArtistUnicode:ЕГОР НАТС
Creator:Azinlen
Version:DUCKY-'S HARD
Source:
Tags:a3ther_xx wetdog123 hhjkl ducky- hyperpop hyper pop хайперпоп хайпер поп russian glitchcore hiphop hip hop hip-hop rap русский ДОБРО ПОЖАЛОВАТЬ В HYPERPOP ЧАСТЬ 1 chapter 1 glava 1
BeatmapID:3438885
BeatmapSetID:1565208

[Difficulty]
HPDrainRate:3.5
CircleSize:3.6
OverallDifficulty:5.5
ApproachRate:7.5
SliderMultiplier:1.2
SliderTickRate:1

[Events]
//Background and Video events
0,0,"bg.jpg",0,0
//Break Periods
2,79956,84513
//Storyboard Layer 0 (Background)
//Storyboard Layer 1 (Fail)
//Storyboard Layer 2 (Pass)
//Storyboard Layer 3 (Foreground)
//Storyboard Layer 4 (Overlay)
//Storyboard Sound Samples

[TimingPoints]
11992,352.941176470588,4,2,1,100,1,0

[Colours]
Combo1 : 255,202,221
Combo2 : 211,226,250
Combo3 : 220,206,255
Combo4 : 202,254,255

[HitObjects]
85,100,10756,6,0,P|133:90|219:79,1,120,0|0,0:0|0:0,0:0:0:0:
368,153,11462,1,0,0:0:0:0:
435,99,11639,2,0,L|431:75,6,15,0|0|0|0|0|0|0,0:0|0:0|0:0|0:0|0:0|0:0|0:0,0:0:0:0:
411,55,11992,6,0,P|359:42|336:36,1,60,8|0,0:0|0:0,0:0:0:0:
282,0,12344,1,0,0:0:0:0:
282,0,12521,1,8,0:0:0:0:
222,68,12697,1,8,0:1:0:0:
222,68,12874,2,0,P|231:102|237:128,1,60,0|10,0:0|0:0,0:0:0:0:
309,174,13227,1,2,0:0:0:0:
309,174,13403,2,0,P|302:224|294:317,1,120,2|8,0:0|0:0,0:0:0:0:
345,378,13933,1,0,0:0:0:0:
345,378,14109,1,8,0:1:0:0:
413,310,14286,2,0,P|457:300|491:300,2,60,8|2|2,0:0|0:0|0:0,0:0:0:0:
345,378,14815,5,8,0:0:0:0:
345,378,14992,2,0,L|276:370,1,60,0|0,0:0|0:0,0:0:0:0:
199,384,15344,1,8,0:0:0:0:
199,384,15521,1,8,0:1:0:0:
143,300,15697,1,0,0:0:0:0:
143,300,15874,1,8,0:0:0:0:
72,356,16050,1,0,0:0:0:0:
72,356,16227,2,0,P|20:338|30:275,1,120,0|10,0:0|0:0,0:0:0:0:
84,229,16756,1,2,0:0:0:0:
84,229,16933,2,0,P|88:169|101:138,1,90,8|0,0:1|0:0,0:0:0:0:
102,116,17286,2,0,L|96:93,4,15,2|2|2|2|10,0:0|0:0|0:0|0:0|0:0,0:0:0:0:
0,86,17639,5,8,0:0:0:0:
0,86,17815,2,0,P|13:43|30:11,1,60,0|0,0:0|0:0,0:0:0:0:
109,0,18168,1,8,0:0:0:0:
109,0,18344,2,0,P|149:16|190:20,1,60,8|0,0:1|0:0,0:0:0:0:
231,75,18697,2,0,P|263:62|301:60,1,60,10|2,0:0|0:0,0:0:0:0:
368,0,19050,6,0,P|382:71|422:131,1,120,2|8,0:0|0:0,0:0:0:0:
489,160,19580,1,0,0:0:0:0:
489,160,19756,2,0,P|486:208|462:239,1,60,8|8,0:1|0:0,0:0:0:0:
405,265,20109,2,0,P|361:247|349:242,1,60,2|10,0:0|0:0,0:0:0:0:
307,163,20462,6,0,P|251:175|224:189,1,60,10|0,0:0|0:0,0:0:0:0:
199,247,20815,2,0,P|153:234|110:154,1,120,2|8,0:0|0:1,0:0:0:0:
20,21,21521,1,8,0:0:0:0:
20,21,21697,1,0,0:0:0:0:
89,72,21874,1,0,0:0:0:0:
89,72,22050,2,0,P|134:60|165:48,1,60,0|8,0:0|0:0,0:0:0:0:
215,11,22403,1,0,0:0:0:0:
215,11,22580,2,0,P|258:22|286:26,1,60,8|8,0:1|0:0,0:0:0:0:
335,84,22933,2,0,L|376:74,3,30,2|2|2|2,0:0|0:0|0:0|0:0,0:0:0:0:
404,84,23286,6,0,P|437:116|426:169,1,90,10|0,0:0|0:0,0:0:0:0:
421,188,23639,2,0,P|377:198|345:216,1,60,0|8,0:0|0:0,0:0:0:0:
316,273,23991,1,8,0:1:0:0:
316,273,24168,1,0,0:0:0:0:
240,217,24344,2,0,P|202:207|169:196,1,60,10|2,0:0|0:0,0:0:0:0:
147,122,24697,6,0,P|99:135|4:158,1,120,2|8,0:0|0:0,0:0:0:0:
0,244,25226,1,0,0:0:0:0:
0,244,25403,2,0,P|54:260|79:270,1,60,8|8,0:1|0:0,0:0:0:0:
143,254,25756,2,0,L|149:279,4,15,2|2|2|2|2,0:0|0:0|0:0|0:0|0:0,0:0:0:0:
157,346,26109,6,0,P|198:360|254:304,1,120,10|0,0:0|0:0,0:0:0:0:
339,312,26639,1,8,0:0:0:0:
339,312,26815,2,0,P|344:262|355:232,1,60,8|0,0:1|0:0,0:0:0:0:
275,206,27168,1,8,0:0:0:0:
275,206,27344,1,0,0:0:0:0:
342,153,27521,6,0,P|362:45|364:33,1,120,0|10,0:0|0:0,0:0:0:0:
280,0,28050,1,2,0:0:0:0:
280,0,28227,2,0,P|228:12|196:16,1,60,8|8,0:1|0:0,0:0:0:0:
183,83,28580,1,2,0:0:0:0:
183,83,28756,1,10,0:0:0:0:
103,34,28933,6,0,P|53:46|26:50,1,60,10|0,0:0|0:0,0:0:0:0:
16,125,29286,1,0,0:1:0:0:
16,125,29462,1,8,0:0:0:0:
90,182,29639,1,8,0:1:0:0:
90,182,29815,2,0,P|97:236|102:255,1,60,0|10,0:0|0:0,0:0:0:0:
175,303,30168,1,2,0:0:0:0:
238,235,30344,6,0,P|287:223|322:217,2,60,2|2|8,0:0|0:0|0:0,0:0:0:0:
187,167,30873,1,0,0:0:0:0:
187,167,31050,2,0,P|175:107|162:29,1,120,8|2,0:1|0:0,0:0:0:0:
246,10,31580,1,10,0:0:0:0:
246,10,31756,6,0,P|305:30|321:36,1,60,10|0,0:0|0:0,0:0:0:0:
351,102,32109,1,2,0:0:0:0:
351,102,32286,1,10,0:0:0:0:
418,52,32462,1,8,0:1:0:0:
418,52,32639,1,0,0:0:0:0:
486,102,32815,2,0,L|504:183,1,60,8|0,0:0|0:0,0:0:0:0:
459,237,33168,6,0,P|387:255|379:317,1,120,0|8,0:0|0:0,0:0:0:0:
330,378,33697,1,0,0:0:0:0:
330,378,33874,2,0,P|291:345|289:258,1,120,8|2,0:1|0:0,0:0:0:0:
224,223,34403,1,10,0:0:0:0:
224,223,34580,6,0,P|216:151|201:86,1,120,8|0,0:0|0:0,0:0:0:0:
16,57,35286,2,0,P|9:28|0:0,2,60,8|0|10,0:1|0:0|0:0,0:0:0:0:
99,108,35815,1,2,0:0:0:0:
99,108,35991,2,0,P|81:149|83:181,1,60,2|0,0:0|0:0,0:0:0:0:
53,246,36344,2,0,P|20:254|-7:279,2,60,8|0|8,0:0|0:0|0:1,0:0:0:0:
117,315,36874,1,8,0:0:0:0:
117,315,37050,2,0,P|159:304|192:299,1,60,2|2,0:0|0:0,0:0:0:0:
236,245,37403,6,0,P|317:271|337:270,1,90,10|0,0:0|0:0,0:0:0:0:
355,268,37756,2,0,P|375:240|371:210,1,60,8|0,0:1|0:0,0:0:0:0:
313,151,38109,2,0,L|236:138,1,60,8|0,0:1|0:0,0:0:0:0:
366,85,38462,1,8,0:0:0:0:
366,85,38639,1,0,0:0:0:0:
429,144,38815,6,0,P|474:138|507:120,1,60,0|0,0:0|0:0,0:0:0:0:
504,40,39168,2,0,L|517:-3,2,30,10|2|2,0:0|0:0|0:0,0:0:0:0:
425,23,39521,1,8,0:1:0:0:
425,23,39697,1,8,0:0:0:0:
343,4,39874,2,0,L|281:15,1,60,2|10,0:0|0:0,0:0:0:0:
209,67,40227,5,10,0:0:0:0:
209,67,40403,2,0,L|93:33,1,120,0|10,0:0|0:0,0:0:0:0:
13,67,40933,1,8,0:1:0:0:
141,207,41286,1,10,0:0:0:0:
141,207,41462,1,2,0:0:0:0:
92,277,41639,6,0,L|103:342,1,60,2|0,0:0|0:0,0:0:0:0:
161,384,41991,1,8,0:0:0:0:
379,310,42344,2,0,L|403:196,2,90,8|0|10,0:1|0:0|0:0,0:0:0:0:
324,376,43050,6,0,P|279:353|273:329,1,60,10|0,0:0|0:0,0:0:0:0:
222,266,43403,2,0,P|270:257|283:236,1,60,2|10,0:0|0:0,0:0:0:0:
302,172,43756,1,8,0:1:0:0:
159,121,44109,2,0,P|129:122|105:105,1,60,8|0,0:0|0:0,0:0:0:0:
78,27,44462,1,0,0:0:0:0:
279,0,44815,6,0,L|268:84,1,60,8|0,0:0|0:0,0:0:0:0:
306,142,45168,2,0,L|402:126,1,90,8|0,0:1|0:0,0:0:0:0:
433,103,45521,2,0,L|443:80,4,15,2|2|2|2|10,0:0|0:0|0:0|0:0|0:0,0:0:0:0:
499,168,45874,5,10,0:0:0:0:
499,168,46050,2,0,L|513:227,1,60,0|0,0:0|0:0,0:0:0:0:
441,384,46580,1,8,0:1:0:0:
402,319,46756,1,0,0:0:0:0:
402,319,46933,2,0,L|316:297,1,60,10|2,0:0|0:0,0:0:0:0:
262,315,47286,6,0,P|261:348|280:383,2,60,2|0|8,0:0|0:0|0:0,0:0:0:0:
192,264,47815,1,0,0:0:0:0:
192,264,47991,2,0,P|208:198|213:180,1,60,8|8,0:1|0:0,0:0:0:0:
271,158,48344,1,2,0:0:0:0:
271,158,48521,1,2,0:0:0:0:
217,86,48697,1,10,0:0:0:0:
217,86,48874,2,0,L|90:110,1,120,0|8,0:0|0:0,0:0:0:0:
35,58,49403,1,8,0:1:0:0:
35,58,49580,2,0,L|50:-12,2,60,0|0|0,0:0|0:0|0:0,0:0:0:0:
0,141,50109,6,0,L|12:217,1,60,0|0,0:0|0:0,0:0:0:0:
53,278,50462,1,10,0:0:0:0:
53,278,50639,1,2,0:0:0:0:
139,239,50815,1,8,0:1:0:0:
139,239,50991,1,8,0:0:0:0:
179,315,51168,2,0,L|184:338,4,15,2|2|2|2|10,0:0|0:0|0:0|0:0|0:0,0:0:0:0:
239,262,51521,6,0,P|252:204|273:118,2,120,10|0|8,0:0|0:0|0:1,0:0:0:0:
304,325,52403,1,0,0:0:0:0:
304,325,52580,2,0,P|349:313|380:312,1,60,10|2,0:0|0:0,0:0:0:0:
422,254,52933,6,0,P|461:264|496:269,2,60,2|0|8,0:0|0:0|0:0,0:0:0:0:
360,185,53462,1,0,0:0:0:0:
360,185,53639,2,0,P|344:140|363:111,1,60,8|8,0:1|0:0,0:0:0:0:
412,73,53991,1,2,0:0:0:0:
412,73,54168,1,10,0:0:0:0:
348,0,54344,5,10,0:0:0:0:
348,0,54521,2,0,L|227:19,1,120,0|10,0:0|0:0,0:0:0:0:
178,82,55050,2,0,L|39:58,1,120,8|8,0:1|0:0,0:0:0:0:
58,154,55580,1,0,0:0:0:0:
58,154,55756,6,0,L|-24:172,2,60,0|0|0,0:0|0:0|0:0,0:0:0:0:
102,230,56286,1,0,0:0:0:0:
102,230,56462,2,0,L|183:249,1,60,8|0,0:1|0:0,0:0:0:0:
212,303,56815,2,0,L|285:288,1,60,2|2,0:0|0:0,0:0:0:0:
334,232,57168,6,0,P|386:259|469:270,1,120,10|0,0:0|0:0,0:0:0:0:
302,100,57874,2,0,P|250:127|167:138,1,120,8|10,0:1|0:0,0:0:0:0:
7,56,58580,6,0,P|13:19|31:-8,2,60,2|0|8,0:0|0:0|0:0,0:0:0:0:
87,108,59109,1,0,0:0:0:0:
87,108,59286,2,0,P|101:142|100:181,1,60,8|0,0:1|0:0,0:0:0:0:
45,230,59639,2,0,L|17:237,4,15,2|2|2|2|2,0:0|0:0|0:0|0:0|0:0,0:0:0:0:
0,307,59991,6,0,P|-2:345|11:378,1,60,10|0,0:0|0:0,0:0:0:0:
96,384,60344,1,0,0:0:0:0:
96,384,60521,1,8,0:0:0:0:
138,310,60697,2,0,P|145:270|151:231,1,60,8|0,0:1|0:0,0:0:0:0:
161,166,61050,1,8,0:0:0:0:
290,366,61403,5,0,0:0:0:0:
489,275,61756,1,10,0:0:0:0:
489,275,61933,1,2,0:0:0:0:
409,285,62109,2,0,P|339:268|325:262,1,60,8|8,0:1|0:0,0:0:0:0:
274,254,62462,2,0,L|266:233,4,15,2|2|2|2|10,0:0|0:0|0:0|0:0|0:0,0:0:0:0:
272,156,62815,6,0,P|283:123|311:49,1,90,10|0,0:0|0:0,0:0:0:0:
339,52,63168,2,0,P|368:48|394:23,1,60,0|8,0:0|0:0,0:0:0:0:
485,26,63521,1,8,0:1:0:0:
485,26,63697,1,0,0:0:0:0:
457,102,63874,2,0,P|458:130|474:158,1,60,10|2,0:0|0:0,0:0:0:0:
454,253,64227,6,0,P|489:242|522:241,2,60,2|2|8,0:0|0:0|0:0,0:0:0:0:
400,335,64756,1,0,0:0:0:0:
400,335,64933,2,0,P|330:314|315:312,1,60,8|8,0:1|0:0,0:0:0:0:
308,246,65286,2,0,L|286:254,4,15,2|2|2|2|10,0:0|0:0|0:0|0:0|0:0,0:0:0:0:
232,304,65639,6,0,P|162:284|142:284,1,90,10|0,0:0|0:0,0:0:0:0:
113,310,65991,1,2,0:0:0:0:
113,310,66168,1,10,0:0:0:0:
45,243,66344,2,0,P|56:184|67:139,1,90,8|0,0:1|0:0,0:0:0:0:
88,136,66697,2,0,P|136:126|157:41,1,120,8|0,0:0|0:0,0:0:0:0:
371,14,67403,1,8,0:0:0:0:
371,14,67580,1,0,0:0:0:0:
322,84,67756,1,8,0:1:0:0:
322,84,67933,1,8,0:0:0:0:
403,118,68109,2,0,L|398:145,4,15,2|2|2|2|10,0:0|0:0|0:0|0:0|0:0,0:0:0:0:
343,190,68462,6,0,P|356:243|364:265,1,60,10|0,0:0|0:0,0:0:0:0:
420,324,68815,2,0,P|349:340|314:357,1,90,0|0,0:0|0:0,0:0:0:0:
309,374,69168,2,0,P|260:370|247:353,1,60,8|0,0:1|0:0,0:0:0:0:
214,294,69521,2,0,P|175:304|150:326,1,60,10|2,0:0|0:0,0:0:0:0:
107,384,69874,5,2,0:0:0:0:
107,384,70050,1,2,0:0:0:0:
40,321,70227,1,8,0:0:0:0:
40,321,70403,1,0,0:0:0:0:
86,245,70580,2,0,P|94:196|97:160,1,60,8|8,0:1|0:0,0:0:0:0:
23,150,70933,2,0,L|14:134,4,15,2|2|2|2|2,0:0|0:0|0:0|0:0|0:0,0:0:0:0:
66,72,71286,6,0,P|119:45|176:84,1,120,10|0,0:0|0:0,0:0:0:0:
234,138,71815,1,8,0:0:0:0:
234,138,71991,2,0,P|287:124|310:121,1,60,8|0,0:1|0:0,0:0:0:0:
346,53,72344,2,0,P|399:64|425:69,1,60,8|0,0:0|0:0,0:0:0:0:
478,118,72697,6,0,P|488:153|486:186,1,60,0|0,0:0|0:0,0:0:0:0:
435,248,73050,1,10,0:0:0:0:
435,248,73227,1,2,0:0:0:0:
345,207,73403,1,8,0:1:0:0:
345,207,73580,1,8,0:0:0:0:
327,286,73756,2,0,L|311:290,4,15,2|2|2|2|10,0:0|0:0|0:0|0:0|0:0,0:0:0:0:
226,290,74109,6,0,P|193:273|154:262,1,60,10|0,0:0|0:0,0:0:0:0:
114,328,74462,1,0,0:1:0:0:
114,328,74639,1,8,0:0:0:0:
28,301,74815,2,0,P|36:241|46:195,1,90,8|0,0:1|0:0,0:0:0:0:
70,192,75168,2,0,P|59:144|53:105,1,60,10|2,0:0|0:0,0:0:0:0:
57,41,75521,6,0,P|2:26|-19:23,2,60,2|2|8,0:0|0:0|0:0,0:0:0:0:
137,86,76050,1,0,0:0:0:0:
137,86,76227,2,0,P|190:75|209:73,1,60,8|8,0:1|0:0,0:0:0:0:
227,0,76580,2,0,L|248:5,4,15,2|2|2|2|10,0:0|0:0|0:0|0:0|0:0,0:0:0:0:
302,60,76933,6,0,L|415:42,1,90,10|0,0:0|0:0,0:0:0:0:
426,57,77286,1,2,0:0:0:0:
488,123,77462,1,10,0:0:0:0:
436,193,77639,2,0,L|448:256,1,60,8|0,0:1|0:0,0:0:0:0:
470,336,77991,1,8,0:0:0:0:
304,384,78344,5,0,0:0:0:0:
231,327,78521,2,0,L|160:340,2,60,0|8|0,0:0|0:0|0:0,0:0:0:0:
281,259,79050,1,8,0:1:0:0:
281,259,79227,2,0,L|263:121,1,120,8|10,0:0|0:0,0:0:0:0:
295,66,79756,5,2,0:0:0:0:
54,364,85403,6,0,P|24:365|0:382,2,60,10|0|0,0:0|0:0|0:0,0:0:0:0:
130,315,85933,1,8,0:0:0:0:
130,315,86109,2,0,P|139:273|147:239,1,60,8|0,0:1|0:0,0:0:0:0:
221,220,86462,1,10,0:0:0:0:
221,220,86639,1,2,0:0:0:0:
153,150,86815,6,0,P|147:101|141:75,1,60,2|0,0:0|0:0,0:0:0:0:
191,19,87168,1,8,0:0:0:0:
191,19,87344,2,0,P|255:27|321:39,1,120,0|8,0:0|0:0,0:0:0:0:
367,93,87874,1,2,0:0:0:0:
367,93,88050,1,2,0:0:0:0:
449,74,88227,6,0,P|456:99|459:138,1,60,10|0,0:0|0:0,0:0:0:0:
484,220,88580,1,2,0:0:0:0:
484,220,88756,1,10,0:0:0:0:
418,269,88933,2,0,P|411:294|408:333,1,60,8|0,0:1|0:0,0:0:0:0:
353,384,89286,1,8,0:0:0:0:
353,384,89462,1,0,0:0:0:0:
284,327,89639,6,0,P|238:317|205:311,2,60,0|0|8,0:0|0:0|0:0,0:0:0:0:
337,262,90168,1,0,0:0:0:0:
337,262,90344,2,0,L|328:185,1,60,8|8,0:1|0:0,0:0:0:0:
248,192,90697,2,0,L|255:164,4,15,2|2|2|2|10,0:0|0:0|0:0|0:0|0:0,0:0:0:0:
287,102,91050,6,0,P|259:68|233:70,1,60,10|0,0:0|0:0,0:0:0:0:
183,16,91403,1,0,0:0:0:0:
183,16,91580,1,8,0:0:0:0:
132,78,91756,2,0,P|98:92|67:100,1,60,8|0,0:1|0:0,0:0:0:0:
0,128,92109,2,0,P|17:169|24:207,1,60,10|2,0:0|0:0,0:0:0:0:
0,269,92462,5,2,0:0:0:0:
0,269,92639,1,0,0:0:0:0:
73,326,92815,1,8,0:0:0:0:
73,326,92991,1,0,0:0:0:0:
151,274,93168,2,0,P|194:266|233:262,1,60,8|8,0:1|0:0,0:0:0:0:
275,323,93521,1,2,0:0:0:0:
275,323,93697,1,2,0:0:0:0:
344,261,93874,6,0,P|330:217|323:189,1,60,10|0,0:0|0:0,0:0:0:0:
375,143,94227,2,0,P|384:104|393:60,1,60,0|8,0:0|0:0,0:0:0:0:
353,11,94580,1,8,0:1:0:0:
353,11,94756,1,0,0:0:0:0:
272,56,94933,2,0,L|201:33,1,60,8|0,0:0|0:0,0:0:0:0:
140,0,95286,5,0,0:0:0:0:
140,0,95462,2,0,P|108:48|139:117,1,120,0|2,0:0|0:0,0:0:0:0:
154,183,95991,2,0,P|195:170|221:159,1,60,8|8,0:1|0:0,0:0:0:0:
282,110,96344,1,2,0:0:0:0:
282,110,96521,1,10,0:0:0:0:
347,172,96697,6,0,P|416:190|490:197,1,120,10|0,0:0|0:0,0:0:0:0:
512,269,97227,1,8,0:0:0:0:
512,269,97403,2,0,P|503:321|493:348,1,60,8|0,0:1|0:0,0:0:0:0:
438,384,97756,2,0,P|391:374|354:371,1,60,10|2,0:0|0:0,0:0:0:0:
324,304,98109,6,0,P|323:257|336:226,2,60,2|0|8,0:0|0:0|0:0,0:0:0:0:
255,358,98639,1,0,0:0:0:0:
255,358,98815,2,0,P|203:342|175:338,1,60,8|8,0:1|0:0,0:0:0:0:
139,274,99168,1,2,0:0:0:0:
139,274,99344,1,2,0:0:0:0:
63,338,99521,6,0,P|29:311|9:233,1,120,10|2,0:0|0:0,0:0:0:0:
76,188,100050,1,10,0:0:0:0:
76,188,100227,2,0,L|58:107,1,60,8|0,0:1|0:0,0:0:0:0:
0,73,100580,2,0,L|12:-4,1,60,8|0,0:0|0:0,0:0:0:0:
126,59,100933,6,0,L|118:0,2,60,0|0|8,0:0|0:0|0:0,0:0:0:0:
198,123,101462,1,0,0:0:0:0:
255,59,101639,2,0,L|338:74,1,60,8|8,0:1|0:0,0:0:0:0:
397,74,101991,2,0,L|421:67,4,15,2|2|2|2|10,0:0|0:0|0:0|0:0|0:0,0:0:0:0:
362,148,102344,6,0,P|314:166|313:210,1,90,10|0,0:0|0:0,0:0:0:0:
321,232,102697,2,0,P|367:247|401:265,1,60,0|8,0:0|0:0,0:0:0:0:
466,251,103050,1,8,0:1:0:0:
466,251,103227,1,0,0:0:0:0:
473,338,103403,2,0,P|413:355|400:359,1,60,10|2,0:0|0:0,0:0:0:0:
315,328,103756,6,0,P|329:365|339:406,2,60,2|0|8,0:0|0:0|0:0,0:0:0:0:
248,273,104286,1,0,0:0:0:0:
181,326,104462,1,8,0:1:0:0:
181,326,104639,1,8,0:0:0:0:
100,315,104815,2,0,L|92:290,4,15,2|2|2|2|2,0:0|0:0|0:0|0:0|0:0,0:0:0:0:
105,220,105168,6,0,P|115:183|128:144,1,60,10|0,0:0|0:0,0:0:0:0:
201,125,105521,1,0,0:0:0:0:
201,125,105697,1,8,0:0:0:0:
143,44,105874,1,8,0:1:0:0:
143,44,106050,1,0,0:0:0:0:
228,11,106227,2,0,P|274:18|371:34,1,120,8|0,0:0|0:0,0:0:0:0:
484,165,106933,6,0,L|530:149,2,30,10|2|2,0:0|0:0|0:0,0:0:0:0:
434,246,107286,1,8,0:1:0:0:
434,246,107462,1,8,0:0:0:0:
359,183,107639,1,2,0:0:0:0:
303,250,107815,1,10,0:0:0:0:
226,195,107991,6,0,P|167:206|121:220,1,90,10|0,0:0|0:0,0:0:0:0:
105,202,108344,2,0,P|50:216|19:219,1,60,0|8,0:0|0:0,0:0:0:0:
0,291,108697,2,0,P|16:333|22:370,1,60,8|0,0:1|0:0,0:0:0:0:
93,384,109050,2,0,L|128:370,3,30,10|2|2|2,0:0|0:0|0:0|0:0,0:0:0:0:
158,367,109403,6,0,P|170:321|175:282,1,60,2|2,0:0|0:0,0:0:0:0:
255,260,109756,1,10,0:0:0:0:
255,260,109933,1,0,0:0:0:0:
195,181,110109,1,8,0:1:0:0:
195,181,110286,1,8,0:0:0:0:
205,97,110462,2,0,L|209:72,4,15,2|2|2|2|2,0:0|0:0|0:0|0:0|0:0,0:0:0:0:
295,90,110815,6,0,P|347:81|361:77,1,60,10|0,0:0|0:0,0:0:0:0:
436,33,111168,2,0,L|425:-5,2,30,2|2|10,0:0|0:0|0:0,0:0:0:0:
500,108,111521,1,8,0:1:0:0:
500,108,111697,1,0,0:0:0:0:
443,182,111874,2,0,L|467:248,1,60,8|0,0:0|0:0,0:0:0:0:
511,327,112227,6,0,L|446:347,1,60,0|0,0:0|0:0,0:0:0:0:
371,299,112580,1,8,0:0:0:0:
371,299,112756,1,0,0:0:0:0:
315,380,112933,1,8,0:1:0:0:
315,380,113109,1,8,0:0:0:0:
224,375,113286,2,0,L|220:356,4,15,2|2|2|2|10,0:0|0:0|0:0|0:0|0:0,0:0:0:0:
212,281,113639,6,0,L|238:173,1,90,10|0,0:0|0:0,0:0:0:0:
242,166,113991,2,0,P|236:129|214:112,1,60,0|8,0:0|0:0,0:0:0:0:
200,34,114344,2,0,P|166:48|120:60,1,60,8|0,0:1|0:0,0:0:0:0:
67,20,114697,2,0,L|30:30,3,30,10|2|2|2,0:0|0:0|0:0|0:0,0:0:0:0:
5,59,115050,6,0,P|8:110|9:134,2,60,2|2|10,0:0|0:0|0:0,0:0:0:0:
97,113,115580,1,0,0:0:0:0:
97,113,115756,2,0,L|109:183,1,60,8|8,0:1|0:0,0:0:0:0:
184,211,116109,2,0,L|175:238,4,15,2|2|2|2|2,0:0|0:0|0:0|0:0|0:0,0:0:0:0:
124,286,116462,6,0,L|139:346,1,60,10|0,0:0|0:0,0:0:0:0:
233,384,116815,1,0,0:0:0:0:
233,384,116991,1,8,0:0:0:0:
316,330,117168,1,8,0:1:0:0:
273,82,117521,6,0,P|280:130|350:135,1,120,0|0,0:0|0:0,0:0:0:0:
481,8,118227,2,0,L|510:4,2,30,2|2|2,0:0|0:0|0:0,0:0:0:0:
422,84,118580,2,0,P|463:96|492:115,2,60,8|8|2,0:1|0:0|0:0,0:0:0:0:
336,24,119109,1,10,0:0:0:0:
336,24,119286,6,0,P|255:33|228:36,1,90,10|0,0:0|0:0,0:0:0:0:
213,51,119639,2,0,L|150:33,1,60,0|8,0:0|0:0,0:0:0:0:
59,7,119991,2,0,P|36:50|63:93,1,90,8|0,0:1|0:0,0:0:0:0:
76,87,120344,2,0,P|94:117|95:155,1,60,10|2,0:0|0:0,0:0:0:0:
63,224,120697,6,0,P|15:235|-11:249,2,60,2|2|10,0:0|0:0|0:0,0:0:0:0:
139,287,121227,1,0,0:0:0:0:
139,287,121403,2,0,P|183:275|217:270,1,60,8|8,0:1|0:0,0:0:0:0:
268,315,121756,2,0,L|295:310,4,15,2|2|2|2|10,0:0|0:0|0:0|0:0|0:0,0:0:0:0:
352,267,122109,6,0,P|385:284|420:297,1,60,10|0,0:0|0:0,0:0:0:0:
457,353,122462,2,0,L|466:388,2,30,2|2|10,0:0|0:0|0:0,0:0:0:0:
500,281,122815,2,0,P|507:226|509:207,1,60,8|0,0:1|0:0,0:0:0:0:
472,144,123168,2,0,L|399:160,1,60,8|0,0:0|0:0,0:0:0:0:
332,197,123521,5,0,0:0:0:0:
332,197,123697,1,0,0:0:0:0:
273,123,123874,1,8,0:0:0:0:
273,123,124050,1,0,0:0:0:0:
197,164,124227,2,0,L|206:237,1,60,8|8,0:1|0:0,0:0:0:0:
213,306,124580,2,2,L|201:326,4,15,2|2|2|2|10,0:0|0:0|0:0|0:0|0:0,0:0:0:0:
157,384,124933,5,2,0:0:0:0:
