osu file format v14

[General]
AudioFilename: audio.mp3
AudioLeadIn: 0
PreviewTime: -1
Countdown: 1
SampleSet: Normal
StackLeniency: 0.7
Mode: 0
LetterboxInBreaks: 0
WidescreenStoryboard: 0

[Editor]
DistanceSpacing: 1.2
BeatDivisor: 4
GridSize: 4
TimelineZoom: 2.4

[Metadata]
Title:RELOADED
TitleUnicode:RELOADED
Artist:EGOIST/Genocidal Organ
ArtistUnicode:EGOIST/Genocidal Organ
Creator:My Not
Version:NotPossible
Source:
Tags:
BeatmapID:933206
BeatmapSetID:432811

[Difficulty]
HPDrainRate:7
CircleSize:4
OverallDifficulty:8
ApproachRate:9.8
SliderMultiplier:1.6
SliderTickRate:1

[Events]
//Background and Video events
0,0,"guilty-crown-wallpaper-desktop-background-50qrqq.jpg",0,0
//Break Periods
//Storyboard Layer 0 (Background)
//Storyboard Layer 1 (Fail)
//Storyboard Layer 2 (Pass)
//Storyboard Layer 3 (Foreground)
//Storyboard Sound Samples

[TimingPoints]
25599,346.820809248555,4,1,0,30,1,0
36725,-50,4,1,0,30,0,0
60281,-100,4,1,0,30,0,0
63055,-50,4,1,0,30,0,0
70512,-100,4,1,0,30,0,0

[HitObjects]
112,88,25599,6,0,P|88:184|112:248,1,160
204,296,26292,1,0,0:0:0:0:
232,188,26639,2,0,L|244:104,1,80
288,36,26986,2,0,L|376:40,1,80
328,120,27333,2,0,B|292:164|272:196|268:228|304:260,1,160
396,280,27853,1,0,0:0:0:0:
464,224,28026,1,0,0:0:0:0:
256,80,28373,5,0,0:0:0:0:
160,136,28720,2,0,P|188:196|276:176,1,160
364,244,29414,2,0,P|296:272|328:348,1,160
244,348,29934,1,0,0:0:0:0:
184,308,30107,1,0,0:0:0:0:
112,304,30281,1,0,0:0:0:0:
80,240,30454,1,0,0:0:0:0:
128,188,30627,1,0,0:0:0:0:
72,140,30801,1,0,0:0:0:0:
344,120,31148,5,0,0:0:0:0:
152,56,31494,1,0,0:0:0:0:
340,304,31841,1,0,0:0:0:0:
52,344,32188,1,0,0:0:0:0:
256,76,32535,5,0,0:0:0:0:
360,316,32882,1,0,0:0:0:0:
84,164,33229,1,0,0:0:0:0:
400,152,33575,1,0,0:0:0:0:
280,232,33922,5,0,0:0:0:0:
128,160,34096,1,0,0:0:0:0:
140,292,34269,1,0,0:0:0:0:
256,124,34442,1,0,0:0:0:0:
296,112,34529,1,0,0:0:0:0:
336,112,34616,1,0,0:0:0:0:
396,284,34789,1,0,0:0:0:0:
220,224,34963,1,0,0:0:0:0:
44,168,35136,1,0,0:0:0:0:
256,192,35309,12,0,36523,0:0:0:0:
96,104,36697,6,0,B|64:136|52:168|56:220|104:260,1,160
228,164,37217,1,0,0:0:0:0:
388,148,37390,1,0,0:0:0:0:
356,220,37564,2,0,L|192:320,1,160
256,40,38084,5,0,0:0:0:0:
100,64,38257,2,0,B|180:72|76:144|160:144|88:176|224:144,1,160
44,236,38604,1,0,0:0:0:0:
204,252,38778,1,0,0:0:0:0:
460,284,39125,5,0,0:0:0:0:
336,280,39298,1,0,0:0:0:0:
460,148,39471,1,0,0:0:0:0:
228,276,39645,2,0,L|144:312,1,80
292,224,39818,2,0,L|372:280,1,80
240,164,39992,2,0,P|156:212|156:212,1,80
312,128,40165,2,0,L|408:192,1,80
248,80,40338,1,0,0:0:0:0:
88,96,40512,5,0,0:0:0:0:
124,252,40685,1,0,0:0:0:0:
136,276,40772,1,0,0:0:0:0:
152,300,40859,1,0,0:0:0:0:
232,164,41032,2,0,B|312:152|384:208|384:208,1,160
400,328,41379,1,0,0:0:0:0:
368,324,41466,1,0,0:0:0:0:
340,320,41552,1,0,0:0:0:0:
256,184,41726,1,0,0:0:0:0:
96,200,41899,2,0,B|72:168|60:116|76:76|116:48|160:36|208:48|228:80|228:80|228:80,1,240
216,92,42246,6,0,P|172:176|232:220,1,160
360,160,42593,1,0,0:0:0:0:
428,304,42766,1,0,0:0:0:0:
272,340,42940,1,0,0:0:0:0:
140,248,43113,6,0,L|64:100,1,160
228,100,43460,1,0,0:0:0:0:
356,196,43633,2,0,L|432:56,1,160
396,40,43893,2,0,L|384:20,1,20
384,52,43980,2,0,L|368:72,1,20
356,40,44067,2,0,L|352:20,1,20
356,48,44153,2,0,L|340:64,1,20
316,63,44240,2,0,L|304:32,1,20
300,68,44327,2,0,L|292:96,1,20
268,64,44414,2,0,L|260:44,1,20
248,72,44500,2,0,L|232:84,1,20
92,64,44674,5,0,0:0:0:0:
116,96,44760,1,0,0:0:0:0:
88,132,44847,1,0,0:0:0:0:
68,168,44934,1,0,0:0:0:0:
68,204,45020,1,0,0:0:0:0:
152,316,45252,1,0,0:0:0:0:
316,232,45483,1,0,0:0:0:0:
232,36,45714,5,0,0:0:0:0:
100,204,45945,1,0,0:0:0:0:
308,148,46177,1,0,0:0:0:0:
200,48,46581,5,0,0:0:0:0:
260,196,46755,1,0,0:0:0:0:
332,340,46928,1,0,0:0:0:0:
256,192,47101,12,0,47622,0:0:0:0:
424,144,47795,6,0,B|176:364|176:364,1,320
60,128,48489,2,0,L|288:364,1,320
256,40,49182,2,0,L|256:368,1,320
472,304,49876,2,0,L|148:304,1,320
40,128,50570,6,0,L|368:128,1,320
92,304,51263,2,0,L|384:112,1,320
44,188,51957,2,0,L|364:128,1,320
140,364,52651,2,0,L|360:124,1,320
380,40,53344,6,0,B|132:256|136:256,1,320
128,40,54038,2,0,L|364:256,1,320
184,336,54731,2,0,B|88:316|48:212|104:128|208:104,1,320
328,336,55425,2,0,B|424:316|464:212|408:128|304:104,1,320
256,192,56119,12,0,57159,0:0:0:0:
256,192,57506,12,0,58546,0:0:0:0:
88,56,58893,6,0,L|272:144,1,160
176,208,59240,2,0,L|32:316,1,160
216,316,59587,2,0,L|384:264,1,160
456,132,59934,2,0,L|276:68,1,160
256,276,60281,6,0,L|256:184,1,80
116,204,60627,2,0,L|116:108,1,80
256,120,60974,2,0,L|256:24,1,80
396,204,61321,2,0,L|396:108,1,80
168,264,61668,6,0,L|88:320,1,80
344,120,62015,2,0,L|424:64,1,80
344,264,62362,2,0,L|424:320,1,80
168,120,62708,2,0,L|88:64,1,80
336,348,63055,6,0,L|152:348,1,160
176,36,63402,2,0,L|360:36,1,160
100,272,63749,2,0,L|100:88,1,160
412,112,64096,2,0,L|412:296,1,160
256,192,64442,12,0,66870,0:0:0:0:
256,192,67217,12,0,68257,0:0:0:0:
148,92,68604,6,0,L|188:112,1,40
304,100,68778,2,0,L|300:144,1,40
216,228,68951,2,0,L|260:256,1,40
368,268,69125,2,0,L|348:316,1,40
56,292,69298,5,0,0:0:0:0:
416,108,69529,1,0,0:0:0:0:
132,40,69760,1,0,0:0:0:0:
316,300,69992,5,0,0:0:0:0:
220,296,70078,1,0,0:0:0:0:
132,256,70165,1,0,0:0:0:0:
88,172,70252,1,0,0:0:0:0:
112,80,70338,1,0,0:0:0:0:
300,124,70512,2,0,L|232:180,1,80
400,68,70859,5,0,0:0:0:0:
400,68,70945,1,0,0:0:0:0:
400,68,71032,1,0,0:0:0:0:
368,236,71205,6,0,L|288:256,1,80
240,256,71466,1,0,0:0:0:0:
192,252,71552,1,0,0:0:0:0:
