osu file format v14

[General]
AudioFilename: audio.mp3
AudioLeadIn: 0
PreviewTime: -1
Countdown: 1
SampleSet: Soft
StackLeniency: 0.2
Mode: 0
LetterboxInBreaks: 0
WidescreenStoryboard: 0

[Editor]
Bookmarks: 7712,13312,13712,20512,26912,39712
DistanceSpacing: 2.6
BeatDivisor: 4
GridSize: 32
TimelineZoom: 1.9

[Metadata]
Title:Welcome to the *fam
TitleUnicode:Welcome to the *fam
Artist:EGOIST
ArtistUnicode:EGOIST
Creator:SENSEABEL
Version:Special
Source:
Tags:
BeatmapID:1801636
BeatmapSetID:861147

[Difficulty]
HPDrainRate:4
CircleSize:4
OverallDifficulty:8
ApproachRate:9.4
SliderMultiplier:3.59999990463257
SliderTickRate:1

[Events]
//Background and Video events
0,0,"backgroundego.jpg",0,0
//Break Periods
2,52712,58358
//Storyboard Layer 0 (Background)
//Storyboard Layer 1 (Fail)
//Storyboard Layer 2 (Pass)
//Storyboard Layer 3 (Foreground)
//Storyboard Sound Samples

[TimingPoints]
1312,400,4,2,0,40,1,0
1312,-81.3008130081301,4,2,0,40,0,0
2712,-232.558139534884,4,2,0,40,0,0
2912,-81.3008130081301,4,2,0,40,0,0
4512,-81.3008130081301,4,2,0,40,0,0
5912,-232.558139534884,4,2,0,40,0,0
6112,-81.3008130081301,4,2,0,40,0,0
7112,-158.730158730159,4,2,0,40,0,0
7312,-81.3008130081301,4,2,0,40,0,0
7712,-81.3008130081301,4,2,0,40,0,0
12512,-107.52688172043,4,2,0,40,0,0
12712,-158.730158730159,4,2,0,40,0,0
12912,-434.782608695652,4,2,0,40,0,0
13312,-97.0873786407767,4,2,0,40,0,0
14612,-61.3496932515337,4,2,0,40,0,0
15112,-97.0873786407767,4,2,0,40,0,0
16212,-61.3496932515337,4,2,0,40,0,0
17312,-97.0873786407767,4,2,0,40,0,0
17812,-61.3496932515337,4,2,0,40,0,0
18312,-97.0873786407767,4,2,0,40,0,0
19712,-120.481927710843,4,2,0,40,0,0
20512,-232.558139534882,4,2,0,40,0,0
21012,-61.3496932515336,4,2,0,40,0,0
22112,-232.558139534884,4,2,0,40,0,0
22612,-61.3496932515337,4,2,0,40,0,0
23712,-232.558139534884,4,2,0,40,0,0
24212,-61.3496932515337,4,2,0,40,0,0
24912,-97.0873786407767,4,2,0,40,0,0
25112,-49.2610837438424,4,2,0,40,0,0
25312,-97.0873786407767,4,2,0,40,0,0
26162,-434.782608695652,4,2,0,40,0,0
26512,-61.3496932515337,4,2,0,40,0,0
26912,-232.558139534884,4,2,0,40,0,0
39712,-303.030303030303,4,2,0,40,0,0
40212,-434.782608695652,4,2,0,40,0,0
40712,-158.730158730159,4,2,0,40,0,0
40912,-107.52688172043,4,2,0,40,0,0
41112,-81.3008130081301,4,2,0,40,0,0
41312,-81.3008130081301,4,2,0,40,0,0
44312,-158.730158730159,4,2,0,40,0,0
44512,-81.3008130081301,4,2,0,40,0,0
47512,-41.1522633744856,4,2,0,40,0,0
47712,-81.3008130081301,4,2,0,40,0,0
49312,-158.730158730159,4,2,0,40,0,0
60512,-107.52688172043,4,2,0,40,0,0
63312,-434.78260869565,4,2,0,40,0,0
63712,-81.30081300813,4,2,0,40,0,0
64112,-158.730158730159,4,2,0,40,0,0
64312,-81.3008130081301,4,2,0,40,0,0
64912,-158.730158730159,4,2,0,40,0,0
65312,-107.52688172043,4,2,0,40,0,0
65712,-81.3008130081301,4,2,0,40,0,0
66512,-188.679245283019,4,2,0,40,0,0
67112,-107.52688172043,4,2,0,40,0,0
67312,-81.3008130081301,4,2,0,40,0,0
67712,-107.52688172043,4,2,0,40,0,0
67912,-158.730158730159,4,2,0,40,0,0
68512,-107.52688172043,4,2,0,40,0,0
68912,-107.52688172043,4,2,0,40,0,0
69312,-158.730158730159,4,2,0,40,0,0
69912,-303.030303030304,4,2,0,40,0,0
70312,-107.52688172043,4,2,0,40,0,0
70512,-81.3008130081301,4,2,0,40,0,0
70712,-158.730158730159,4,2,0,40,0,0
70912,-81.3008130081301,4,2,0,40,0,0
71912,-107.52688172043,4,2,0,40,0,0
72312,-81.3008130081301,4,2,0,40,0,0
72512,-158.730158730159,4,2,0,40,0,0
72912,-81.3008130081301,4,2,0,40,0,0
73312,-158.730158730159,4,2,0,40,0,0
73912,-107.52688172043,4,2,0,40,0,0
74112,-81.3008130081301,4,2,0,40,0,0
74912,-158.730158730159,4,2,0,40,0,0
80912,-303.030303030304,4,2,0,40,0,0
81312,-81.3008130081301,4,2,0,40,0,0
81712,-303.030303030303,4,2,0,40,0,0
82112,-81.3008130081301,4,2,0,40,0,0
82512,-303.030303030303,4,2,0,40,0,0
82912,-81.3008130081301,4,2,0,40,0,0
83312,-303.030303030303,4,2,0,40,0,0
83312,-303.030303030303,4,2,0,40,0,0

[Colours]
Combo1 : 230,230,230
Combo2 : 255,128,192
Combo3 : 108,182,255
Combo4 : 202,149,255

[HitObjects]
62,171,1312,6,0,P|178:182|216:272,1,221.399997513199
244,341,1612,2,0,P|256:215|333:164,1,221.399997513199
404,149,1912,1,0,0:0:0:0:
404,149,2112,6,0,P|288:160|250:250,1,221.399997513199
222,319,2412,2,0,P|210:193|133:142,1,221.399997513199
64,128,2712,6,0,L|-6:119,1,58.0499993479729
34,92,2912,6,0,P|96:96|160:266,1,221.399997513199
176,297,3212,6,0,L|170:364,1,55.3499993782997
204,302,3312,6,0,P|260:248|335:256,1,110.699998756599
379,384,3512,2,0,P|345:341|293:325,1,110.699998756599
289,243,3712,6,0,B|424:227|349:322|560:288,1,221.399997513199
434,339,4012,2,0,P|442:212|429:106,1,221.399997513199
408,44,4312,1,0,0:0:0:0:
408,44,4512,6,0,P|333:133|370:224,1,221.399997513199
399,292,4812,2,0,P|301:211|210:229,1,221.399997513199
150,270,5112,1,0,0:0:0:0:
150,270,5312,6,0,P|239:195|330:232,1,221.399997513199
399,261,5612,2,0,P|318:163|336:72,1,221.399997513199
399,36,5912,6,0,L|469:27,1,58.0499993479729
420,13,6112,6,0,P|358:16|294:187,1,221.399997513199
289,218,6412,6,0,L|295:285,1,55.3499993782997
297,311,6512,6,0,P|241:257|166:265,1,110.699998756599
125,384,6712,2,0,P|159:341|211:325,1,110.699998756599
211,252,6912,6,0,B|115:232|130:322|11:293,1,166.049998134899
17,299,7112,6,0,B|30:331|30:331|30:376,1,56.6999967676164
0,223,7312,6,0,P|155:224|239:400,1,332.099996269798
263,288,7712,5,0,0:0:0:0:
292,190,8012,5,0,0:0:0:0:
292,190,8112,1,0,0:0:0:0:
249,97,8312,5,0,0:0:0:0:
300,362,8512,1,0,0:0:0:0:
263,288,8712,5,0,0:0:0:0:
292,190,8812,1,0,0:0:0:0:
292,190,8912,2,0,B|377:196|467:276|334:326|371:132,1,221.399997513199
390,112,9312,5,0,0:0:0:0:
361,210,9612,5,0,0:0:0:0:
361,210,9712,1,0,0:0:0:0:
404,303,9912,5,0,0:0:0:0:
353,38,10112,1,0,0:0:0:0:
361,210,10312,5,0,0:0:0:0:
390,112,10412,1,0,0:0:0:0:
390,112,10512,2,0,B|325:168|205:174|264:45|375:208,1,221.399997513199
404,303,10912,5,0,0:0:0:0:
333,228,11212,5,0,0:0:0:0:
333,228,11312,1,0,0:0:0:0:
231,219,11512,5,0,0:0:0:0:
486,307,11712,1,0,0:0:0:0:
333,228,11912,5,0,0:0:0:0:
404,303,12012,1,0,0:0:0:0:
404,303,12112,2,0,B|387:218|441:111|524:227|327:241,1,221.399997513199
433,110,12512,6,0,P|430:68|418:28,1,83.7000004008866
347,101,12712,6,0,P|335:141|332:182,1,56.6999967676164
280,252,12912,6,0,P|274:224|264:185,1,62.0999962702562
193,40,13312,5,0,0:0:0:0:
266,50,13412,1,0,0:0:0:0:
319,101,13512,1,0,0:0:0:0:
328,174,13612,1,0,0:0:0:0:
191,248,13712,5,0,0:0:0:0:
211,104,13912,1,0,0:0:0:0:
297,218,14112,2,0,B|234:196|157:289|157:289|164:262|164:262|84:364|-23:315,1,370.799987065277
0,182,14612,6,0,B|-25:165|-68:100|-16:-1|107:62|131:165|59:338,1,440.099988005562
59,337,15112,5,0,0:0:0:0:
118,295,15312,1,0,0:0:0:0:
144,210,15512,1,0,0:0:0:0:
90,105,15712,2,0,P|248:136|311:375,1,370.799987065277
327,314,16212,6,0,B|288:131|331:34|465:-5|496:105|442:160|414:172,1,440.099988005562
414,172,16712,5,0,0:0:0:0:
371,113,16912,1,0,0:0:0:0:
285,86,17112,1,0,0:0:0:0:
191,109,17312,2,0,B|109:132|98:233|98:233|86:366|-49:384,1,370.799987065277
5,328,17812,6,0,B|197:342|197:342|206:352|206:352|501:375,1,440.099988005562
383,146,18312,5,0,0:0:0:0:
353,212,18512,1,0,0:0:0:0:
373,299,18712,1,0,0:0:0:0:
439,370,18912,2,0,B|437:339|465:313|465:313|404:290|318:345|318:345|227:396|154:301,1,370.799987065277
92,158,19512,6,0,B|185:157|140:202|256:201,1,139.049995149479
240,196,19712,5,0,0:0:0:0:
314,190,19812,1,0,0:0:0:0:
366,242,19912,1,0,0:0:0:0:
362,316,20012,1,0,0:0:0:0:
197,353,20112,5,0,0:0:0:0:
240,196,20312,1,0,0:0:0:0:
362,316,20512,2,0,P|357:244|400:150,1,154.799998261261
398,240,21012,6,0,B|318:277|269:254|166:120|256:69|335:41|340:239|131:332,1,440.099988005562
270,330,21512,5,0,0:0:0:0:
270,330,21612,1,0,0:0:0:0:
280,258,21712,1,0,0:0:0:0:
237,180,21912,1,0,0:0:0:0:
156,127,22112,2,0,P|104:71|89:-14,1,154.799998261261
56,62,22612,6,0,B|202:239|88:303|-31:178|73:168|131:87|109:-51,1,440.099988005562
112,0,23112,5,0,0:0:0:0:
112,0,23212,1,0,0:0:0:0:
169,44,23312,1,0,0:0:0:0:
258,46,23512,1,0,0:0:0:0:
344,2,23712,2,0,P|418:-15|499:14,1,154.799998261261
491,8,24212,6,0,B|526:-10|526:-10|480:53|483:136|483:136|368:97|404:201|211:126,1,440.099988005562
244,138,24712,5,0,0:0:0:0:
244,138,24812,1,0,0:0:0:0:
192,190,24912,2,0,P|205:243|184:318,1,92.6999967663193
322,364,25112,6,0,P|343:219|410:109,1,274.049982913228
408,111,25312,5,0,0:0:0:0:
328,158,25712,1,0,0:0:0:0:
392,194,25962,1,0,0:0:0:0:
362,219,26162,2,0,P|363:258|367:283,1,62.0999962702562
347,257,26512,6,0,P|266:142|254:348,1,513.449986006489
270,338,26912,5,0,0:0:0:0:
208,384,27212,5,0,0:0:0:0:
222,187,27512,1,0,0:0:0:0:
287,233,27812,5,0,0:0:0:0:
283,35,27912,1,0,0:0:0:0:
222,187,28112,6,0,P|231:224|235:263,1,77.3999991306305
208,384,28512,5,0,0:0:0:0:
283,35,28812,5,0,0:0:0:0:
287,233,29112,1,0,0:0:0:0:
222,187,29412,5,0,0:0:0:0:
208,384,29512,1,0,0:0:0:0:
287,233,29712,6,0,P|277:195|273:156,1,77.3999991306305
283,35,30112,5,0,0:0:0:0:
208,384,30412,5,0,0:0:0:0:
222,187,30712,1,0,0:0:0:0:
287,233,31012,5,0,0:0:0:0:
283,35,31112,1,0,0:0:0:0:
217,266,31312,6,0,P|221:304|230:342,1,77.3999991306305
54,228,31712,5,0,0:0:0:0:
110,178,32012,1,0,0:0:0:0:
184,190,32312,1,0,0:0:0:0:
39,155,32612,5,0,0:0:0:0:
222,255,32712,1,0,0:0:0:0:
165,120,32912,6,0,P|169:81|178:43,1,77.3999991306305
404,348,33312,5,0,0:0:0:0:
348,298,33612,1,0,0:0:0:0:
274,310,33912,1,0,0:0:0:0:
419,275,34212,5,0,0:0:0:0:
236,375,34312,1,0,0:0:0:0:
293,240,34512,6,0,P|289:201|280:163,1,77.3999991306305
274,310,34912,5,0,0:0:0:0:
330,260,35212,1,0,0:0:0:0:
404,272,35512,1,0,0:0:0:0:
259,237,35812,5,0,0:0:0:0:
442,337,35912,1,0,0:0:0:0:
385,202,36112,6,0,P|389:163|398:125,1,77.3999991306305
274,310,36512,5,0,0:0:0:0:
218,260,36812,1,0,0:0:0:0:
144,272,37112,1,0,0:0:0:0:
289,237,37412,5,0,0:0:0:0:
106,337,37512,1,0,0:0:0:0:
163,202,37712,6,0,P|159:163|150:125,1,77.3999991306305
81,159,38112,5,0,0:0:0:0:
150,125,38412,1,0,0:0:0:0:
217,173,38612,1,0,0:0:0:0:
217,173,38712,1,0,0:0:0:0:
377,125,39012,5,0,0:0:0:0:
377,125,39112,1,0,0:0:0:0:
258,352,39312,6,0,P|265:312|261:284,1,38.6999995653153,0|0,0:3|0:3,0:3:0:0:
255,238,39512,2,0,P|245:221|232:207,1,38.6999995653153,0|0,0:3|0:3,0:3:0:0:
332,255,39712,6,0,P|324:215|330:180,1,59.399998245163,0|0,0:3|0:3,0:3:0:0:
331,175,40012,1,0,0:0:0:0:
369,105,40112,1,0,0:0:0:0:
369,105,40212,6,0,P|392:73|424:53,1,62.0999962702562,0|0,0:3|0:3,0:3:0:0:
424,290,40612,5,0,0:0:0:0:
424,290,40712,2,0,B|413:323|413:323|416:352,1,56.6999967676164
332,255,40912,6,0,B|320:216|320:216|282:178,1,83.7000004008866
188,125,41112,1,0,0:0:0:0:
188,125,41212,1,0,0:0:0:0:
343,28,41312,6,0,P|227:39|189:129,1,221.399997513199
161,198,41612,2,0,P|149:72|72:21,1,221.399997513199
1,6,41912,1,0,0:0:0:0:
0,249,42112,5,0,0:0:0:0:
77,177,42212,1,0,0:0:0:0:
178,209,42312,1,0,0:0:0:0:
84,359,42412,6,0,B|75:304|75:304|130:184,1,110.699998756599
0,129,42712,1,0,0:0:0:0:
267,173,42912,6,0,B|276:228|276:228|221:348,1,110.699998756599
365,109,43112,1,0,0:0:0:0:
365,109,43212,2,0,B|420:118|420:118|540:63,1,110.699998756599
263,72,43412,1,0,0:0:0:0:
263,72,43512,2,0,B|163:78|163:78|146:92|146:92|-1:101,1,221.399997513199
267,173,43812,5,0,0:0:0:0:
195,250,43912,1,0,0:0:0:0:
227,351,44012,1,0,0:0:0:0:
402,324,44112,6,0,P|364:282|303:267,1,110.699998756599
124,303,44312,6,0,P|101:311|63:310,1,56.6999967676164
109,96,44512,6,0,P|178:140|196:174,1,110.699998756599
227,351,44712,1,0,0:0:0:0:
230,334,44812,2,0,P|219:280|235:226,1,110.699998756599
277,16,45012,5,0,0:0:0:0:
170,10,45112,1,0,0:0:0:0:
109,96,45212,1,0,0:0:0:0:
245,95,45312,6,0,P|199:56|117:28,1,110.699998756599
68,305,45512,1,0,0:0:0:0:
68,305,45612,2,0,P|105:265|153:237,1,110.699998756599
8,185,45812,1,0,0:0:0:0:
8,185,45912,2,0,L|-3:46,1,110.699998756599
115,160,46112,6,0,P|196:175|245:319,1,221.399997513199
150,322,46412,5,0,0:0:0:0:
225,248,46512,1,0,0:0:0:0:
324,281,46612,1,0,0:0:0:0:
203,166,46712,6,0,P|204:133|232:59,1,110.699998756599
293,271,46912,5,0,0:0:0:0:
394,303,47012,1,0,0:0:0:0:
471,231,47112,1,0,0:0:0:0:
323,279,47212,6,0,B|346:329|346:329|337:384,1,110.699998756599
434,159,47412,1,0,0:0:0:0:
434,159,47512,6,0,B|395:80|412:11|487:7|513:78|298:113,1,218.699992788162
270,29,47712,6,0,B|233:-7|233:-7|268:213,1,221.399997513199
65,300,48012,5,0,0:0:0:0:
65,300,48112,2,0,B|33:254|33:254|39:170,1,110.699998756599
155,95,48312,2,0,B|196:130|196:130|206:185,1,110.699998756599
189,294,48512,5,0,0:0:0:0:
290,326,48612,1,0,0:0:0:0:
367,254,48712,1,0,0:0:0:0:
279,142,48812,6,0,B|288:197|288:197|233:317,1,110.699998756599
384,339,49012,1,0,0:0:0:0:
384,339,49112,2,0,B|361:289|361:289|370:234,1,110.699998756599
346,11,49312,6,0,B|365:31|365:31|379:116,2,75.5999956901552
207,43,49712,5,0,0:0:0:0:
300,90,49845,1,0,0:0:0:0:
217,129,49978,1,0,0:0:0:0:
283,170,50112,2,0,P|320:168|366:170,1,75.5999956901552
229,229,50378,1,0,0:0:0:0:
277,262,50512,1,0,0:0:0:0:
245,283,50645,1,0,0:0:0:0:
245,283,50712,6,0,P|259:318|256:341,1,56.6999967676164
233,368,50912,5,0,0:0:0:0:
172,325,51012,1,0,0:0:0:0:
98,320,51112,1,0,0:0:0:0:
33,356,51212,1,0,0:0:0:0:
73,290,51312,2,0,P|81:248|79:204,1,56.6999967676164
53,165,51512,1,0,0:0:0:0:
44,150,51712,5,0,0:0:0:0:
107,230,51812,1,0,0:0:0:0:
88,330,51912,1,0,0:0:0:0:
121,94,52112,6,0,P|158:22|195:-12,2,113.399993535233
83,288,58912,5,0,0:0:0:0:
101,323,59312,5,0,0:0:0:0:
64,358,59712,5,0,0:0:0:0:
33,258,60112,5,0,0:0:0:0:
75,163,60512,5,0,0:0:0:0:
141,252,60712,1,0,0:0:0:0:
64,358,60912,5,0,0:0:0:0:
149,165,61112,1,0,0:0:0:0:
179,384,61312,5,0,0:0:0:0:
60,103,61512,1,0,0:0:0:0:
354,124,61712,6,0,L|290:133,7,41.8500002004433
238,142,62112,1,0,0:0:0:0:
336,199,62412,5,0,0:0:0:0:
256,246,62712,1,2,0:0:0:0:
320,282,63062,1,0,0:0:0:0:
290,307,63212,1,0,0:0:0:0:
290,307,63312,2,0,P|291:346|295:371,1,62.0999962702562
398,295,63712,5,0,0:0:0:0:
429,194,63812,1,0,0:0:0:0:
357,116,63912,5,0,0:0:0:0:
201,166,64012,5,0,0:0:0:0:
320,282,64112,6,0,P|320:230|296:187,1,85.0499951514246
287,173,64312,6,0,P|271:133|273:56,1,110.699998756599
482,227,64512,2,0,P|446:268|397:294,1,110.699998756599
228,314,64712,2,0,P|181:284|127:274,1,110.699998756599
223,99,64912,6,0,P|218:63|207:26,1,56.6999967676164
201,166,65112,2,0,P|206:202|217:239,1,56.6999967676164
45,19,65312,6,0,P|159:49|178:220,1,251.10000120266
0,216,65712,5,0,0:0:0:0:
0,216,65812,1,0,0:0:0:0:
200,165,65912,6,0,B|178:245|178:245|161:209,1,110.699998756599
361,100,66112,6,0,B|472:90|434:-64|312:7|365:154|425:264,1,332.099996269798
334,320,66512,6,0,B|306:369|318:405|377:397|362:305|324:234|242:209,1,262.349993450413
221,227,67112,6,0,B|206:271|206:271|223:347,1,83.7000004008866
419,360,67312,5,0,0:0:0:0:
419,360,67412,1,0,0:0:0:0:
439,133,67512,6,0,B|412:87|412:87|363:56,1,110.699998756599
290,281,67712,6,0,B|305:241|305:241|361:206,1,83.7000004008866
155,95,67912,6,0,P|164:121|168:149,1,56.6999967676164
242,175,68112,2,0,P|237:203|228:229,1,56.6999967676164
290,281,68312,1,0,0:0:0:0:
177,326,68512,6,0,B|252:329|289:280|289:280|293:345|404:409,1,251.10000120266
210,237,68912,6,0,B|197:195|197:195|220:92,1,83.7000004008866
241,93,69112,1,0,0:0:0:0:
371,274,69312,6,0,B|387:332|387:332|372:382,1,113.399993535233
439,201,69612,1,0,0:0:0:0:
439,201,69712,1,0,0:0:0:0:
134,202,69912,6,0,B|166:166|166:166|226:150,1,89.0999973677445
221,272,70312,6,0,L|205:370,1,83.7000004008866
179,34,70512,5,0,0:0:0:0:
179,34,70612,1,0,0:0:0:0:
408,95,70712,6,0,P|366:99|299:94,1,56.6999967676164
332,90,70912,6,0,P|387:87|443:84,1,110.699998756599
257,12,71112,1,0,0:0:0:0:
257,12,71212,2,0,B|115:19|210:87|17:95,1,221.399997513199
107,328,71512,6,0,P|119:274|126:209,1,110.699998756599
225,94,71712,2,0,P|231:148|243:202,1,110.699998756599
71,52,71912,6,0,P|113:47|173:32,1,83.7000004008866
319,135,72112,2,0,P|359:144|401:149,1,83.7000004008866
450,333,72312,5,0,0:0:0:0:
372,262,72412,1,0,0:0:0:0:
266,281,72512,2,0,B|195:292|195:292|161:319|161:319|53:335,1,170.099990302849
319,135,72912,6,0,B|363:84|363:84|360:122|330:363,1,332.099996269798
375,228,73312,6,0,P|421:196|491:164,1,113.399993535233,0|0,0:3|0:3,0:3:0:0:
331,347,73612,2,0,P|284:315|214:283,1,113.399993535233,0|0,0:3|0:3,0:3:0:0:
74,169,73912,6,0,L|171:158,1,83.7000004008866
399,111,74112,6,0,B|290:123|290:123|243:79|243:79|204:129|204:129|110:141,1,332.099996269798
233,290,74512,6,0,B|250:279|250:279|262:285|262:285|280:269|280:269|310:279|393:241|389:149|183:176|388:326|294:408,1,332.099996269798
158,242,74912,6,0,P|134:173|99:132,1,113.399993535233
362,144,75312,2,0,P|385:75|420:34,1,113.399993535233
177,87,75712,2,0,P|112:54|58:50,1,113.399993535233
343,230,76112,2,0,P|407:197|461:193,1,113.399993535233
227,148,76512,5,0,0:0:0:0:
311,333,76712,1,0,0:0:0:0:
322,81,76912,5,0,0:0:0:0:
219,303,77112,1,0,0:0:0:0:
101,68,77312,5,0,0:0:0:0:
343,230,77512,1,0,0:0:0:0:
43,293,77712,5,0,0:0:0:0:
304,164,77912,1,0,0:0:0:0:
53,24,78112,5,0,0:0:0:0:
92,24,78212,1,0,0:0:0:0:
127,41,78312,1,0,0:0:0:0:
148,74,78412,1,0,0:0:0:0:
130,145,78512,5,0,0:0:0:0:
156,128,78612,1,0,0:0:0:0:
188,129,78712,1,0,0:0:0:0:
216,145,78812,1,0,0:0:0:0:
271,200,78912,5,0,0:0:0:0:
292,212,79012,1,0,0:0:0:0:
318,213,79112,1,0,0:0:0:0:
339,200,79212,1,0,0:0:0:0:
401,154,79312,5,0,0:0:0:0:
397,170,79412,1,0,0:0:0:0:
392,186,79512,1,0,0:0:0:0:
388,202,79612,1,0,0:0:0:0:
311,120,79712,5,0,0:0:0:0:
297,93,79845,5,0,0:0:0:0:
231,55,79978,1,0,0:0:0:0:
157,75,80112,1,0,0:0:0:0:
130,145,80245,5,0,0:0:0:0:
172,233,80378,1,0,0:0:0:0:
239,161,80512,1,0,0:0:0:0:
76,220,80645,5,0,0:0:0:0:
210,329,80778,1,0,0:0:0:0:
239,161,80912,2,0,P|228:120|223:69,1,89.0999973677445
242,138,81312,6,0,P|325:132|438:331,1,332.099996269798
459,252,81712,6,0,P|471:211|497:166,1,89.0999973677445
511,148,82112,6,0,B|440:95|373:179|304:265|170:139,1,332.099996269798
258,215,82512,6,0,P|279:253|293:296,1,89.0999973677445
295,336,82912,6,0,B|315:200|315:200|330:182|330:182|357:3,1,332.099996269798
316,73,83312,6,0,P|271:72|228:63,1,89.0999973677445
156,27,83712,5,0,0:0:0:0:
104,80,83812,1,0,0:0:0:0:
130,165,83912,1,0,0:0:0:0:
219,181,84012,1,0,0:0:0:0:
293,123,84112,2,0,P|301:71|282:20,1,89.0999973677445
291,36,84512,5,0,0:0:0:0:
