osu file format v14

[General]
AudioFilename: audio.mp3
AudioLeadIn: 0
PreviewTime: 49102
Countdown: 0
SampleSet: Soft
StackLeniency: 0.7
Mode: 2
LetterboxInBreaks: 0
WidescreenStoryboard: 1

[Editor]
Bookmarks: 5939,17102,28264,39427,50590,61753,72916,81288,84078
DistanceSpacing: 1.3
BeatDivisor: 4
GridSize: 16
TimelineZoom: 2

[Metadata]
Title:The Everlasting Guilty Crown (TV Size)
TitleUnicode:The Everlasting Guilty Crown (TV Size)
Artist:EGOIST
ArtistUnicode:EGOIST
Creator:Bastian
Version:chickenbible's Resonance
Source:ギルティクラウン
Tags:jorkseljund greaper chickenbible secre chelly ryo supercell anime op opening japanese
BeatmapID:2184782
BeatmapSetID:996696

[Difficulty]
HPDrainRate:6
CircleSize:4
OverallDifficulty:9
ApproachRate:9
SliderMultiplier:1.8
SliderTickRate:2

[Events]
//Background and Video events
0,0,"Guilty Crown.jpg",0,0
//Break Periods
//Storyboard Layer 0 (Background)
//Storyboard Layer 1 (Fail)
//Storyboard Layer 2 (Pass)
//Storyboard Layer 3 (Foreground)
//Storyboard Layer 4 (Overlay)
//Storyboard Sound Samples

[TimingPoints]
358,348.837209302326,4,2,0,40,1,0
5590,-100,4,2,1,20,0,0
5939,-100,4,2,1,50,0,0
28264,-100,4,2,1,65,0,0
50590,-100,4,2,1,75,0,1
84078,-100,4,2,1,30,0,0
85474,-100,4,2,0,10,0,0

[Colours]
Combo1 : 255,0,0
Combo2 : 255,128,255
Combo3 : 255,0,128
Combo4 : 0,133,176

[HitObjects]
329,212,358,5,2,0:0:0:0:
164,240,532,2,0,L|160:122,1,90,2|0,0:0|0:0,0:0:0:0:
329,212,881,1,2,0:0:0:0:
162,239,1055,2,0,L|259:239,1,90,2|0,0:0|0:0,0:0:0:0:
416,159,1404,1,2,0:0:0:0:
253,240,1578,6,0,L|126:236,1,90,2|0,0:0|0:0,0:0:0:0:
329,212,1927,1,2,0:0:0:0:
162,239,2102,2,0,L|161:112,1,90,2|0,0:0|0:0,0:0:0:0:
329,212,2451,1,2,0:0:0:0:
58,267,2625,1,2,0:0:0:0:
326,267,3148,5,2,0:0:0:0:
164,224,3323,2,0,L|276:223,1,90,2|0,0:0|0:0,0:0:0:0:
91,142,3671,1,2,0:0:0:0:
254,175,3846,2,0,L|148:176,1,90,2|0,0:0|0:0,0:0:0:0:
329,108,4195,1,2,0:0:0:0:
166,309,4369,6,0,L|165:200,1,90,2|0,0:0|0:0,0:0:0:0:
328,199,4718,1,2,0:0:0:0:
166,309,4892,2,0,L|293:306,1,90,2|0,0:0|0:0,0:0:0:0:
93,203,5241,1,2,0:0:0:0:
367,159,5416,1,2,0:0:0:0:
109,325,5939,6,0,L|98:218,1,90,6|0,0:0|0:0,0:0:0:0:
270,227,6288,2,0,L|392:226,1,90,2|0,0:0|0:0,0:0:0:0:
196,148,6637,2,0,L|186:48,1,90,2|0,0:0|0:0,0:0:0:0:
351,98,6985,1,2,0:0:0:0:
75,326,7160,6,0,L|61:229,1,90,0|2,0:0|0:0,0:0:0:0:
157,191,7509,1,0,0:0:0:0:
320,242,7683,2,0,L|434:241,1,90,2|0,0:0|0:0,0:0:0:0:
137,327,8032,2,0,L|125:213,1,90,2|0,0:0|0:0,0:0:0:0:
414,127,8381,2,0,L|425:248,1,90,2|0,0:0|0:0,0:0:0:0:
147,243,8730,6,0,L|264:244,1,90,2|0,0:0|0:0,0:0:0:0:
71,157,9078,1,2,0:0:0:0:
236,243,9253,2,0,L|352:242,1,90,0|2,0:0|0:0,0:0:0:0:
163,324,9602,2,0,L|156:198,1,90,0|2,0:0|0:0,0:0:0:0:
321,191,9951,1,0,0:0:0:0:
163,324,10125,5,2,0:0:0:0:
321,191,10299,1,0,0:0:0:0:
163,324,10474,2,0,L|66:325,1,90,2|0,0:0|0:0,0:0:0:0:
347,324,10823,1,2,0:0:0:0:
424,287,10997,1,0,0:0:0:0:
422,202,11171,1,2,0:0:0:0:
344,169,11346,2,0,L|292:168,1,45
76,320,11520,6,0,L|62:206,1,90,2|0,0:0|0:0,0:0:0:0:
224,205,11869,2,0,L|98:215,1,90,2|0,0:0|0:0,0:0:0:0:
400,315,12218,2,0,L|414:201,1,90,2|0,0:0|0:0,0:0:0:0:
252,200,12567,2,0,L|378:210,1,90,2|0,0:0|0:0,0:0:0:0:
291,135,12828,1,0,0:0:0:0:
61,325,12916,6,0,L|53:193,1,90,2|0,0:0|0:0,0:0:0:0:
324,221,13264,2,0,L|432:225,1,90,2|0,0:0|0:0,0:0:0:0:
361,156,13526,1,0,0:0:0:0:
157,284,13613,2,0,L|67:279,1,90,2|0,0:0|0:0,0:0:0:0:
345,222,13962,2,0,L|468:222,1,90,2|0,0:0|0:0,0:0:0:0:
385,157,14224,1,0,0:0:0:0:
158,233,14311,6,0,L|308:241,2,135,2|0|0,0:0|0:0|0:0,0:0:0:0:
447,151,15009,2,0,L|297:159,2,135,2|0|0,0:0|0:0|0:0,0:0:0:0:
177,234,15706,5,2,0:0:0:0:
391,213,15968,1,0,0:0:0:0:
177,234,16230,1,0,0:0:0:0:
456,274,16404,1,2,0:0:0:0:
240,235,16666,1,0,0:0:0:0:
456,274,16927,1,0,0:0:0:0:
131,328,17102,6,0,L|121:213,1,90,6|0,0:0|0:0,0:0:0:0:
292,212,17451,2,0,L|400:211,1,90,2|0,0:0|0:0,0:0:0:0:
219,296,17799,1,2,0:0:0:0:
381,211,17974,1,0,0:0:0:0:
219,296,18148,1,2,0:0:0:0:
491,205,18323,1,0,0:0:0:0:
326,180,18497,6,0,L|206:182,1,90,2|0,0:0|0:0,0:0:0:0:
404,101,18846,2,0,L|406:223,1,90,2|0,0:0|0:0,0:0:0:0:
127,318,19195,1,2,0:0:0:0:
48,287,19369,1,0,0:0:0:0:
52,203,19544,1,2,0:0:0:0:
133,181,19718,1,0,0:0:0:0:
409,243,19892,6,0,L|290:242,1,90,2|0,0:0|0:0,0:0:0:0:
481,163,20241,1,2,0:0:0:0:
319,242,20416,2,0,L|223:242,1,90,0|2,0:0|0:0,0:0:0:0:
391,153,20764,2,0,L|484:152,1,90,0|2,0:0|0:0,0:0:0:0:
319,242,21113,1,0,0:0:0:0:
480,152,21288,5,2,0:0:0:0:
319,242,21462,2,0,L|193:241,1,90,0|2,0:0|0:0,0:0:0:0:
397,147,21811,1,0,0:0:0:0:
103,257,21985,1,2,0:0:0:0:
211,257,22160,1,0,0:0:0:0:
319,257,22334,1,2,0:0:0:0:
427,257,22509,1,0,0:0:0:0:
155,179,22683,6,0,L|49:179,2,90,2|0|2,0:0|0:0|0:0,0:0:0:0:
317,330,23206,2,0,P|377:284|297:229,1,180
157,275,23730,2,0,L|151:153,1,90,2|0,0:0|0:0,0:0:0:0:
420,165,24078,6,0,L|323:165,3,90,2|0|2|0,0:0|0:0|0:0|0:0,0:0:0:0:
57,335,24776,2,0,L|41:217,1,90,2|0,0:0|0:0,0:0:0:0:
374,164,25125,2,0,L|394:295,1,90,2|0,0:0|0:0,0:0:0:0:
108,273,25474,6,0,L|229:277,1,90,2|0,0:0|0:0,0:0:0:0:
373,167,25823,2,0,L|380:278,1,90,2|0,0:0|0:0,0:0:0:0:
214,187,26171,2,0,L|98:185,1,90,2|0,0:0|0:0,0:0:0:0:
295,122,26520,1,2,0:0:0:0:
124,185,26695,1,0,0:0:0:0:
401,243,26869,5,2,0:0:0:0:
256,192,27044,12,0,27916,0:0:0:0:
139,190,28090,5,0,0:0:0:0:
405,153,28264,2,0,L|280:159,1,90,6|0,0:0|0:0,0:0:0:0:
476,79,28613,1,2,0:0:0:0:
205,261,28788,2,0,L|107:261,1,90,0|2,0:0|0:0,0:0:0:0:
393,134,29137,2,0,L|401:248,1,90,0|2,0:0|0:0,0:0:0:0:
128,297,29485,6,0,L|32:301,1,90,0|2,0:0|0:0,0:0:0:0:
207,187,29834,2,0,L|322:185,1,90,0|2,0:0|0:0,0:0:0:0:
131,265,30183,2,0,L|129:137,1,90,0|2,0:0|0:0,0:0:0:0:
289,128,30532,2,0,L|391:128,1,90,0|2,0:0|0:0,0:0:0:0:
209,209,30881,1,0,0:0:0:0:
476,232,31055,6,0,L|483:131,1,90,2|0,0:0|0:0,0:0:0:0:
358,135,31404,1,2,0:0:0:0:
202,146,31578,2,0,L|98:146,1,90,0|2,0:0|0:0,0:0:0:0:
406,263,31927,2,0,L|496:263,2,90,0|2|0,0:0|0:0|0:0,0:0:0:0:
311,272,32451,5,2,0:0:0:0:
38,216,32625,2,0,L|162:218,2,90,0|2|0,0:0|0:0|0:0,0:0:0:0:
322,181,33148,2,0,L|430:182,1,90,2|0,0:0|0:0,0:0:0:0:
135,144,33497,2,0,L|26:144,1,90,2|0,0:0|0:0,0:0:0:0:
340,122,33846,6,0,L|356:253,1,90,2|0,0:0|0:0,0:0:0:0:
188,238,34195,1,2,0:0:0:0:
469,213,34369,2,0,L|371:218,1,90,0|2,0:0|0:0,0:0:0:0:
73,224,34718,2,0,L|177:218,1,90,0|2,0:0|0:0,0:0:0:0:
336,147,35067,6,0,L|348:251,1,90,0|2,0:0|0:0,0:0:0:0:
172,308,35416,2,0,L|159:187,1,90,0|2,0:0|0:0,0:0:0:0:
330,197,35764,2,0,L|421:195,1,90,0|2,0:0|0:0,0:0:0:0:
149,207,36113,2,0,L|99:207,1,45
291,269,36288,2,0,L|372:272,1,45,2|0,0:0|0:0,0:0:0:0:
150,293,36462,2,0,L|131:227,1,45
376,174,36637,6,0,L|488:172,2,90,2|0|2,0:0|0:0|0:0,0:0:0:0:
212,152,37160,2,0,L|110:150,1,90,0|2,0:0|0:0,0:0:0:0:
403,259,37509,2,0,L|506:259,2,90,0|2|0,0:0|0:0|0:0,0:0:0:0:
124,321,38032,6,0,L|113:206,1,90,2|0,0:0|0:0,0:0:0:0:
399,127,38381,2,0,L|412:242,1,90,2|0,0:0|0:0,0:0:0:0:
130,222,38730,2,0,L|25:225,1,90,2|0,0:0|0:0,0:0:0:0:
361,191,39078,2,0,L|465:194,1,90,2|0,0:0|0:0,0:0:0:0:
165,335,39427,6,0,L|161:215,1,90,2|0,0:0|0:0,0:0:0:0:
332,149,39776,1,2,0:0:0:0:
58,297,39951,2,0,L|151:301,1,90,0|2,0:0|0:0,0:0:0:0:
455,217,40299,2,0,L|351:220,1,90,0|2,0:0|0:0,0:0:0:0:
74,328,40648,6,0,L|65:207,1,90,0|2,0:0|0:0,0:0:0:0:
342,178,40997,2,0,L|221:187,1,90,0|2,0:0|0:0,0:0:0:0:
421,75,41346,1,0,0:0:0:0:
252,184,41520,2,0,L|123:182,1,90,2|0,0:0|0:0,0:0:0:0:
436,139,41869,2,0,L|447:248,1,90,2|0,0:0|0:0,0:0:0:0:
372,251,42131,1,0,0:0:0:0:
157,281,42218,5,2,0:0:0:0:
317,213,42392,1,0,0:0:0:0:
157,281,42567,1,2,0:0:0:0:
427,125,42741,2,0,L|435:241,1,90,0|2,0:0|0:0,0:0:0:0:
120,180,43090,2,0,L|221:178,2,90,0|2|0,0:0|0:0|0:0,0:0:0:0:
434,155,43613,5,2,0:0:0:0:
268,208,43788,1,0,0:0:0:0:
434,155,43962,1,2,0:0:0:0:
158,224,44137,1,0,0:0:0:0:
434,155,44311,2,0,L|344:156,1,90,2|0,0:0|0:0,0:0:0:0:
26,323,44660,2,0,L|124:321,1,90,2|0,0:0|0:0,0:0:0:0:
423,246,45009,6,0,L|311:244,2,90,2|0|2,0:0|0:0|0:0,0:0:0:0:
144,179,45532,1,0,0:0:0:0:
314,159,45706,2,0,L|441:161,1,90,2|0,0:0|0:0,0:0:0:0:
236,240,46055,2,0,L|126:241,1,90,2|0,0:0|0:0,0:0:0:0:
442,171,46404,6,0,L|346:172,2,90,2|0|2,0:0|0:0|0:0,0:0:0:0:
169,195,46927,2,0,L|58:195,1,90,0|2,0:0|0:0,0:0:0:0:
354,197,47276,1,0,0:0:0:0:
193,137,47451,1,2,0:0:0:0:
354,197,47625,1,0,0:0:0:0:
81,297,47799,6,0,L|163:296,1,45,2|0,0:0|0:0,0:0:0:0:
308,226,47974,2,0,L|391:227,1,45
172,164,48148,2,0,L|112:165,1,45,2|0,0:0|0:0,0:0:0:0:
353,151,48323,2,0,L|421:152,1,45
179,273,48497,6,0,L|256:271,1,45,2|0,0:0|0:0,0:0:0:0:
449,196,48671,2,0,L|501:195,1,45
221,182,48846,2,0,L|161:183,1,45,2|0,0:0|0:0,0:0:0:0:
412,141,49020,2,0,L|471:141,1,45
185,232,49195,5,2,0:0:0:0:
256,192,49369,12,0,50416,0:0:0:0:
437,116,50590,6,0,L|443:245,1,90,2|0,0:0|0:0,0:0:0:0:
75,116,50939,2,0,L|69:245,1,90,10|0,0:0|0:0,0:0:0:0:
359,216,51288,2,0,L|488:214,1,90,2|0,0:0|0:0,0:0:0:0:
153,216,51637,2,0,L|24:214,1,90,10|0,0:0|0:0,0:0:0:0:
362,131,51985,5,2,0:0:0:0:
200,169,52160,1,0,0:0:0:0:
362,131,52334,1,10,0:0:0:0:
67,244,52509,2,0,L|196:243,2,90,0|2|0,0:0|0:0|0:0,0:0:0:0:
355,243,53032,1,10,0:0:0:0:
67,244,53206,1,0,0:0:0:0:
411,331,53381,6,0,L|422:209,1,90,2|0,0:0|0:0,0:0:0:0:
101,331,53730,2,0,L|90:209,1,90,10|0,0:0|0:0,0:0:0:0:
466,201,54078,2,0,L|357:201,1,90,2|0,0:0|0:0,0:0:0:0:
46,201,54427,2,0,L|155:201,1,90,10|0,0:0|0:0,0:0:0:0:
409,221,54776,5,2,0:0:0:0:
251,146,54951,1,0,0:0:0:0:
94,134,55125,1,10,0:0:0:0:
369,151,55299,1,0,0:0:0:0:
203,243,55474,2,0,L|91:243,1,90,2|0,0:0|0:0,0:0:0:0:
281,178,55823,2,0,L|405:175,1,90,10|0,0:0|0:0,0:0:0:0:
86,327,56171,6,0,P|30:298|115:248,1,180,2|10,0:0|0:0,0:0:0:0:
192,211,56695,1,0,0:0:0:0:
470,267,56869,2,0,L|260:272,1,180,2|10,0:0|0:0,0:0:0:0:
393,193,57392,1,0,0:0:0:0:
110,232,57567,6,0,L|4:232,2,90,2|0|10,0:0|0:0|0:0,0:0:0:0:
393,193,58090,1,0,0:0:0:0:
97,310,58264,2,0,L|88:193,1,90,2|0,0:0|0:0,0:0:0:0:
415,310,58613,1,10,0:0:0:0:
97,310,58788,1,0,0:0:0:0:
256,184,58962,5,2,0:0:0:0:
97,310,59137,1,0,0:0:0:0:
415,310,59311,1,10,0:0:0:0:
97,310,59485,2,0,L|8:310,1,90,0|2,0:0|0:0,0:0:0:0:
415,106,59834,1,0,0:0:0:0:
257,94,60009,1,10,0:0:0:0:
415,106,60183,1,0,0:0:0:0:
97,106,60358,5,2,0:0:0:0:
257,94,60532,1,0,0:0:0:0:
97,106,60706,1,10,0:0:0:0:
422,108,60881,1,0,0:0:0:0:
139,184,61055,2,0,L|39:184,1,90,2|0,0:0|0:0,0:0:0:0:
327,271,61404,1,10,0:0:0:0:
49,184,61578,1,2,0:0:0:0:
385,201,61753,6,0,L|493:201,1,90,6|0,0:0|0:0,0:0:0:0:
109,193,62102,2,0,L|1:193,1,90,10|0,0:0|0:0,0:0:0:0:
262,249,62451,1,2,0:0:0:0:
99,184,62625,1,0,0:0:0:0:
413,184,62799,1,10,0:0:0:0:
99,184,62974,1,0,0:0:0:0:
413,184,63148,5,2,0:0:0:0:
262,249,63323,1,0,0:0:0:0:
413,184,63497,1,10,0:0:0:0:
99,184,63671,1,0,0:0:0:0:
413,184,63846,2,0,L|423:295,1,90,2|0,0:0|0:0,0:0:0:0:
99,184,64195,1,10,0:0:0:0:
413,184,64369,1,0,0:0:0:0:
99,184,64544,6,0,L|9:184,1,90,2|0,0:0|0:0,0:0:0:0:
174,142,64892,1,10,0:0:0:0:
9,184,65067,1,0,0:0:0:0:
396,227,65241,2,0,L|494:226,1,90,2|0,0:0|0:0,0:0:0:0:
116,227,65590,2,0,L|18:226,1,90,10|0,0:0|0:0,0:0:0:0:
421,152,65939,5,2,0:0:0:0:
256,117,66113,1,0,0:0:0:0:
91,152,66288,1,10,0:0:0:0:
421,152,66462,2,0,L|511:152,1,90,0|2,0:0|0:0,0:0:0:0:
151,258,66811,1,0,0:0:0:0:
307,207,66985,1,10,0:0:0:0:
151,258,67160,1,0,0:0:0:0:
458,143,67334,6,0,L|462:244,1,90,2|0,0:0|0:0,0:0:0:0:
189,177,67683,2,0,L|78:183,1,90,10|0,0:0|0:0,0:0:0:0:
368,147,68032,2,0,L|372:248,1,90,2|0,0:0|0:0,0:0:0:0:
99,181,68381,2,0,L|10:187,1,90,10|0,0:0|0:0,0:0:0:0:
413,181,68730,6,0,L|502:187,1,90,2|0,0:0|0:0,0:0:0:0:
144,308,69078,2,0,L|138:204,1,90,10|0,0:0|0:0,0:0:0:0:
439,228,69427,2,0,L|350:222,1,90,2|0,0:0|0:0,0:0:0:0:
73,228,69776,2,0,L|162:222,1,90,10|0,0:0|0:0,0:0:0:0:
441,227,70125,6,0,L|347:229,2,90,2|0|10,0:0|0:0|0:0,0:0:0:0:
272,159,70648,2,0,L|168:160,1,90,0|2,0:0|0:0,0:0:0:0:
353,83,70997,1,0,0:0:0:0:
189,88,71171,1,10,0:0:0:0:
26,106,71346,1,0,0:0:0:0:
310,255,71520,6,0,L|412:255,1,90,2|0,0:0|0:0,0:0:0:0:
240,177,71869,1,10,0:0:0:0:
400,255,72044,1,0,0:0:0:0:
125,221,72218,1,2,0:0:0:0:
400,255,72392,1,0,0:0:0:0:
125,221,72567,2,0,L|25:222,1,90,10|0,0:0|0:0,0:0:0:0:
400,255,72916,5,2,0:0:0:0:
242,191,73090,2,0,L|285:173,1,45
378,134,73264,1,10,0:0:0:0:
213,249,73439,2,0,L|256:231,1,45
349,192,73613,1,2,0:0:0:0:
186,217,73788,2,0,L|227:199,1,45
322,160,73962,1,10,0:0:0:0:
159,279,74137,2,0,L|205:257,1,45
456,167,74311,6,0,L|465:298,1,90,2|0,0:0|0:0,0:0:0:0:
56,167,74660,2,0,L|47:298,1,90,10|0,0:0|0:0,0:0:0:0:
401,238,75009,2,0,L|496:238,1,90,2|0,0:0|0:0,0:0:0:0:
111,238,75358,2,0,L|16:238,1,90,10|0,0:0|0:0,0:0:0:0:
297,267,75706,5,2,0:0:0:0:
140,180,75881,2,0,L|183:162,1,45
276,123,76055,1,10,0:0:0:0:
111,238,76230,2,0,L|154:220,1,45
247,181,76404,1,2,0:0:0:0:
84,206,76578,2,0,L|125:188,1,45
220,149,76753,1,10,0:0:0:0:
57,268,76927,2,0,L|103:246,1,45
374,214,77102,6,0,L|503:212,1,90,2|0,0:0|0:0,0:0:0:0:
112,209,77451,2,0,L|-17:207,1,90,10|0,0:0|0:0,0:0:0:0:
303,246,77799,1,2,0:0:0:0:
141,244,77974,1,0,0:0:0:0:
415,185,78148,1,10,0:0:0:0:
141,244,78323,1,0,0:0:0:0:
415,185,78497,5,2,0:0:0:0:
253,168,78671,1,0,0:0:0:0:
306,168,78759,1,0,0:0:0:0:
359,165,78846,1,10,0:0:0:0:
192,230,79020,1,0,0:0:0:0:
458,145,79195,2,0,L|465:259,1,90,2|0,0:0|0:0,0:0:0:0:
54,145,79544,2,0,L|47:259,1,90,10|0,0:0|0:0,0:0:0:0:
373,234,79892,6,0,L|463:234,1,90,2|0,0:0|0:0,0:0:0:0:
120,234,80241,2,0,L|30:234,1,90,10|0,0:0|0:0,0:0:0:0:
304,165,80590,1,2,0:0:0:0:
143,160,80764,1,0,0:0:0:0:
415,232,80939,1,10,0:0:0:0:
143,160,81113,1,0,0:0:0:0:
415,232,81288,6,0,L|367:234,1,45,2|0,0:0|0:0,0:0:0:0:
171,242,81462,2,0,L|115:241,1,45
361,149,81637,2,0,L|420:149,1,45,10|0,0:0|0:0,0:0:0:0:
151,149,81811,2,0,L|92:149,1,45
372,207,81985,6,0,L|316:207,1,45,2|0,0:0|0:0,0:0:0:0:
119,215,82160,2,0,L|53:215,1,45
350,311,82334,2,0,L|410:311,1,45,10|0,0:0|0:0,0:0:0:0:
402,312,82509,2,0,L|357:312,1,45
127,238,82683,6,0,L|195:239,1,45,2|0,0:0|0:0,0:0:0:0:
372,207,82858,2,0,L|432:207,1,45
161,168,83032,2,0,L|94:169,1,45,10|0,0:0|0:0,0:0:0:0:
378,148,83206,2,0,L|445:149,1,45
123,314,83381,6,0,L|52:314,1,45,2|0,0:0|0:0,0:0:0:0:
78,314,83555,2,0,L|123:314,1,45
392,254,83730,2,0,L|326:253,1,45,10|0,0:0|0:0,0:0:0:0:
133,217,83904,6,0,L|71:218,1,45
256,192,84078,12,2,87131,0:0:0:0:
