osu file format v14

[General]
AudioFilename: audio.mp3
AudioLeadIn: 0
PreviewTime: 49318
Countdown: 1
SampleSet: Soft
StackLeniency: 0.7
Mode: 0
LetterboxInBreaks: 0
WidescreenStoryboard: 0

[Editor]
Bookmarks: 6062,28387
DistanceSpacing: 1.5
BeatDivisor: 4
GridSize: 4
TimelineZoom: 1

[Metadata]
Title:The Everlasting Guilty Crown (TV Size)
TitleUnicode:The Everlasting Guilty Crown (TV Size)
Artist:EGOIST
ArtistUnicode:EGOIST
Creator:Alvin-
Version:fdfdf
Source:
Tags:
BeatmapID:1490654
BeatmapSetID:704668

[Difficulty]
HPDrainRate:6.3
CircleSize:4.3
OverallDifficulty:9
ApproachRate:9.3
SliderMultiplier:2
SliderTickRate:1

[Events]
//Background and Video events
0,0,"bg.jpg",0,0
//Break Periods
//Storyboard Layer 0 (Background)
//Storyboard Layer 1 (Fail)
//Storyboard Layer 2 (Pass)
//Storyboard Layer 3 (Foreground)
//Storyboard Sound Samples

[TimingPoints]
481,348.837209302326,4,2,1,85,1,0
481,-133.333333333333,4,2,1,50,0,0
6062,-200,4,2,1,85,0,0
28387,-100,4,2,1,85,0,0
47922,-100,4,2,1,85,0,0
49318,-200,4,2,1,85,0,0
50015,-133.333333333333,4,2,1,85,0,0
50713,-83.3333333333333,4,2,1,85,0,1
84114,-83.3333333333333,4,2,1,85,0,0

[HitObjects]
132,216,481,5,0,0:0:0:0:
132,216,655,2,0,L|208:196,1,75.0000028610231
272,120,1004,5,0,0:0:0:0:
272,120,1178,2,0,B|324:172|324:172|416:172,1,150.000005722046
484,172,1701,6,0,B|484:272|484:272|416:244,1,150.000005722046
352,252,2225,6,0,L|204:300,1,150.000005722046
209,298,2748,1,0,0:0:0:0:
215,306,3271,5,0,0:0:0:0:
215,306,3446,2,0,L|185:234,1,75.0000028610231
100,168,3794,5,0,0:0:0:0:
100,168,3969,2,0,B|128:96|128:96|204:72,1,150.000005722046
280,52,4492,6,0,L|328:204,1,150.000005722046
352,272,5015,6,0,B|368:320|368:320|412:216,1,150.000005722046
406,228,5539,1,0,0:0:0:0:
408,232,6062,6,0,L|400:172,1,50,2|0,0:0|0:0,0:0:0:0:
312,176,6411,2,0,L|304:116,1,50,2|0,0:0|0:0,0:0:0:0:
312,276,6760,2,0,L|305:325,1,50,2|0,0:0|0:0,0:0:0:0:
192,216,7108,5,2,0:0:0:0:
192,216,7283,2,0,P|120:216|84:248,1,100
164,336,7806,2,0,L|220:344,1,50,2|0,0:0|0:0,0:0:0:0:
336,260,8155,2,0,L|280:268,1,50,2|0,0:0|0:0,0:0:0:0:
168,168,8504,2,0,L|224:176,1,50,2|0,0:0|0:0,0:0:0:0:
116,56,8853,6,0,L|60:48,1,50,2|0,0:0|0:0,0:0:0:0:
44,168,9201,1,2,0:0:0:0:
44,168,9376,2,0,P|28:228|44:272,1,100
180,212,9899,2,0,L|188:156,1,50,2|0,0:0|0:0,0:0:0:0:
332,212,10248,6,0,L|324:156,1,50,2|0,0:0|0:0,0:0:0:0:
184,344,10597,2,0,L|192:288,1,50,2|0,0:0|0:0,0:0:0:0:
328,344,10946,2,0,L|320:288,1,50,2|0,0:0|0:0,0:0:0:0:
256,192,11294,1,2,0:0:0:0:
256,304,11469,1,0,0:0:0:0:
256,164,11643,6,0,L|256:104,1,50,2|0,0:0|0:0,0:0:0:0:
168,204,11992,2,0,L|136:160,1,50,2|0,0:0|0:0,0:0:0:0:
344,204,12341,2,0,L|376:160,1,50,2|0,0:0|0:0,0:0:0:0:
256,164,12690,2,0,L|256:104,1,50,2|0,0:0|0:0,0:0:0:0:
392,276,13039,6,0,L|452:256,1,50,2|0,0:0|0:0,0:0:0:0:
256,164,13387,2,0,L|256:104,1,50,2|0,0:0|0:0,0:0:0:0:
120,276,13736,2,0,L|60:256,1,50,2|0,0:0|0:0,0:0:0:0:
256,164,14085,2,0,L|256:104,1,50,2|0,0:0|0:0,0:0:0:0:
304,48,14347,5,0,0:0:0:0:
304,48,14434,2,0,P|339:37|388:56,2,75,2|0|0,0:0|0:0|0:0,0:0:0:0:
380,152,15132,6,0,P|372:212|388:236,2,75,2|0|0,0:0|0:0|0:0,0:0:0:0:
256,164,15829,6,0,P|221:153|172:172,2,75,2|0|0,0:0|0:0|0:0,0:0:0:0:
224,272,16527,6,0,P|232:332|216:356,2,75,2|0|0,0:0|0:0|0:0,0:0:0:0:
104,152,17225,6,0,L|112:212,1,50,2|0,0:0|0:0,0:0:0:0:
192,40,17574,2,0,L|200:100,1,50,2|0,0:0|0:0,0:0:0:0:
208,264,17923,2,0,L|214:214,1,50,2|0,0:0|0:0,0:0:0:0:
320,168,18271,5,2,0:0:0:0:
320,168,18446,2,0,P|392:168|428:136,1,100
348,48,18969,2,0,L|292:40,1,50,2|0,0:0|0:0,0:0:0:0:
176,124,19318,2,0,L|232:116,1,50,2|0,0:0|0:0,0:0:0:0:
344,216,19667,2,0,L|288:208,1,50,2|0,0:0|0:0,0:0:0:0:
396,328,20016,6,0,L|452:336,1,50,2|0,0:0|0:0,0:0:0:0:
468,216,20364,1,2,0:0:0:0:
468,216,20539,2,0,P|484:156|468:112,1,100
332,172,21062,2,0,L|324:228,1,50,2|0,0:0|0:0,0:0:0:0:
180,172,21411,6,0,L|188:228,1,50,2|0,0:0|0:0,0:0:0:0:
328,40,21760,2,0,L|320:96,1,50,2|0,0:0|0:0,0:0:0:0:
184,40,22109,2,0,L|192:96,1,50,2|0,0:0|0:0,0:0:0:0:
108,252,22457,2,0,L|124:200,1,50,2|0,0:0|0:0,0:0:0:0:
256,220,22806,6,0,L|256:280,1,50,2|0,0:0|0:0,0:0:0:0:
344,180,23155,2,0,L|376:224,1,50,2|0,0:0|0:0,0:0:0:0:
168,180,23504,2,0,L|136:224,1,50,2|0,0:0|0:0,0:0:0:0:
256,220,23853,2,0,L|256:280,1,50,2|0,0:0|0:0,0:0:0:0:
120,108,24202,6,0,L|60:128,1,50,2|0,0:0|0:0,0:0:0:0:
256,220,24550,2,0,L|256:280,1,50,2|0,0:0|0:0,0:0:0:0:
392,108,24899,2,0,L|452:128,1,50,2|0,0:0|0:0,0:0:0:0:
260,224,25248,1,2,0:0:0:0:
260,224,25597,6,0,B|224:272|264:316|264:316|304:284|348:304|348:304|384:320|424:302|424:302|432:320|432:340,1,300,2|0,0:0|0:0,0:0:0:0:
504,300,26992,6,0,B|496:244|440:224|440:224|404:224|384:236|384:236|372:220|348:204,1,200
357,210,28387,5,2,0:0:0:0:
432,36,28562,1,0,0:0:0:0:
424,304,28736,1,2,0:0:0:0:
348,28,28911,2,0,B|308:56|308:56|252:52,1,100,0|2,0:0|0:0,0:0:0:0:
80,136,29260,1,0,0:0:0:0:
80,136,29434,2,0,L|188:144,1,100,2|0,0:0|0:0,0:0:0:0:
320,240,29783,6,0,L|212:248,1,100,2|0,0:0|0:0,0:0:0:0:
104,336,30132,1,2,0:0:0:0:
179,143,30306,1,0,0:0:0:0:
276,328,30481,2,0,L|384:336,1,100,2|0,0:0|0:0,0:0:0:0:
512,192,30829,2,0,L|400:200,1,100,2|0,0:0|0:0,0:0:0:0:
324,48,31178,5,2,0:0:0:0:
292,232,31353,1,0,0:0:0:0:
248,88,31527,1,2,0:0:0:0:
368,188,31701,1,0,0:0:0:0:
172,132,31876,2,0,L|84:184,1,100,2|0,0:0|0:0,0:0:0:0:
224,280,32225,2,0,L|312:332,1,100,2|0,0:0|0:0,0:0:0:0:
76,360,32574,5,2,0:0:0:0:
212,192,32748,1,0,0:0:0:0:
164,348,32922,1,2,0:0:0:0:
136,144,33097,1,0,0:0:0:0:
224,280,33271,2,0,L|312:332,1,100,2|0,0:0|0:0,0:0:0:0:
504,216,33620,2,0,L|416:268,1,100,2|0,0:0|0:0,0:0:0:0:
159,178,33969,5,2,0:0:0:0:
84,352,34144,1,0,0:0:0:0:
196,104,34318,1,2,0:0:0:0:
168,360,34493,2,0,B|208:332|208:332|264:336,1,100,0|2,0:0|0:0,0:0:0:0:
432,248,34842,1,0,0:0:0:0:
432,248,35016,2,0,L|324:240,1,100,2|0,0:0|0:0,0:0:0:0:
192,144,35365,6,0,L|300:136,1,100,2|0,0:0|0:0,0:0:0:0:
408,48,35714,1,2,0:0:0:0:
333,241,35888,1,0,0:0:0:0:
236,56,36063,2,0,L|128:48,1,100,2|0,0:0|0:0,0:0:0:0:
0,192,36411,2,0,L|112:184,1,100,2|0,0:0|0:0,0:0:0:0:
188,336,36760,5,2,0:0:0:0:
224,128,36935,1,0,0:0:0:0:
272,344,37109,1,2,0:0:0:0:
144,120,37283,1,0,0:0:0:0:
340,252,37458,2,0,L|428:200,1,100,2|0,0:0|0:0,0:0:0:0:
288,104,37807,2,0,L|200:52,1,100,2|0,0:0|0:0,0:0:0:0:
436,24,38156,5,2,0:0:0:0:
300,192,38330,1,0,0:0:0:0:
348,36,38504,1,2,0:0:0:0:
376,240,38679,1,0,0:0:0:0:
288,104,38853,2,0,L|200:52,1,100,2|0,0:0|0:0,0:0:0:0:
8,168,39202,2,0,L|96:116,1,100,2|0,0:0|0:0,0:0:0:0:
353,178,39550,5,2,0:0:0:0:
168,344,39725,1,0,0:0:0:0:
512,192,39899,1,2,0:0:0:0:
344,360,40074,2,0,B|304:332|304:332|248:336,1,100,0|2,0:0|0:0,0:0:0:0:
80,248,40423,1,0,0:0:0:0:
80,248,40597,2,0,L|188:240,1,100,2|0,0:0|0:0,0:0:0:0:
320,144,40946,6,0,L|212:136,1,100,2|0,0:0|0:0,0:0:0:0:
104,48,41295,1,2,0:0:0:0:
179,241,41469,1,0,0:0:0:0:
276,56,41644,2,0,L|384:48,1,100,2|0,0:0|0:0,0:0:0:0:
512,192,41992,2,0,L|400:184,1,100,2|0,0:0|0:0,0:0:0:0:
324,336,42341,5,2,0:0:0:0:
292,152,42516,1,0,0:0:0:0:
248,296,42690,1,2,0:0:0:0:
368,196,42864,1,0,0:0:0:0:
172,252,43039,2,0,L|84:200,1,100,2|0,0:0|0:0,0:0:0:0:
224,104,43388,2,0,L|312:52,1,100,2|0,0:0|0:0,0:0:0:0:
76,24,43737,5,2,0:0:0:0:
212,192,43911,1,0,0:0:0:0:
164,36,44085,1,2,0:0:0:0:
136,240,44260,1,0,0:0:0:0:
224,104,44434,2,0,L|312:52,1,100,2|0,0:0|0:0,0:0:0:0:
504,168,44783,6,0,L|416:116,1,100,2|0,0:0|0:0,0:0:0:0:
131,238,45132,5,2,0:0:0:0:
337,118,45306,1,0,0:0:0:0:
131,238,45481,1,2,0:0:0:0:
376,238,45655,1,0,0:0:0:0:
256,50,45829,5,2,0:0:0:0:
256,290,46004,1,0,0:0:0:0:
323,127,46178,1,2,0:0:0:0:
188,214,46353,1,0,0:0:0:0:
323,214,46527,5,2,0:0:0:0:
188,127,46701,1,0,0:0:0:0:
400,170,46876,1,2,0:0:0:0:
112,175,47050,1,0,0:0:0:0:
256,310,47225,5,2,0:0:0:0:
260,74,47399,1,0,0:0:0:0:
150,271,47574,1,2,0:0:0:0:
361,103,47748,1,0,0:0:0:0:
104,96,47922,6,0,L|112:160,1,50,2|0,0:0|0:0,0:0:0:0:
124,104,48097,2,0,L|132:168,1,50
408,96,48271,2,0,L|400:160,1,50,2|0,0:0|0:0,0:0:0:0:
388,104,48446,2,0,L|380:168,1,50
168,236,48620,6,0,L|176:300,1,50,2|0,0:0|0:0,0:0:0:0:
188,244,48795,2,0,L|196:308,1,50
344,236,48969,2,0,L|336:300,1,50,2|0,0:0|0:0,0:0:0:0:
324,244,49144,2,0,L|316:308,1,50
256,152,49318,6,0,B|256:76|256:76|304:16,1,150
336,108,50015,2,0,P|380:151|384:32,1,262.500010013581
403,32,50713,5,2,0:0:0:0:
388,244,50887,1,0,0:0:0:0:
284,24,51062,1,10,0:0:0:0:
508,256,51236,1,0,0:0:0:0:
240,120,51411,1,2,0:0:0:0:
488,156,51585,1,0,0:0:0:0:
188,220,51760,1,10,0:0:0:0:
468,48,51934,1,0,0:0:0:0:
96,296,52108,5,2,0:0:0:0:
336,340,52283,1,0,0:0:0:0:
188,220,52457,1,10,0:0:0:0:
420,256,52632,2,0,B|428:196|428:196|392:132,1,119.999996337891,0|2,0:0|0:0,0:0:0:0:
252,32,52981,1,0,0:0:0:0:
128,208,53155,2,0,B|188:220|188:220|260:183,1,119.999996337891,10|0,0:0|0:0,0:0:0:0:
408,240,53504,5,2,0:0:0:0:
384,80,53678,1,0,0:0:0:0:
300,276,53853,1,10,0:0:0:0:
272,56,54027,1,0,0:0:0:0:
192,248,54201,1,2,0:0:0:0:
164,88,54376,1,0,0:0:0:0:
72,280,54550,1,10,0:0:0:0:
52,56,54725,1,0,0:0:0:0:
308,212,54899,5,2,0:0:0:0:
328,80,55074,1,0,0:0:0:0:
308,212,55248,1,10,0:0:0:0:
328,80,55422,2,0,B|396:96|396:96|456:72,1,119.999996337891,0|2,0:0|0:0,0:0:0:0:
232,52,55771,1,0,0:0:0:0:
392,176,55946,2,0,B|396:244|396:244|364:292,1,119.999996337891,10|0,0:0|0:0,0:0:0:0:
472,160,56294,6,0,P|408:96|368:100,1,119.999996337891,2|0,0:0|0:0,0:0:0:0:
312,140,56556,1,0,0:0:0:0:
312,140,56643,2,0,L|188:128,1,119.999996337891,10|0,0:0|0:0,0:0:0:0:
20,228,56992,2,0,B|76:212|76:212|144:216,1,119.999996337891,2|0,0:0|0:0,0:0:0:0:
288,320,57341,1,10,0:0:0:0:
288,320,57515,1,0,0:0:0:0:
32,200,57690,6,0,B|72:116|72:116|12:120,1,119.999996337891,2|0,0:0|0:0,0:0:0:0:
220,248,58039,2,0,B|180:332|180:332|240:328,1,119.999996337891,10|0,0:0|0:0,0:0:0:0:
288,320,58300,1,0,0:0:0:0:
288,320,58387,1,2,0:0:0:0:
456,264,58562,1,0,0:0:0:0:
296,224,58736,1,10,0:0:0:0:
468,172,58911,1,0,0:0:0:0:
384,360,59085,5,2,0:0:0:0:
356,56,59260,1,0,0:0:0:0:
376,276,59434,1,10,0:0:0:0:
272,24,59608,1,0,0:0:0:0:
304,328,59783,1,2,0:0:0:0:
280,108,59957,1,0,0:0:0:0:
400,184,60132,1,10,0:0:0:0:
176,196,60306,1,0,0:0:0:0:
512,176,60481,5,2,0:0:0:0:
56,204,60655,1,0,0:0:0:0:
296,244,60829,1,10,0:0:0:0:
280,108,61004,1,0,0:0:0:0:
176,196,61178,2,0,B|156:256|156:256|164:320,1,119.999996337891,2|0,0:0|0:0,0:0:0:0:
296,244,61527,1,10,0:0:0:0:
0,24,61701,1,0,0:0:0:0:
216,128,61876,6,0,P|140:128|96:184,1,119.999996337891,2|0,0:0|0:0,0:0:0:0:
296,244,62225,2,0,P|372:244|416:188,1,119.999996337891,10|0,0:0|0:0,0:0:0:0:
348,24,62574,2,0,P|314:72|321:130,1,119.999996337891,2|0,0:0|0:0,0:0:0:0:
376,324,62922,2,0,P|409:275|402:217,1,119.999996337891,10|0,0:0|0:0,0:0:0:0:
176,116,63271,5,2,0:0:0:0:
512,144,63446,1,0,0:0:0:0:
284,192,63620,1,10,0:0:0:0:
408,72,63794,1,0,0:0:0:0:
284,192,63969,2,0,P|344:232|396:220,1,119.999996337891,2|0,0:0|0:0,0:0:0:0:
280,24,64318,1,10,0:0:0:0:
168,192,64492,1,0,0:0:0:0:
352,152,64667,6,0,P|292:112|240:124,1,119.999996337891,2|0,0:0|0:0,0:0:0:0:
220,336,65015,1,10,0:0:0:0:
168,192,65190,1,0,0:0:0:0:
316,224,65364,2,0,P|374:228|419:191,1,119.999996337891,2|0,0:0|0:0,0:0:0:0:
444,68,65713,1,10,0:0:0:0:
488,216,65887,1,0,0:0:0:0:
252,76,66062,5,2,0:0:0:0:
220,208,66236,1,0,0:0:0:0:
252,76,66411,1,10,0:0:0:0:
220,208,66585,2,0,P|216:280|256:328,1,119.999996337891,0|2,0:0|0:0,0:0:0:0:
360,220,66934,1,0,0:0:0:0:
144,84,67108,1,10,0:0:0:0:
360,112,67283,1,0,0:0:0:0:
144,196,67457,6,0,L|124:316,1,119.999996337891,2|0,0:0|0:0,0:0:0:0:
252,152,67806,1,10,0:0:0:0:
256,168,67981,1,0,0:0:0:0:
64,88,68155,6,0,L|0:196,1,119.999996337891,2|0,0:0|0:0,0:0:0:0:
256,56,68504,1,10,0:0:0:0:
252,76,68678,1,0,0:0:0:0:
368,196,68853,6,0,L|388:316,1,119.999996337891,2|0,0:0|0:0,0:0:0:0:
260,152,69202,1,10,0:0:0:0:
256,168,69377,1,0,0:0:0:0:
448,88,69551,6,0,L|512:196,1,119.999996337891,2|0,0:0|0:0,0:0:0:0:
256,56,69900,1,10,0:0:0:0:
260,76,70074,1,0,0:0:0:0:
180,264,70248,6,0,P|136:320|136:368,1,119.999996337891,2|0,0:0|0:0,0:0:0:0:
308,216,70597,2,0,P|288:160|232:128,1,119.999996337891,10|0,0:0|0:0,0:0:0:0:
288,340,70946,2,0,P|368:332|400:292,1,119.999996337891,2|0,0:0|0:0,0:0:0:0:
412,182,71294,2,0,P|332:190|300:230,1,119.999996337891,10|0,0:0|0:0,0:0:0:0:
396,308,71643,5,2,0:0:0:0:
400,292,71818,1,0,0:0:0:0:
344,88,71992,1,10,0:0:0:0:
276,280,72167,1,0,0:0:0:0:
248,124,72341,1,2,0:0:0:0:
144,308,72515,1,0,0:0:0:0:
152,84,72690,1,10,0:0:0:0:
56,272,72864,1,0,0:0:0:0:
40,120,73039,5,2,0:0:0:0:
208,240,73213,1,0,0:0:0:0:
16,204,73387,1,10,0:0:0:0:
240,152,73562,1,0,0:0:0:0:
56,272,73736,1,2,0:0:0:0:
192,84,73911,1,0,0:0:0:0:
264,300,74085,1,10,0:0:0:0:
16,204,74260,1,0,0:0:0:0:
284,216,74434,5,2,0:0:0:0:
60,136,74608,1,0,0:0:0:0:
204,240,74783,1,10,0:0:0:0:
104,64,74957,1,0,0:0:0:0:
120,216,75132,1,2,0:0:0:0:
180,24,75306,1,0,0:0:0:0:
80,140,75481,1,10,0:0:0:0:
264,48,75655,1,0,0:0:0:0:
120,216,75829,5,2,0:0:0:0:
132,232,76004,1,0,0:0:0:0:
292,124,76178,1,10,0:0:0:0:
300,140,76353,1,0,0:0:0:0:
172,304,76527,5,2,0:0:0:0:
184,320,76701,1,0,0:0:0:0:
208,128,76876,1,10,0:0:0:0:
200,112,77050,1,0,0:0:0:0:
376,272,77225,6,0,P|416:228|404:156,1,119.999996337891,2|0,0:0|0:0,0:0:0:0:
200,112,77574,2,0,P|252:184|304:184,1,119.999996337891,10|0,0:0|0:0,0:0:0:0:
512,156,77922,2,0,P|460:84|408:84,1,119.999996337891,2|0,0:0|0:0,0:0:0:0:
376,272,78271,2,0,P|448:284|484:252,1,119.999996337891,10|0,0:0|0:0,0:0:0:0:
168,240,78620,5,2,0:0:0:0:
172,256,78794,1,0,0:0:0:0:
192,144,78969,1,10,0:0:0:0:
144,348,79143,1,0,0:0:0:0:
344,240,79318,5,2,0:0:0:0:
340,256,79492,1,0,0:0:0:0:
320,144,79667,1,10,0:0:0:0:
368,348,79841,1,0,0:0:0:0:
168,144,80015,5,2,0:0:0:0:
164,128,80189,1,0,0:0:0:0:
144,240,80364,1,10,0:0:0:0:
192,36,80538,1,0,0:0:0:0:
344,144,80713,5,2,0:0:0:0:
348,128,80887,1,0,0:0:0:0:
368,240,81062,1,10,0:0:0:0:
320,36,81236,1,0,0:0:0:0:
123,110,81411,6,0,L|139:38,1,59.9999981689454,2|0,0:0|0:0,0:0:0:0:
147,102,81585,2,0,L|163:30,1,59.9999981689454
388,108,81760,2,0,L|373:38,1,59.9999981689454,2|0,0:0|0:0,0:0:0:0:
365,102,81934,2,0,L|349:30,1,59.9999981689454
116,256,82108,6,0,L|132:184,1,59.9999981689454,2|0,0:0|0:0,0:0:0:0:
140,248,82282,2,0,L|156:176,1,59.9999981689454
396,256,82457,2,0,L|380:184,1,59.9999981689454,2|0,0:0|0:0,0:0:0:0:
372,248,82631,2,0,L|356:176,1,59.9999981689454
200,144,82806,5,2,0:0:0:0:
228,128,82893,1,0,0:0:0:0:
256,112,82981,2,0,L|316:80,1,59.9999981689454
488,120,83155,5,2,0:0:0:0:
460,136,83242,1,0,0:0:0:0:
432,152,83330,2,0,L|372:184,1,59.9999981689454
224,268,83504,5,2,0:0:0:0:
252,284,83591,1,0,0:0:0:0:
280,300,83679,2,0,L|340:332,1,59.9999981689454
308,147,83853,5,2,0:0:0:0:
308,115,83940,1,0,0:0:0:0:
308,83,84028,2,0,L|308:23,1,59.9999981689454
256,192,84201,12,0,87254,0:0:0:0:
