osu file format v14

[General]
AudioFilename: The Everlasting Guilty Crown.mp3
AudioLeadIn: 1000
PreviewTime: 50226
Countdown: 0
SampleSet: Normal
StackLeniency: 0.7
Mode: 0
LetterboxInBreaks: 0
WidescreenStoryboard: 0

[Editor]
DistanceSpacing: 1
BeatDivisor: 4
GridSize: 4
TimelineZoom: 1

[Metadata]
Title:The Everlasting Guilty Crown (TV Edit)
TitleUnicode:The Everlasting Guilty Crown (TV Edit)
Artist:EGOIST
ArtistUnicode:EGOIST
Creator:Battquif
Version:Normal
Source:Guilty Crown
Tags:Aihuro Strategas
BeatmapID:872198
BeatmapSetID:386603

[Difficulty]
HPDrainRate:4
CircleSize:3.7
OverallDifficulty:3
ApproachRate:4
SliderMultiplier:0.9
SliderTickRate:1

[Events]
//Background and Video events
0,0,"guilty-crown-wallpaper-picture-54559f.jpg",0,0
//Break Periods
//Storyboard Layer 0 (Background)
//Storyboard Layer 1 (Fail)
//Storyboard Layer 2 (Pass)
//Storyboard Layer 3 (Foreground)
//Storyboard Sound Samples

[TimingPoints]
168,348.837209302326,4,1,1,80,1,0
50400,-100,4,1,1,100,0,1
83627,-100,4,1,1,40,0,1
83888,-100,4,1,1,80,0,0

[Colours]
Combo1 : 128,128,64
Combo2 : 64,128,128
Combo3 : 128,128,192
Combo4 : 128,64,64

[HitObjects]
115,101,168,6,0,B|105:143|130:187|130:187|180:195|200:237,1,180,0|2,0:0|0:0,0:0:0:0:
120,278,1214,1,0,0:0:0:0:
75,356,1563,2,0,P|119:368|161:357,1,90,0|2,0:0|0:0,0:0:0:0:
242,317,2261,1,2,0:0:0:0:
420,342,2958,6,0,B|451:310|444:259|444:259|398:242|437:209|389:193,1,180,0|2,0:0|0:0,0:0:0:0:
312,150,4005,1,0,0:0:0:0:
230,187,4354,2,0,P|184:206|139:193,1,90,0|2,0:0|0:0,0:0:0:0:
90,127,5051,1,2,0:0:0:0:
180,120,5400,1,0,0:0:0:0:
146,197,5749,6,0,B|123:229|123:229|149:260|134:302|134:302|97:329|138:351,1,180,4|8,0:2|0:0,0:0:0:0:
225,361,6795,1,0,0:0:0:0:
301,313,7144,2,0,P|335:286|380:278,1,90
469,290,7842,2,0,P|465:246|437:209,1,90,8|0,0:0|0:0,0:0:0:0:
350,192,8540,5,0,0:0:0:0:
264,164,8888,1,0,0:0:0:0:
264,74,9237,2,0,P|222:85|186:120,1,90,8|0,0:0|0:0,0:0:0:0:
177,206,9935,1,0,0:0:0:0:
221,285,10284,2,0,P|188:315|145:327,2,90,0|8|0,0:0|0:0|0:0,0:0:0:0:
271,210,11330,6,0,B|312:188|312:188|323:142|368:165|368:165|391:136|425:150,1,180,4|0,0:2|0:0,0:0:0:0:
392,280,12726,2,0,B|351:302|351:302|340:348|295:325|295:325|272:354|238:340,1,180,4|0,0:2|0:0,0:0:0:0:
112,308,14121,6,0,L|71:229,1,90,4|0,0:2|0:0,0:0:0:0:
71,138,14819,2,0,P|86:97|124:69,1,90,4|0,0:0|0:0,0:0:0:0:
159,152,15516,2,0,P|202:156|244:134,1,90,4|0,0:2|0:0,0:0:0:0:
297,64,16214,1,4,0:0:0:0:
387,69,16563,1,0,0:0:0:0:
471,37,16912,6,0,P|459:123|379:160,1,180,4|8,0:2|0:0,0:0:0:0:
295,134,17958,1,0,0:0:0:0:
241,206,18307,2,0,L|220:294,1,90
145,344,19005,1,8,0:0:0:0:
57,321,19354,1,0,0:0:0:0:
34,234,19702,6,0,B|23:145|23:145|52:114|68:152|108:133,1,180,0|8,0:0|0:0,0:0:0:0:
158,58,20749,1,0,0:0:0:0:
198,138,21098,2,0,B|254:107|246:43|246:43|285:26|324:41,1,180,0|8,0:0|0:0,0:0:0:0:
395,66,22144,1,4,0:0:0:0:
327,125,22493,6,0,L|308:215,1,90,4|0,0:2|0:0,0:0:0:0:
218,220,23191,2,0,L|199:310,1,90,8|0,0:0|0:0,0:0:0:0:
122,355,23888,1,4,0:2:0:0:
62,287,24237,1,0,0:0:0:0:
150,270,24586,2,0,P|186:292|209:333,1,90,8|0,0:0|0:0,0:0:0:0:
290,372,25284,6,0,P|326:350|349:309,1,90,4|0,0:2|0:0,0:0:0:0:
357,219,25981,1,0,0:0:0:0:
432,170,26330,1,8,0:0:0:0:
397,86,26679,2,2,B|346:43|346:43|297:50|317:96|258:106,1,180,6|2,0:2|0:0,0:0:0:0:
103,155,28074,6,0,P|89:195|99:244,1,90,4|0,0:2|0:0,0:0:0:0:
180,204,28772,2,0,L|269:204,1,90,8|0,0:0|0:0,0:0:0:0:
340,147,29470,1,4,0:0:0:0:
355,235,29819,1,0,0:0:0:0:
428,286,30168,2,0,P|471:275|493:237,1,90,8|0,0:0|0:0,0:0:0:0:
504,148,30865,6,0,B|477:67|477:67|434:35|389:57,1,180,4|4,0:0|0:0,0:0:0:0:
312,106,31912,1,0,0:0:0:0:
357,183,32261,2,0,P|361:226|336:265,1,90
264,317,32958,1,8,0:0:0:0:
196,257,33307,1,0,0:0:0:0:
182,346,33656,6,0,P|141:331|113:293,1,90,4|0,0:0|0:0,0:0:0:0:
47,233,34354,2,0,L|36:142,1,90,8|0,0:0|0:0,0:0:0:0:
109,90,35051,1,4,0:0:0:0:
199,92,35400,2,0,P|188:48|159:15,2,90,0|8|0,0:0|0:0|0:0,0:0:0:0:
178,180,36447,6,0,P|198:253|252:201,1,180,4|8,0:0|0:0,0:0:0:0:
284,118,37493,1,0,0:0:0:0:
353,60,37842,2,0,P|428:62|391:127,1,180,4|8,0:0|0:0,0:0:0:0:
335,198,38888,1,0,0:0:0:0:
252,161,39237,6,0,P|210:142|165:143,1,90,4|0,0:0|0:0,0:0:0:0:
113,215,39935,2,0,P|129:258|161:289,1,90,8|0,0:0|0:0,0:0:0:0:
241,247,40633,1,4,0:0:0:0:
327,270,40981,2,0,P|303:311|266:333,2,90,0|8|0,0:0|0:0|0:0,0:0:0:0:
313,180,42028,6,0,B|329:135|329:135|429:98|330:57,1,180,4|8,0:0|0:0,0:0:0:0:
256,109,43074,1,0,0:0:0:0:
182,57,43423,2,0,B|83:98|183:135|183:135|199:180,1,180,4|8,0:0|0:0,0:0:0:0:
256,249,44470,1,2,0:0:0:0:
256,192,44819,12,0,46214,2:0:0:0:
256,192,47609,6,2,B|288:223|292:267|292:267|267:306|321:346,1,180,6|2,0:0|0:2,0:2:0:0:
438,209,49005,2,2,B|406:178|402:134|402:134|427:95|373:55,1,180,6|2,0:2|0:2,0:2:0:0:
211,134,50400,6,0,P|170:119|149:80,1,90,4|8,0:2|0:0,0:0:0:0:
93,8,51098,2,0,P|52:23|31:62,1,90,4|8,0:0|0:0,0:0:0:0:
81,137,51795,1,4,0:0:0:0:
33,213,52144,1,8,0:0:0:0:
93,279,52493,2,0,L|178:307,1,90,4|8,0:0|0:0,0:0:0:0:
267,320,53191,5,4,0:0:0:0:
307,239,53540,1,8,0:0:0:0:
242,177,53889,1,4,0:0:0:0:
163,219,54237,1,8,0:0:0:0:
147,307,54586,2,0,P|80:251|91:166,1,180,4|6,0:2|0:0,0:0:0:0:
161,112,55633,1,10,0:0:0:0:
218,42,55981,6,0,L|309:26,1,90,4|8,0:0|0:0,0:0:0:0:
365,95,56679,2,0,L|274:111,1,90,4|8,0:0|0:0,0:0:0:0:
199,158,57377,1,4,0:0:0:0:
162,240,57726,1,8,0:0:0:0:
82,282,58074,2,0,P|111:317|154:331,1,90,4|8,0:0|0:0,0:0:0:0:
236,297,58772,6,0,P|278:311|306:345,2,90,4|8|6,0:0|0:0|0:0,0:0:0:0:
162,240,59819,2,0,P|120:220|96:183,2,90,8|4|10,0:0|0:0|0:0,0:0:0:0:
247,212,60865,1,4,0:0:0:0:
292,134,61214,1,10,0:0:0:0:
247,55,61563,6,0,P|209:34|164:33,1,90,6|8,0:2|0:0,0:0:0:0:
84,77,62261,2,0,P|62:115|61:160,1,90,4|8,0:0|0:0,0:0:0:0:
123,226,62958,1,4,0:0:0:0:
48,276,63307,1,8,0:0:0:0:
121,327,63656,2,0,L|210:344,1,90,4|8,0:0|0:0,0:0:0:0:
302,344,64354,6,0,L|391:327,1,90,4|8,0:0|0:0,0:0:0:0:
404,238,65051,2,0,L|315:255,1,90,4|8,0:0|0:0,0:0:0:0:
225,251,65749,1,4,0:0:0:0:
168,181,66098,1,8,0:0:0:0:
77,181,66447,2,0,P|87:138|119:103,1,90,4|8,0:0|0:0,0:0:0:0:
206,96,67144,6,0,P|248:82|279:50,1,90,4|8,0:0|0:0,0:0:0:0:
368,63,67842,1,4,0:0:0:0:
456,44,68191,1,8,0:0:0:0:
433,131,68540,2,0,L|409:218,1,90,4|8,0:0|0:0,0:0:0:0:
333,266,69237,2,0,L|309:179,1,90,4|8,0:0|0:0,0:0:0:0:
222,154,69935,5,4,0:0:0:0:
148,104,70284,1,8,0:0:0:0:
172,17,70633,1,4,0:0:0:0:
261,17,70981,1,8,0:0:0:0:
293,98,71330,1,4,0:0:0:0:
222,154,71679,2,0,L|222:246,1,90,8|4,0:0|0:0,0:0:0:0:
189,328,72377,1,8,0:0:0:0:
278,316,72726,6,0,L|368:316,1,90,4|8,0:0|0:0,0:0:0:0:
413,238,73423,2,0,L|323:238,1,90,4|8,0:0|0:0,0:0:0:0:
233,229,74121,2,0,P|197:203|179:160,1,90,4|8,0:0|0:0,0:0:0:0:
212,78,74819,2,0,P|255:70|298:88,1,90,4|8,0:0|0:0,0:0:0:0:
306,177,75516,5,4,0:0:0:0:
233,229,75865,2,0,L|144:245,1,90,8|4,0:0|0:0,0:0:0:0:
82,310,76563,1,8,0:0:0:0:
54,224,76912,1,4,0:0:0:0:
116,159,77261,2,0,P|107:113|118:72,1,90,8|4,0:0|0:0,0:0:0:0:
197,116,77958,1,8,0:0:0:0:
286,120,78307,6,0,P|330:110|362:76,1,90,4|8,0:0|0:0,0:0:0:0:
442,40,79005,2,0,P|473:71|483:114,1,90,4|8,0:0|0:0,0:0:0:0:
445,196,79702,1,6,0:2:0:0:
354,194,80051,1,10,0:0:0:0:
280,245,80400,2,0,P|250:272|203:277,1,90,6|10,0:2|0:0,0:0:0:0:
132,218,81098,6,0,P|162:191|209:186,1,90,6|10,0:2|0:0,0:0:0:0:
294,153,81795,1,4,0:0:0:0:
312,64,82144,1,8,0:0:0:0:
397,34,82493,2,0,P|442:50|467:89,1,90,4|8,0:0|0:0,0:0:0:0:
415,159,83191,1,4,0:0:0:0:
461,236,83540,1,8,0:0:0:0:
256,192,83888,12,4,86941,0:2:0:0:
