osu file format v14

[General]
AudioFilename: The Everlasting Guilty Crown.mp3
AudioLeadIn: 0
PreviewTime: 264210
Countdown: 0
SampleSet: Soft
StackLeniency: 0.7
Mode: 0
LetterboxInBreaks: 0
WidescreenStoryboard: 0

[Editor]
Bookmarks: 28396,50722,73048,95373,117699,140024,162350,184676,207001,237699,266303,287931
DistanceSpacing: 0.6
BeatDivisor: 4
GridSize: 32
TimelineZoom: 2.799999

[Metadata]
Title:The Everlasting Guilty Crown
TitleUnicode:The Everlasting Guilty Crown
Artist:EGOIST
ArtistUnicode:EGOIST
Creator:Sarawatlism
Version:Sacrifice
Source:ギルティクラウン
Tags:op2 opening anime japanese jrock rock j-rock Extra terrestrial Biological Entities chelly ryo supercell [_lost_] conner c_o_n_n_e_r mujina airiesu nelliel
BeatmapID:1859948
BeatmapSetID:889747

[Difficulty]
HPDrainRate:7
CircleSize:4
OverallDifficulty:8
ApproachRate:9.2
SliderMultiplier:1.94
SliderTickRate:1

[Events]
//Background and Video events
0,0,"BG.jpg",0,0
//Break Periods
//Storyboard Layer 0 (Background)
//Storyboard Layer 1 (Fail)
//Storyboard Layer 2 (Pass)
//Storyboard Layer 3 (Foreground)
//Storyboard Layer 4 (Overlay)
//Storyboard Sound Samples

[TimingPoints]
490,348.837209302326,4,2,1,35,1,0
490,-142.857142857143,4,2,1,35,0,0
6071,-142.857142857143,4,2,1,40,0,0
27350,-125,4,2,1,40,0,0
27699,-111.111111111111,4,2,1,40,0,0
28396,-100,4,2,1,50,0,0
49327,-166.666666666667,4,2,1,50,0,0
50024,-125,4,2,1,50,0,0
50373,-111.111111111111,4,2,1,50,0,0
50722,-90.9090909090909,4,2,1,60,0,0
70257,-90.9090909090909,4,2,1,45,0,0
70606,-90.9090909090909,4,2,1,50,0,0
70955,-90.9090909090909,4,2,1,55,0,0
71303,-90.9090909090909,4,2,1,60,0,0
71652,-200,4,2,1,40,0,0
73048,-83.3333333333333,4,2,1,80,0,1
84123,-83.3333333333333,4,2,1,80,0,0
84210,-83.3333333333333,4,2,1,80,0,1
95024,-83.3333333333333,4,2,1,80,0,1
95373,-166.666666666667,4,2,1,40,0,0
109327,-166.666666666667,4,2,1,45,0,0
112117,-166.666666666667,4,2,1,50,0,0
114908,-166.666666666667,4,2,1,55,0,0
116303,-166.666666666667,4,2,1,60,0,0
117001,-100,4,2,1,50,0,0
117699,-142.857142857143,4,2,1,40,0,0
131652,-142.857142857143,4,2,1,45,0,0
134443,-142.857142857143,4,2,1,50,0,0
135838,-142.857142857143,4,2,1,55,0,0
137234,-142.857142857143,4,2,1,60,0,0
137931,-142.857142857143,4,2,1,65,0,0
138629,-142.857142857143,4,2,1,70,0,0
138978,-142.857142857143,4,2,1,75,0,0
139327,-142.857142857143,4,2,1,80,0,0
140024,-90.909090909091,4,2,1,50,0,0
160955,-200,4,2,1,50,0,0
162001,-111.111111111111,4,2,1,50,0,0
162350,-111.111111111111,4,2,1,60,0,0
181885,-111.111111111111,4,2,1,45,0,0
182234,-111.111111111111,4,2,1,50,0,0
182583,-111.111111111111,4,2,1,55,0,0
182931,-111.111111111111,4,2,1,60,0,0
183280,-111.111111111111,4,2,1,40,0,0
184676,-83.3333333333333,4,2,1,80,0,1
195751,-83.3333333333333,4,2,1,80,0,0
195838,-83.3333333333333,4,2,1,80,0,1
204210,-76.9230769230769,4,2,1,60,0,1
206652,-76.9230769230769,4,2,1,60,0,1
207001,-100,4,2,1,30,0,0
230722,-100,4,2,2,30,0,0
237699,-100,4,2,1,40,0,0
239094,-100,4,2,1,45,0,0
240490,-100,4,2,1,50,0,0
241885,-100,4,2,1,70,0,0
242583,-100,4,2,1,80,0,0
243280,-100,4,2,3,40,0,0
243629,-100,4,2,1,40,0,0
265606,-100,4,2,1,80,0,0
266303,-76.9230769230769,4,2,1,80,0,1
276681,-76.9230769230769,4,2,1,80,0,0
276769,-76.9230769230769,4,2,1,80,0,1
287844,-76.9230769230769,4,2,1,80,0,0
287931,-76.9230769230769,4,2,1,80,0,1
299007,-76.9230769230769,4,2,1,80,0,0
299094,-76.9230769230769,4,2,1,80,0,1
310257,458.015267175573,4,2,10,50,1,0
310371,625,4,2,11,50,1,0
310449,483.870967741935,4,2,12,50,1,0
310690,465.116279069767,4,2,13,50,1,0
310922,441.176470588235,4,2,14,50,1,0
311142,483.870967741935,4,2,10,50,1,0
311383,-100,4,2,15,50,0,0
311625,500,4,2,12,50,1,0
312125,545.454545454546,4,2,16,50,1,0
312193,-100,4,2,11,50,0,0
312261,461.538461538462,4,2,17,50,1,0
312491,476.190476190476,4,2,18,50,1,0
312729,472.44094488189,4,2,19,50,1,0
312965,508.474576271186,4,2,14,50,1,0
313219,566.037735849057,4,2,10,50,1,0
313502,750,4,2,15,50,1,0
314158,1016.94915254237,4,2,20,50,1,0
314285,521.739130434783,4,2,10,50,1,0
314545,555.555555555556,4,2,21,50,1,0
314822,594.059405940594,4,2,20,50,1,0
315119,623.376623376623,4,2,14,50,1,0
315430,666.666666666667,4,2,10,50,1,0
315763,722.89156626506,4,2,16,50,1,0
316124,1071.42857142857,4,2,15,50,1,0
316525,-100,4,2,12,50,0,0
317128,1363.63636363636,4,2,22,50,1,0
317213,-100,4,2,23,50,0,0

[Colours]
Combo1 : 136,133,194
Combo2 : 255,128,128
Combo3 : 189,43,105
Combo4 : 128,64,64
Combo5 : 210,185,138
Combo6 : 63,55,155

[HitObjects]
30,108,490,6,0,P|77:101|97:80,1,67.8999979278565,2|2,2:0|2:0,0:0:0:0:
128,208,838,2,0,P|100:189|66:188,1,67.8999979278565,0|2,0:0|2:0,0:0:0:0:
172,127,1187,6,0,B|218:135|241:112|234:109|254:86|299:93,1,135.799995855713,2|2,2:0|2:0,0:0:0:0:
415,210,1710,2,0,B|368:218|345:195|352:192|332:169|287:176,1,135.799995855713,2|2,2:0|2:0,0:0:0:0:
164,295,2234,2,0,B|210:303|233:280|226:277|246:254|291:261,1,135.799995855713,2|2,2:0|2:0,0:0:0:0:
364,321,2757,1,2,2:0:0:0:
415,210,2931,1,0,0:0:0:0:
415,210,3280,6,0,P|424:171|437:144,1,67.8999979278565,2|2,2:0|2:0,0:0:0:0:
347,31,3629,2,0,P|353:64|367:95,1,67.8999979278565,0|2,0:0|2:0,0:0:0:0:
301,146,3978,6,0,P|250:142|150:142,1,135.799995855713,2|2,2:0|2:0,0:0:0:0:
101,192,4501,1,2,2:0:0:0:
39,138,4676,2,0,P|23:90|37:63,1,67.8999979278565,0|2,0:0|2:0,0:0:0:0:
101,192,5024,2,0,P|117:240|103:267,1,67.8999979278565,2|0,2:0|0:0,0:0:0:0:
45,301,5373,2,0,P|29:253|43:226,1,67.8999979278565,2|2,2:0|2:0,0:0:0:0:
117,345,5722,1,0,0:0:0:0:
117,345,6071,6,0,P|165:341|199:340,1,67.8999979278565,6|2,2:0|2:0,0:0:0:0:
118,264,6420,1,2,2:0:0:0:
102,358,6594,2,0,P|160:352|241:351,1,135.799995855713
296,294,7117,6,0,P|266:267|229:271,1,67.8999979278565,2|2,2:0|2:0,0:0:0:0:
347,357,7466,1,2,2:0:0:0:
363,238,7641,2,0,P|398:283|481:262,1,135.799995855713,2|0,2:0|0:0,0:0:0:0:
496,196,8164,2,0,P|460:179|425:186,1,67.8999979278565,2|2,2:0|2:0,0:0:0:0:
301,150,8513,2,0,P|334:152|363:136,1,67.8999979278565,2|2,2:0|2:0,0:0:0:0:
226,41,8862,6,0,L|226:121,1,67.8999979278565,2|2,2:0|2:0,0:0:0:0:
301,15,9210,1,2,2:0:0:0:
211,34,9385,2,0,L|211:176,1,135.799995855713,2|2,2:0|2:0,0:0:0:0:
140,211,9908,6,0,P|110:195|73:197,1,67.8999979278565,2|2,2:0|2:0,0:0:0:0:
24,259,10257,1,2,2:0:0:0:
104,357,10431,2,0,P|147:330|94:284,1,135.799995855713,2|2,2:0|2:0,0:0:0:0:
24,259,10955,2,0,P|20:209|12:179,1,67.8999979278565,2|2,2:0|2:0,0:0:0:0:
84,111,11303,2,0,P|88:161|96:191,1,67.8999979278565,2|2,2:0|2:0,0:0:0:0:
228,226,11652,6,0,P|184:218|149:217,1,67.8999979278565,2|2,2:0|2:0,0:0:0:0:
247,135,12001,1,2,2:0:0:0:
154,229,12176,2,0,P|187:231|306:246,1,135.799995855713,2|0,2:0|0:0,0:0:0:0:
359,202,12699,2,0,P|375:160|365:134,1,67.8999979278565,2|2,2:0|2:0,0:0:0:0:
316,77,13048,1,2,2:0:0:0:
247,135,13222,6,0,B|293:143|316:120|309:117|329:94|374:101,1,135.799995855713,2|0,2:0|0:0,0:0:0:0:
446,137,13745,1,2,2:0:0:0:
448,121,13920,1,2,2:0:0:0:
361,218,14094,1,2,2:0:0:0:
359,202,14269,1,2,2:0:0:0:
451,289,14443,6,0,P|456:237|461:210,1,67.8999979278565,2|2,2:0|2:0,0:0:0:0:
355,310,14792,1,2,2:0:0:0:
457,364,14966,2,0,P|462:312|476:221,1,135.799995855713,2|0,2:0|0:0,0:0:0:0:
434,157,15490,6,0,P|400:135|368:141,1,67.8999979278565,2|2,2:0|2:0,0:0:0:0:
316,195,15838,1,2,2:0:0:0:
267,91,16013,2,0,P|293:143|375:132,1,135.799995855713,2|2,2:0|2:0,0:0:0:0:
402,48,16536,2,0,P|362:57|328:60,1,67.8999979278565,2|2,2:0|2:0,0:0:0:0:
196,92,16885,2,0,P|229:95|262:103,1,67.8999979278565,2|2,2:0|2:0,0:0:0:0:
130,38,17234,6,0,P|90:41|73:66,1,67.8999979278565,2|2,2:0|2:0,0:0:0:0:
0,135,17583,1,2,2:0:0:0:
0,0,17757,2,0,L|1:152,1,135.799995855713,2|0,2:0|0:0,0:0:0:0:
52,199,18280,6,0,P|99:195|115:166,1,67.8999979278565,2|2,2:0|2:0,0:0:0:0:
0,135,18629,1,2,2:0:0:0:
0,277,18803,2,0,B|46:268|69:291|62:294|82:317|127:310,1,135.799995855713,2|0,2:0|0:0,0:0:0:0:
193,228,19327,1,2,2:0:0:0:
182,236,19501,1,2,2:0:0:0:
265,300,19676,1,2,2:0:0:0:
254,292,19850,1,2,2:0:0:0:
284,142,20024,6,0,P|282:183|280:214,1,67.8999979278565,2|2,2:0|2:0,0:0:0:0:
210,100,20373,1,2,2:0:0:0:
262,37,20548,2,0,B|308:28|331:51|324:54|344:77|389:70,1,135.799995855713,2|2,2:0|2:0,0:0:0:0:
470,72,21071,6,0,P|478:39|465:4,1,67.8999979278565,2|2,2:0|2:0,0:0:0:0:
423,144,21420,1,2,2:0:0:0:
478,203,21594,2,0,P|444:170|359:192,1,135.799995855713,2|2,2:0|2:0,0:0:0:0:
349,278,22117,2,0,P|386:265|424:264,1,67.8999979278565,2|2,2:0|2:0,0:0:0:0:
285,172,22466,2,0,P|322:185|360:186,1,67.8999979278565,2|2,2:0|2:0,0:0:0:0:
177,256,22815,6,0,P|235:253|256:253,1,67.8999979278565,2|2,2:0|2:0,0:0:0:0:
119,191,23164,1,2,2:0:0:0:
92,273,23338,2,0,P|150:270|237:267,1,135.799995855713,2|0,2:0|0:0,0:0:0:0:
173,165,23862,6,0,P|134:169|117:198,1,67.8999979278565,2|2,2:0|2:0,0:0:0:0:
244,117,24210,1,2,2:0:0:0:
135,56,24385,2,0,P|174:116|247:98,1,135.799995855713,2|0,2:0|0:0,0:0:0:0:
295,60,24908,1,2,2:0:0:0:
289,43,25083,1,2,2:0:0:0:
345,129,25257,1,2,2:0:0:0:
340,145,25432,1,2,2:0:0:0:
394,47,25606,6,0,P|438:46|458:66,1,67.8999979278565,2|2,2:0|2:0,0:0:0:0:
490,133,25955,1,2,2:0:0:0:
407,201,26129,2,0,P|363:177|412:131,1,135.799995855713,2|0,2:0|0:0,0:0:0:0:
492,220,26652,1,2,2:0:0:0:
434,278,26827,1,2,2:0:0:0:
506,358,27001,6,0,P|521:324|505:291,1,67.8999979278565,2|2,2:0|2:0,0:0:0:0:
346,296,27350,6,0,P|408:291|434:289,1,77.6,0|2,0:0|2:0,0:0:0:0:
230,228,27699,6,0,P|292:223|322:222,1,87.2999973358155,2|2,2:0|2:0,0:0:0:0:
124,357,28048,5,0,0:0:0:0:
124,357,28396,6,0,P|78:307|135:195,2,194,6|10|2,3:2|3:2|3:2,0:0:0:0:
289,251,29269,1,0,0:0:0:0:
369,341,29443,2,0,P|318:337|268:332,1,97,2|2,3:2|2:0,0:0:0:0:
409,221,29792,2,0,P|459:217|509:212,1,97,2|2,3:2|2:0,0:0:0:0:
420,36,30141,2,0,P|452:69|446:116,1,97,0|0,3:2|0:0,0:0:0:0:
332,215,30490,1,2,3:2:0:0:
240,54,30664,1,2,2:0:0:0:
420,36,30838,1,2,3:2:0:0:
262,153,31012,1,2,2:0:0:0:
262,153,31187,6,0,B|164:115|167:228|75:190,1,194,2|2,3:2|3:2,0:0:0:0:
236,353,31710,2,0,L|251:257,1,97,2|0,2:0|3:2,0:0:0:0:
353,90,32059,2,0,L|368:185,1,97,2|0,2:0|3:2,0:0:0:0:
506,288,32408,6,0,L|411:273,1,97,2|0,2:0|3:2,0:0:0:0:
257,105,32757,2,0,L|352:89,1,97,2|0,2:0|3:2,0:0:0:0:
148,84,33106,1,2,2:0:0:0:
244,187,33280,1,2,3:2:0:0:
180,18,33455,1,2,2:0:0:0:
64,143,33628,1,2,3:2:0:0:
233,79,33803,1,2,2:0:0:0:
137,241,33978,6,0,L|41:225,1,97,2|0,3:2|0:0,0:0:0:0:
192,326,34327,2,0,L|287:310,1,97,2|2,3:2|2:0,0:0:0:0:
399,149,34676,2,0,L|494:133,1,97,0|0,3:2|0:0,0:0:0:0:
344,234,35025,2,0,L|248:218,1,97,0|0,3:2|0:0,0:0:0:0:
141,62,35373,6,0,P|169:104|156:157,1,97,2|2,3:2|2:0,0:0:0:0:
41,225,35722,2,0,P|13:186|19:138,1,97,0|0,3:2|0:0,0:0:0:0:
167,242,36071,1,2,3:2:0:0:
3,342,36245,1,2,2:0:0:0:
94,202,36420,1,2,3:2:0:0:
198,331,36594,1,2,2:0:0:0:
198,331,36681,1,0,0:0:0:0:
198,331,36769,6,0,B|271:311|271:372|357:341,2,145.5,2|0|2,3:2|0:0|2:0,0:0:0:0:
441,241,37466,2,0,B|369:221|369:282|301:256,2,145.5,0|2|2,3:2|2:0|2:0,0:0:0:0:
349,35,38164,6,0,B|368:106|307:106|333:174,2,145.5,2|2|2,3:2|2:0|2:0,0:0:0:0:
263,271,38862,2,0,B|282:199|221:199|247:131,2,145.5,2|2|2,3:2|2:0|2:0,0:0:0:0:
179,334,39559,6,0,P|126:328|78:321,1,97,6|0,3:2|0:0,0:0:0:0:
97,155,39908,2,0,P|128:200|109:251,1,97,10|0,3:2|0:0,0:0:0:0:
0,62,40257,2,0,P|48:55|96:49,1,97,2|0,3:2|0:0,0:0:0:0:
193,167,40606,2,0,P|144:161|96:154,1,97,2|2,3:2|2:0,0:0:0:0:
252,87,40955,5,2,3:2:0:0:
252,87,41129,1,2,2:0:0:0:
295,175,41303,2,0,P|288:223|282:271,1,97,0|0,3:2|0:0,0:0:0:0:
224,361,41652,1,2,3:2:0:0:
116,224,41827,1,2,2:0:0:0:
282,271,42001,1,2,3:2:0:0:
119,330,42176,1,2,2:0:0:0:
216,186,42350,6,0,P|209:137|203:89,1,97,2|0,3:2|0:0,0:0:0:0:
397,139,42699,2,0,P|359:114|299:129,1,97,2|2,3:2|2:0,0:0:0:0:
426,266,43048,2,0,P|472:274|512:248,1,97,0|2,3:2|2:0,0:0:0:0:
309,226,43396,2,0,P|315:274|321:322,1,97,0|2,3:2|2:0,0:0:0:0:
438,169,43745,6,0,P|431:217|425:265,1,97,0|2,3:2|2:0,0:0:0:0:
238,129,44094,2,0,P|276:104|335:119,1,97,0|2,3:2|2:0,0:0:0:0:
189,240,44443,1,2,3:2:0:0:
115,74,44617,1,2,2:0:0:0:
103,251,44792,1,2,3:2:0:0:
238,129,44966,1,2,2:0:0:0:
222,318,45141,6,0,B|319:277|319:389|417:347,1,194,2|2,3:2|3:2,0:0:0:0:
512,254,45664,1,2,2:0:0:0:
374,197,45838,2,0,P|368:147|362:100,1,97,0|0,3:2|0:0,0:0:0:0:
473,133,46187,1,2,3:2:0:0:
297,197,46362,1,2,2:0:0:0:
448,28,46536,2,0,P|399:22|351:16,1,97,2|2,3:2|2:0,0:0:0:0:
265,112,46885,2,0,P|313:106|361:100,1,97,0|0,3:2|0:0,0:0:0:0:
190,31,47234,1,2,3:2:0:0:
236,208,47408,1,2,2:0:0:0:
121,82,47583,1,2,3:2:0:0:
167,259,47757,1,2,2:0:0:0:
0,192,47931,6,0,B|85:181|85:181|108:198|108:198|206:185,1,194,2|2,3:2|3:2,0:0:0:0:
307,99,48455,1,2,2:0:0:0:
346,263,48629,2,0,P|297:257|249:251,1,97,2|2,3:2|2:0,0:0:0:0:
429,337,48978,2,0,P|434:288|440:240,1,97,2|2,3:2|2:0,0:0:0:0:
366,167,49327,6,0,P|337:141|230:193,1,174.599994671631,2|2,2:0|2:0,0:0:0:0:
189,282,50024,6,0,P|242:263|244:205,1,116.4
230,190,50373,6,0,B|189:178|166:206|174:210|151:235|102:226,1,130.949996003723
96,235,50722,6,0,P|15:201|50:86,1,213.400006512451,6|10,3:2|3:2,0:0:0:0:
135,14,51245,1,2,2:0:0:0:
240,86,51420,2,0,L|240:193,1,106.700003256226,0|2,3:2|2:0,0:0:0:0:
392,59,51769,2,0,P|347:16|297:26,1,106.700003256226,8|2,3:2|2:0,0:0:0:0:
406,158,52117,5,0,3:2:0:0:
484,56,52292,1,2,2:0:0:0:
322,139,52466,1,8,3:2:0:0:
484,56,52641,1,2,2:0:0:0:
493,214,52815,2,0,P|448:171|398:181,1,106.700003256226,0|2,3:2|2:0,0:0:0:0:
414,345,53164,2,0,P|465:345|499:306,1,106.700003256226,8|2,3:2|2:0,0:0:0:0:
338,232,53513,6,0,B|292:215|259:254|265:257|235:291|173:269,1,160.050004884339,2|0,3:2|0:0,0:0:0:0:
163,263,53862,2,0,B|131:216|131:216|166:147,1,106.700003256226,8|0,3:2|0:0,0:0:0:0:
244,82,54210,1,0,3:2:0:0:
137,9,54385,1,2,2:0:0:0:
244,82,54559,2,0,P|305:79|329:37,1,106.700003256226,10|2,3:2|2:0,0:0:0:0:
461,187,54908,6,0,P|428:147|377:149,1,106.700003256226,2|0,3:2|0:0,0:0:0:0:
374,334,55257,2,0,P|425:336|457:296,1,106.700003256226,8|0,3:2|0:0,0:0:0:0:
278,187,55606,1,0,3:2:0:0:
182,271,55780,1,0,0:0:0:0:
278,187,55955,2,0,P|291:132|256:91,1,106.700003256226,8|2,3:2|2:0,0:0:0:0:
182,271,56303,6,0,B|242:266|242:266|280:280|280:280|348:272,1,160.050004884339,2|0,3:2|0:0,0:0:0:0:
362,267,56652,1,10,3:2:0:0:
469,196,56827,2,0,P|430:160|367:172,1,106.700003256226,2|0,2:0|3:2,0:0:0:0:
272,91,57176,2,0,P|323:94|361:58,1,106.700003256226,2|8,2:0|3:2,0:0:0:0:
189,33,57524,1,2,2:0:0:0:
272,182,57699,5,0,3:2:0:0:
76,171,57873,2,0,P|125:130|184:143,1,106.700003256226,2|8,2:0|3:2,0:0:0:0:
80,309,58222,2,0,P|19:287|1:229,1,106.700003256226,2|0,2:0|3:2,0:0:0:0:
195,250,58571,2,0,P|206:312|165:357,1,106.700003256226,2|8,2:0|3:2,0:0:0:0:
76,171,58920,1,2,2:0:0:0:
181,99,59094,6,0,B|231:84|262:117|249:123|287:152|330:141,1,160.050004884339,2|0,3:2|0:0,0:0:0:0:
349,130,59443,2,0,P|370:78|343:29,1,106.700003256226,8|0,3:2|0:0,0:0:0:0:
337,229,59792,1,0,3:2:0:0:
441,155,59966,1,2,2:0:0:0:
337,229,60141,2,0,P|316:281|343:330,1,106.700003256226,10|2,3:2|2:0,0:0:0:0:
465,252,60490,5,2,3:2:0:0:
349,130,60664,1,2,2:0:0:0:
465,252,60838,1,10,3:2:0:0:
275,173,61013,1,2,2:0:0:0:
457,49,61187,2,0,P|444:113|440:169,1,106.700003256226,0|0,3:2|0:0,0:0:0:0:
275,173,61536,2,0,P|269:119|258:67,1,106.700003256226,8|2,3:2|2:0,0:0:0:0:
202,279,61885,6,0,B|252:294|283:261|270:255|308:226|351:237,1,160.050004884339,2|0,3:2|0:0,0:0:0:0:
371,244,62234,1,10,3:2:0:0:
267,164,62408,1,2,2:0:0:0:
365,323,62583,2,0,P|425:314|443:261,1,106.700003256226,0|2,3:2|2:0,0:0:0:0:
345,117,62931,2,0,P|285:126|267:179,1,106.700003256226,8|2,3:2|2:0,0:0:0:0:
202,279,63280,5,0,3:2:0:0:
133,92,63455,2,0,P|180:153|177:189,1,106.700003256226,2|8,2:0|3:2,0:0:0:0:
20,266,63803,2,0,B|60:226|60:226|125:241,1,106.700003256226,2|0,2:0|3:2,0:0:0:0:
221,353,64152,2,0,B|172:364|172:364|132:324,1,106.700003256226,2|8,2:0|3:2,0:0:0:0:
266,163,64501,1,0,0:0:0:0:
388,272,64676,6,0,B|328:277|328:277|290:263|290:263|231:269,1,160.050004884339,2|0,3:2|0:0,0:0:0:0:
202,279,65024,1,8,3:2:0:0:
266,163,65199,1,0,0:0:0:0:
96,147,65373,2,0,P|135:188|201:180,1,106.700003256226,0|2,3:2|2:0,0:0:0:0:
288,71,65722,2,0,P|218:69|196:105,1,106.700003256226,10|2,3:2|2:0,0:0:0:0:
370,165,66071,5,2,3:2:0:0:
407,42,66245,1,2,2:0:0:0:
266,163,66420,1,10,3:2:0:0:
407,42,66594,1,2,2:0:0:0:
477,200,66769,2,0,P|421:164|373:174,1,106.700003256226,0|0,3:2|0:0,0:0:0:0:
276,279,67117,2,0,B|322:258|357:293|350:297|385:327|434:309,1,160.050004884339,10|0,3:2|0:0,0:0:0:0:
433,299,67466,6,0,P|373:292|399:165,1,213.400006512451,2|10,3:2|3:2,0:0:0:0:
459,64,67990,1,2,2:0:0:0:
383,169,68164,2,0,P|312:172|288:133,1,106.700003256226,0|0,3:2|0:0,0:0:0:0:
243,33,68513,2,0,P|314:30|338:69,1,106.700003256226,8|0,3:2|0:0,0:0:0:0:
185,125,68862,5,2,3:2:0:0:
85,44,69036,1,2,2:0:0:0:
185,125,69210,2,0,L|185:242,1,106.700003256226,10|2,3:2|2:0,0:0:0:0:
66,280,69559,2,0,P|40:240|81:177,1,106.700003256226,0|2,3:2|2:0,0:0:0:0:
169,41,69908,1,10,3:2:0:0:
303,294,70083,1,2,2:0:0:0:
315,308,70170,1,0,0:0:0:0:
327,322,70257,5,8,3:2:0:0:
364,336,70344,1,8,2:0:0:0:
403,331,70431,1,8,2:0:0:0:
436,309,70518,1,8,2:0:0:0:
456,276,70605,1,8,3:2:0:0:
458,237,70693,1,8,2:0:0:0:
443,201,70780,1,8,2:0:0:0:
414,175,70867,1,8,2:0:0:0:
376,165,70955,6,0,P|343:172|306:183,1,53.3500016281128,8|8,3:2|2:0,0:0:0:0:
185,231,71129,2,0,P|218:242|255:249,1,53.3500016281128,8|8,2:0|2:0,0:0:0:0:
365,55,71303,2,0,P|332:62|295:73,1,53.3500016281128,8|8,3:2|2:0,0:0:0:0:
153,129,71477,2,0,P|186:140|223:147,1,53.3500016281128,8|8,2:0|2:0,0:0:0:0:
61,0,71652,6,0,B|86:50|58:98|52:93|21:134|59:196,1,194,2|2,2:0|2:0,0:0:0:0:
134,342,72524,6,0,L|120:344,11,12.125
212,278,73048,6,0,B|170:258|126:296|146:304|101:340|34:315,1,174.599994671631,6|0,3:2|0:0,0:0:0:0:
215,245,73396,2,0,L|335:257,1,116.399996447754,10|0,3:2|0:0,0:0:0:0:
447,159,73745,2,0,P|476:118|409:13,1,174.599994671631,2|0,3:2|0:0,0:0:0:0:
437,164,74094,2,0,L|321:152,1,116.399996447754,10|0,3:2|0:0,0:0:0:0:
146,64,74443,5,2,3:2:0:0:
225,259,74617,1,2,2:0:0:0:
317,69,74792,1,10,3:2:0:0:
122,148,74966,1,2,2:0:0:0:
307,240,75141,2,0,L|422:251,1,116.399996447754,0|0,3:2|0:0,0:0:0:0:
283,329,75490,2,0,L|167:340,1,116.399996447754,8|2,3:2|2:0,0:0:0:0:
207,149,75838,6,0,P|302:176|290:264,1,174.599994671631,2|0,3:2|0:0,0:0:0:0:
169,219,76187,2,0,L|157:103,1,116.399996447754,10|0,3:2|0:0,0:0:0:0:
428,92,76536,2,0,P|333:119|345:207,1,174.599994671631,2|0,3:2|0:0,0:0:0:0:
466,162,76885,2,0,L|477:46,1,116.399996447754,10|0,3:2|0:0,0:0:0:0:
466,162,77234,5,2,3:2:0:0:
294,46,77408,1,2,2:0:0:0:
250,230,77583,1,10,3:2:0:0:
395,61,77757,2,0,B|260:114|260:114|169:60,1,232.799992895508,2|2,2:0|2:0,0:0:0:0:
58,0,78280,2,0,L|48:125,1,116.399996447754,10|2,3:2|2:0,0:0:0:0:
7,259,78629,6,0,B|84:252|84:252|107:268|107:268|186:261,1,174.599994671631,2|0,3:2|0:0,0:0:0:0:
258,208,78978,2,0,L|245:333,1,116.399996447754,8|0,3:2|0:0,0:0:0:0:
441,292,79327,2,0,P|391:260|331:288,1,116.399996447754,2|0,3:2|0:0,0:0:0:0:
198,148,79676,2,0,P|248:116|308:144,1,116.399996447754,8|0,3:2|0:0,0:0:0:0:
96,267,80024,6,0,L|64:35,1,232.799992895508,2|8,3:2|3:2,0:0:0:0:
96,267,80548,1,2,2:0:0:0:
204,78,80722,1,2,3:2:0:0:
6,201,80896,1,0,0:0:0:0:
270,161,81071,2,0,L|144:147,1,116.399996447754,8|2,3:2|2:0,0:0:0:0:
241,298,81420,5,2,3:2:0:0:
313,61,81594,1,2,2:0:0:0:
507,233,81769,1,10,3:2:0:0:
270,161,81943,2,0,B|345:208|345:208|318:361,1,232.799992895508,2|2,2:0|2:0,0:0:0:0:
154,148,82466,2,0,L|171:278,1,116.399996447754,10|2,3:2|2:0,0:0:0:0:
233,52,82815,5,2,3:2:0:0:
25,152,82990,1,2,2:0:0:0:
246,257,83164,1,10,3:2:0:0:
86,91,83339,1,2,2:0:0:0:
28,301,83513,2,0,B|129:267|113:377|213:331,1,174.599994671631,0|0,3:2|0:0,0:0:0:0:
28,301,83862,1,10,3:2:0:0:
175,120,84036,1,2,2:0:0:0:
361,216,84210,6,0,B|260:182|276:292|176:246,1,174.599994671631,6|0,3:2|0:0,0:0:0:0:
372,185,84559,2,0,L|388:308,1,116.399996447754,10|0,3:2|0:0,0:0:0:0:
250,70,84908,2,0,B|351:36|335:146|435:100,1,174.599994671631,2|0,3:2|0:0,0:0:0:0:
239,39,85257,2,0,L|223:162,1,116.399996447754,10|2,3:2|2:0,0:0:0:0:
95,70,85606,5,2,3:2:0:0:
307,8,85780,1,2,2:0:0:0:
161,220,85955,1,10,3:2:0:0:
213,5,86129,1,2,2:0:0:0:
388,161,86303,2,0,L|372:284,1,116.399996447754,0|0,3:2|0:0,0:0:0:0:
176,335,86652,2,0,L|160:219,1,116.399996447754,8|2,3:2|2:0,0:0:0:0:
423,368,87001,6,0,P|362:309|282:331,1,174.599994671631,2|0,3:2|0:0,0:0:0:0:
423,368,87350,1,10,3:2:0:0:
286,221,87524,1,0,0:0:0:0:
477,106,87699,2,0,B|471:179|471:179|453:189|453:189|443:281,1,174.599994671631,2|0,3:2|0:0,0:0:0:0:
459,84,88048,2,0,L|343:100,1,116.399996447754,10|2,3:2|2:0,0:0:0:0:
141,6,88396,5,2,3:2:0:0:
235,207,88571,1,2,2:0:0:0:
336,5,88745,1,10,3:2:0:0:
135,99,88920,2,0,B|69:161|69:161|111:298,1,232.799992895508,2|2,2:0|2:0,0:0:0:0:
316,218,89443,2,0,L|300:334,1,116.399996447754,10|2,3:2|2:0,0:0:0:0:
475,175,89792,6,0,B|433:155|389:193|409:201|364:237|297:212,1,174.599994671631,2|0,3:2|0:0,0:0:0:0:
268,75,90141,2,0,P|235:115|263:186,1,116.399996447754,8|2,3:2|2:0,0:0:0:0:
389,57,90490,1,0,3:2:0:0:
206,0,90664,1,2,2:0:0:0:
347,140,90838,2,0,L|463:124,1,116.399996447754,8|2,3:2|2:0,0:0:0:0:
332,268,91187,6,0,L|216:252,1,116.399996447754,2|2,3:2|2:0,0:0:0:0:
390,383,91536,2,0,L|506:367,1,116.399996447754,8|2,3:2|2:0,0:0:0:0:
347,152,91885,2,0,L|331:268,1,116.399996447754,0|2,3:2|2:0,0:0:0:0:
172,52,92234,2,0,L|288:36,1,116.399996447754,8|2,3:2|2:0,0:0:0:0:
131,180,92583,5,2,3:2:0:0:
131,180,92757,1,2,2:0:0:0:
41,13,92931,1,8,3:2:0:0:
41,13,93106,1,2,2:0:0:0:
12,205,93280,1,0,3:2:0:0:
176,68,93455,1,2,2:0:0:0:
145,280,93629,1,8,3:2:0:0:
7,124,93803,1,2,2:0:0:0:
232,220,93978,5,2,2:0:0:0:
47,359,94152,1,0,0:0:0:0:
47,359,94240,1,0,0:0:0:0:
47,359,94327,1,0,0:0:0:0:
140,174,94501,2,0,B|194:148|251:197|225:207|284:254|371:222,1,232.799992895508,2|2,2:0|2:0,0:0:0:0:
140,174,95024,1,2,2:0:0:0:
271,45,95199,1,2,2:0:0:0:
428,243,95373,6,0,P|472:242|493:231,1,58.199998223877,2|2,3:2|2:0,0:0:0:0:
448,168,95722,1,2,2:0:0:0:
500,327,95896,2,0,P|460:322|377:321,1,116.399996447754,2|0,2:0|0:0,0:0:0:0:
313,203,96420,6,0,P|348:191|374:206,1,58.199998223877,2|2,2:0|2:0,0:0:0:0:
428,243,96769,1,2,2:0:0:0:
262,268,96943,2,0,P|232:227|257:152,1,116.399996447754,2|0,2:0|0:0,0:0:0:0:
296,100,97466,2,0,P|340:109|363:112,1,58.199998223877,2|2,2:0|2:0,0:0:0:0:
233,49,97815,2,0,P|189:58|166:61,1,58.199998223877,2|2,2:0|2:0,0:0:0:0:
306,15,98164,6,0,P|349:12|370:34,1,58.199998223877,2|2,2:0|2:0,0:0:0:0:
417,64,98513,1,2,2:0:0:0:
473,11,98687,2,0,P|471:70|474:147,1,116.399996447754,2|0,2:0|0:0,0:0:0:0:
506,197,99210,5,2,2:0:0:0:
435,237,99385,1,2,2:0:0:0:
506,197,99559,1,2,2:0:0:0:
512,291,99734,2,0,P|480:262|398:273,1,116.399996447754,2|0,2:0|0:0,0:0:0:0:
351,315,100257,2,0,P|361:363|365:388,1,58.199998223877,2|2,2:0|2:0,0:0:0:0:
291,256,100606,2,0,P|301:208|305:183,1,58.199998223877,2|2,2:0|2:0,0:0:0:0:
304,180,100867,1,0,0:0:0:0:
304,180,100955,6,0,P|252:194|230:199,2,58.199998223877,2|2|2,2:0|2:0|2:0,0:0:0:0:
180,151,101478,1,2,2:0:0:0:
185,228,101652,2,0,P|213:220|241:212,1,58.199998223877
110,164,102001,2,0,P|138:156|166:148,1,58.199998223877,2|2,2:0|2:0,0:0:0:0:
38,119,102350,5,2,2:0:0:0:
1,241,102524,2,0,B|37:228|66:246|57:251|89:271|119:258,1,116.399996447754,2|0,2:0|0:0,0:0:0:0:
185,228,103048,1,2,2:0:0:0:
185,228,103222,1,2,2:0:0:0:
110,164,103396,1,2,2:0:0:0:
110,164,103571,1,2,2:0:0:0:
204,83,103745,6,0,P|194:123|191:150,2,58.199998223877,2|2|2,2:0|2:0|2:0,0:0:0:0:
150,22,104269,1,2,2:0:0:0:
221,86,104443,2,0,P|266:78|285:75,1,58.199998223877
402,44,104792,2,0,P|356:28|327:34,1,58.199998223877,2|2,2:0|2:0,0:0:0:0:
313,146,105141,6,0,P|358:138|377:135,1,58.199998223877,2|2,2:0|2:0,0:0:0:0:
476,91,105490,2,0,P|465:139|459:164,1,58.199998223877
366,218,105838,1,2,2:0:0:0:
370,226,105926,1,0,0:0:0:0:
373,233,106013,1,2,2:0:0:0:
375,240,106100,1,0,0:0:0:0:
378,247,106187,1,2,2:0:0:0:
378,247,106536,6,0,P|426:240|452:240,1,58.199998223877,2|2,2:0|2:0,0:0:0:0:
474,169,106885,1,2,2:0:0:0:
446,250,107059,2,0,P|416:252|320:263,1,116.399996447754,2|0,2:0|1:2,0:0:0:0:
266,208,107583,5,2,1:2:0:0:
197,254,107757,1,2,1:2:0:0:
266,208,107931,1,2,1:2:0:0:
179,129,108106,2,0,P|124:127|86:182,1,116.399996447754,2|0,1:2|1:2,0:0:0:0:
91,244,108629,2,0,P|83:197|77:171,1,58.199998223877,2|2,1:2|1:2,0:0:0:0:
179,314,108978,2,0,P|187:267|193:241,1,58.199998223877,2|2,1:2|1:2,0:0:0:0:
24,346,109327,6,0,P|68:339|86:338,1,58.199998223877,2|2,1:2|1:2,0:0:0:0:
7,268,109676,1,2,1:2:0:0:
13,356,109850,2,0,P|57:349|140:340,1,116.399996447754,2|0,1:2|1:2,0:0:0:0:
199,270,110373,6,0,P|174:244|137:245,1,58.199998223877,2|2,1:2|1:2,0:0:0:0:
237,338,110722,1,2,1:2:0:0:
304,158,110896,2,0,B|280:180|280:180|280:283,1,116.399996447754,2|0,1:2|1:2,0:0:0:0:
333,326,111420,1,2,1:2:0:0:
333,326,111594,1,2,1:2:0:0:
396,270,111769,1,2,1:2:0:0:
396,270,111943,1,2,1:2:0:0:
465,316,112117,6,0,P|505:313|523:289,2,58.199998223877,2|2|2,1:2|1:2|1:2,0:0:0:0:
396,270,112641,1,2,1:2:0:0:
438,195,112815,2,0,P|477:202|517:204,1,58.199998223877,0|0,1:2|1:2,0:0:0:0:
383,130,113164,5,2,1:2:0:0:
327,184,113338,2,0,P|288:191|248:193,1,58.199998223877,2|2,1:2|1:2,0:0:0:0:
204,177,113687,2,0,P|232:182|261:185,1,58.199998223877,2|0,1:2|1:2,0:0:0:0:
208,86,114036,1,0,1:2:0:0:
188,180,114210,6,0,P|159:185|130:188,1,58.199998223877,2|2,1:2|1:2,0:0:0:0:
71,120,114559,2,0,P|99:117|128:111,1,58.199998223877,2|2,1:2|1:2,0:0:0:0:
168,341,114908,1,2,1:2:0:0:
144,348,114995,1,0,1:2:0:0:
119,348,115082,1,2,1:2:0:0:
95,340,115169,1,0,1:2:0:0:
75,326,115256,1,2,1:2:0:0:
60,306,115344,1,0,1:2:0:0:
53,282,115431,1,2,1:2:0:0:
53,257,115518,1,0,1:2:0:0:
60,233,115605,5,0,1:2:0:0:
75,213,115692,1,0,1:2:0:0:
95,198,115780,1,0,1:2:0:0:
118,191,115867,1,0,1:2:0:0:
143,190,115954,1,2,1:2:0:0:
167,198,116041,1,0,1:2:0:0:
187,213,116128,1,2,1:2:0:0:
202,233,116216,1,0,1:2:0:0:
215,256,116303,6,0,L|221:233,14,14.5499995559693,2|0|0|0|2|0|0|0|0|0|0|0|0|0|0,1:2|1:2|1:2|1:2|1:2|1:2|1:2|1:2|1:2|1:2|1:2|1:2|1:2|1:2|1:2,0:0:0:0:
288,337,117001,6,0,P|299:287|304:272,1,48.5,2|0,1:2|1:2,0:0:0:0:
267,135,117176,2,0,P|273:158|277:182,1,48.5,2|0,1:2|1:2,0:0:0:0:
167,266,117350,2,0,P|192:259|214:255,1,48.5,2|0,1:2|1:2,0:0:0:0:
402,236,117524,2,0,P|378:232|354:225,1,48.5,2|0,1:2|1:2,0:0:0:0:
192,101,117699,6,0,P|261:89|330:69,1,135.799995855713,6|2,3:2|2:0,0:0:0:0:
140,31,118222,2,0,P|99:104|168:191,1,203.69999378357,0|2,0:0|2:0,0:0:0:0:
266,176,118920,1,2,2:0:0:0:
234,285,119094,1,2,2:0:0:0:
234,285,119269,2,0,B|163:257|163:338|88:304,1,135.799995855713,2|0,2:0|0:0,0:0:0:0:
309,225,119792,1,2,2:0:0:0:
327,322,119966,1,2,2:0:0:0:
398,229,120141,1,2,2:0:0:0:
301,247,120315,1,2,2:0:0:0:
414,322,120490,6,0,P|466:300|489:212,1,135.799995855713,2|2,2:0|2:0,0:0:0:0:
437,139,121013,2,0,B|339:96|340:225|220:165,1,203.69999378357,2|2,2:0|2:0,0:0:0:0:
160,88,121710,1,2,2:0:0:0:
264,50,121885,1,2,2:0:0:0:
264,50,122059,2,0,P|243:8|152:-13,1,135.799995855713,2|2,2:0|2:0,0:0:0:0:
54,73,122583,1,2,2:0:0:0:
120,162,122757,1,2,2:0:0:0:
61,212,122931,1,2,2:0:0:0:
124,294,123106,1,2,3:2:0:0:
64,356,123280,6,0,B|212:337,1,135.799995855713,2|2,3:2|2:0,0:0:0:0:
311,368,123803,2,0,B|371:317|335:239|335:239|285:223|269:277,1,203.69999378357,2|2,2:0|2:0,0:0:0:0:
311,368,124501,1,2,2:0:0:0:
156,268,124676,1,2,2:0:0:0:
156,268,124850,2,0,P|133:199|185:147,1,135.799995855713,2|0,2:0|0:0,0:0:0:0:
275,98,125373,1,2,2:0:0:0:
171,27,125548,1,2,2:0:0:0:
254,178,125722,1,2,2:0:0:0:
289,57,125897,1,2,2:0:0:0:
180,121,126071,6,0,P|190:187|197:265,1,135.799995855713,2|2,2:0|2:0,0:0:0:0:
334,160,126594,2,0,P|317:270|306:381,1,203.69999378357,2|2,2:0|2:0,0:0:0:0:
334,160,127292,1,2,2:0:0:0:
432,242,127466,1,2,2:0:0:0:
432,242,127641,2,0,P|420:167|413:92,1,135.799995855713,2|0,2:0|0:0,0:0:0:0:
244,127,128164,1,2,2:0:0:0:
297,273,128338,1,2,2:0:0:0:
304,49,128513,1,2,2:0:0:0:
162,164,128687,1,2,2:0:0:0:
70,6,128862,6,0,B|147:-5|133:44|217:30,1,135.799995855713,6|2,1:2|1:2,0:0:0:0:
386,117,129385,2,0,P|319:131|253:144,1,135.799995855713,0|0,1:2|1:2,0:0:0:0:
405,36,129908,1,2,1:2:0:0:
405,36,130083,1,2,1:2:0:0:
239,78,130257,6,0,P|246:111|252:144,1,67.8999979278565,0|0,1:2|1:2,0:0:0:0:
193,259,130606,2,0,P|176:255|159:252,3,33.9499989639283,0|0|0|0,1:2|1:2|1:2|1:2,0:0:0:0:
87,166,130955,2,0,P|92:182|97:198,3,33.9499989639283,0|0|0|0,1:2|1:2|1:2|1:2,0:0:0:0:
56,304,131303,1,2,1:2:0:0:
182,158,131478,1,0,1:2:0:0:
182,158,131652,6,0,B|260:144|254:204|325:187,1,135.799995855713,6|2,1:2|1:2,0:0:0:0:
409,52,132176,2,0,P|338:55|319:128,1,135.799995855713,2|2,1:2|1:2,0:0:0:0:
408,199,132699,1,0,1:2:0:0:
408,199,132873,1,2,1:2:0:0:
512,111,133048,5,0,1:2:0:0:
512,111,133222,2,0,B|502:185,1,67.8999979278565,2|0,1:2|1:2,0:0:0:0:
454,315,133571,1,2,1:2:0:0:
314,197,133745,2,0,B|318:230,3,33.9499989639283,0|0|2|0,1:2|1:2|1:2|1:2,0:0:0:0:
377,126,134094,1,0,1:2:0:0:
244,236,134269,1,2,1:2:0:0:
148,76,134443,6,0,P|214:88|281:100,1,135.799995855713,4|2,1:2|1:2,0:0:0:0:
52,187,134966,2,0,P|118:175|185:162,1,135.799995855713,2|0,1:2|1:2,0:0:0:0:
50,89,135490,1,0,1:2:0:0:
50,89,135664,1,0,1:2:0:0:
181,244,135838,5,6,1:2:0:0:
181,244,136013,2,0,P|168:310|156:377,1,135.799995855713,2|0,1:2|1:2,0:0:0:0:
86,214,136536,1,2,1:2:0:0:
260,297,136710,1,2,1:2:0:0:
177,126,136885,1,2,1:2:0:0:
94,300,137059,1,2,1:2:0:0:
257,135,137234,5,4,1:2:0:0:
256,101,137321,1,0,1:2:0:0:
241,71,137408,1,0,1:2:0:0:
213,52,137495,1,0,1:2:0:0:
180,48,137583,2,0,L|127:56,3,33.9499989639283,2|0|2|0,1:2|1:2|1:2|1:2,0:0:0:0:
9,152,137931,5,4,1:2:0:0:
42,155,138018,1,0,1:2:0:0:
76,158,138105,1,0,1:2:0:0:
110,161,138192,1,0,1:2:0:0:
144,164,138280,2,0,L|177:159,3,33.9499989639283,0|0|2|0,1:2|1:2|1:2|1:2,0:0:0:0:
296,92,138629,5,6,1:2:0:0:
306,125,138716,1,0,1:2:0:0:
305,159,138803,1,2,1:2:0:0:
292,190,138890,1,0,1:2:0:0:
273,217,138977,1,4,1:2:0:0:
252,245,139065,1,0,1:2:0:0:
238,276,139152,1,2,1:2:0:0:
235,309,139239,1,0,1:2:0:0:
242,342,139327,6,0,L|285:338,1,33.9499989639283,4|0,1:2|1:2,0:0:0:0:
363,295,139501,2,0,L|371:295,8,8.48749974098206,0|0|0|0|0|0|0|0|0,1:2|0:0|0:0|0:0|1:2|0:0|0:0|0:0|0:0,0:0:0:0:
190,201,139850,1,0,0:0:0:0:
190,201,139937,1,0,0:0:0:0:
190,201,140024,6,0,B|142:191|117:232|122:235|98:270|44:257,1,160.050004884339,6|0,3:2|0:0,0:0:0:0:
24,247,140373,2,0,P|-8:200|15:151,1,106.700003256226,10|0,3:2|0:0,0:0:0:0:
194,0,140722,2,0,L|194:216,1,213.400006512451,2|2,3:2|3:2,0:0:0:0:
266,305,141245,1,2,2:0:0:0:
366,243,141420,6,0,P|320:206|272:216,1,106.700003256226,2|2,3:2|2:0,0:0:0:0:
369,347,141769,2,0,P|420:352|458:317,1,106.700003256226,0|0,3:2|0:0,0:0:0:0:
457,167,142117,1,2,3:2:0:0:
366,243,142292,1,2,2:0:0:0:
457,167,142466,2,0,P|473:116|439:61,1,106.700003256226,2|2,3:2|2:0,0:0:0:0:
342,24,142815,6,0,B|293:14|266:55|277:59|258:89|194:80,1,160.050004884339,2|0,3:2|0:0,0:0:0:0:
172,74,143164,1,2,3:2:0:0:
114,195,143338,2,0,P|170:161|212:166,1,106.700003256226,2|0,2:0|3:2,0:0:0:0:
112,293,143687,2,0,P|59:293|23:251,1,106.700003256226,2|0,2:0|3:2,0:0:0:0:
61,127,144036,1,2,2:0:0:0:
197,276,144210,6,0,L|312:269,1,106.700003256226,0|2,3:2|2:0,0:0:0:0:
398,168,144559,2,0,L|283:175,1,106.700003256226,0|2,3:2|2:0,0:0:0:0:
426,259,144908,1,2,3:2:0:0:
507,174,145083,1,2,2:0:0:0:
426,259,145257,2,0,P|405:313|437:360,1,106.700003256226,2|2,3:2|2:0,0:0:0:0:
448,103,145606,6,0,B|405:88|366:122|388:128|352:158|295:143,1,160.050004884339,2|0,3:2|0:0,0:0:0:0:
279,137,145955,2,0,P|235:109|168:115,1,106.700003256226,2|2,3:2|2:0,0:0:0:0:
54,47,146303,2,0,P|98:19|165:25,1,106.700003256226,0|0,3:2|0:0,0:0:0:0:
90,224,146653,2,0,B|61:181|61:181|91:116,1,106.700003256226,0|0,3:2|0:0,0:0:0:0:
172,305,147001,6,0,L|-3:305,1,160.050004884339,2|0,3:2|0:0,0:0:0:0:
4,294,147350,2,0,P|49:289|87:235,1,106.700003256226,0|0,3:2|0:0,0:0:0:0:
86,125,147699,1,2,3:2:0:0:
179,195,147873,1,2,2:0:0:0:
0,110,148048,1,2,3:2:0:0:
180,10,148221,1,2,2:0:0:0:
180,10,148308,1,0,0:0:0:0:
180,10,148396,6,0,B|180:174,1,160.050004884339,2|0,3:2|0:0,0:0:0:0:
179,195,148745,2,0,P|129:157|74:171,1,106.700003256226,2|2,3:2|2:0,0:0:0:0:
156,302,149094,2,0,B|207:322|241:290|229:284|262:253|304:262,1,160.050004884339,0|2,3:2|2:0,0:0:0:0:
323,273,149443,2,0,P|290:219|327:173,1,106.700003256226,0|2,3:2|2:0,0:0:0:0:
407,35,149792,6,0,B|433:82|415:128|409:116|384:160|414:206,1,160.050004884339,2|2,3:2|2:0,0:0:0:0:
413,212,150141,2,0,P|363:171|322:181,1,106.700003256226,2|2,3:2|2:0,0:0:0:0:
406,313,150490,1,2,3:2:0:0:
505,215,150664,1,2,2:0:0:0:
323,273,150838,1,2,3:2:0:0:
506,361,151013,1,2,2:0:0:0:
413,212,151187,6,0,B|368:192|335:227|352:234|317:266|261:249,1,160.050004884339,6|0,3:2|0:0,0:0:0:0:
243,258,151536,2,0,P|207:213|234:163,1,106.700003256226,10|0,3:2|0:0,0:0:0:0:
324,112,151885,2,0,P|263:141|285:31,1,213.400006512451,2|2,3:2|3:2,0:0:0:0:
366,10,152408,1,2,2:0:0:0:
449,92,152583,6,0,P|494:59|485:1,1,106.700003256226,2|2,3:2|2:0,0:0:0:0:
495,224,152931,2,0,P|438:182|390:189,1,106.700003256226,0|0,3:2|0:0,0:0:0:0:
319,263,153280,1,2,3:2:0:0:
236,178,153455,1,2,2:0:0:0:
319,263,153629,2,0,P|377:239|385:193,1,106.700003256226,2|2,3:2|2:0,0:0:0:0:
236,17,153978,6,0,L|236:215,1,160.050004884339,2|0,3:2|0:0,0:0:0:0:
238,198,154327,1,2,3:2:0:0:
160,286,154501,2,0,P|108:287|74:248,1,106.700003256226,2|0,2:0|3:2,0:0:0:0:
52,132,154850,2,0,P|103:130|137:169,1,106.700003256226,2|0,2:0|3:2,0:0:0:0:
160,286,155199,1,2,2:0:0:0:
238,198,155373,5,0,3:2:0:0:
343,344,155548,2,0,P|277:305|230:310,1,106.700003256226,2|0,2:0|3:2,0:0:0:0:
398,226,155896,2,0,P|450:219|491:187,1,106.700003256226,2|2,2:0|3:2,0:0:0:0:
331,101,156245,1,2,2:0:0:0:
238,198,156420,2,0,L|238:306,1,106.700003256226,2|2,3:2|2:0,0:0:0:0:
331,101,156769,5,2,3:2:0:0:
202,20,156943,1,2,2:0:0:0:
331,101,157117,1,2,3:2:0:0:
158,104,157292,1,2,2:0:0:0:
317,13,157466,2,0,P|383:19|407:62,1,106.700003256226,0|0,3:2|0:0,0:0:0:0:
410,166,157815,2,0,P|344:160|320:117,1,106.700003256226,2|2,3:2|2:0,0:0:0:0:
202,20,158164,5,2,3:2:0:0:
318,108,158338,1,2,2:0:0:0:
132,146,158513,2,0,P|184:103|229:111,1,106.700003256226,0|0,3:2|0:0,0:0:0:0:
181,227,158862,1,2,3:2:0:0:
59,101,159036,1,2,2:0:0:0:
250,184,159210,1,2,3:2:0:0:
28,191,159385,1,2,2:0:0:0:
250,23,159559,6,0,L|250:209,1,160.050004884339,2|0,3:2|0:0,0:0:0:0:
253,204,159908,2,0,P|303:237|358:214,1,106.700003256226,2|2,3:2|2:0,0:0:0:0:
412,69,160257,2,0,P|358:95|350:154,1,106.700003256226,2|2,3:2|2:0,0:0:0:0:
447,275,160606,2,0,P|450:215|403:179,1,106.700003256226,2|2,3:2|2:0,0:0:0:0:
267,118,160955,6,0,B|220:105|198:134|209:137|178:165|129:153,1,145.5,2|2,2:0|2:0,0:0:0:0:
37,163,161652,6,0,L|123:151,1,72.75
115,143,162001,6,0,L|26:155,1,87.2999973358155,0|2,0:0|2:0,0:0:0:0:
253,17,162350,6,0,L|233:201,1,174.599994671631,6|10,3:2|3:2,0:0:0:0:
253,17,162873,1,2,2:0:0:0:
359,151,163048,2,0,P|401:160|445:141,1,87.2999973358155,0|2,3:2|2:0,0:0:0:0:
481,38,163396,2,0,P|440:23|398:32,1,87.2999973358155,8|2,3:2|2:0,0:0:0:0:
435,227,163745,6,0,P|449:186|440:144,1,87.2999973358155,0|2,3:2|2:0,0:0:0:0:
252,170,164094,2,0,P|292:184|334:175,1,87.2999973358155,8|2,3:2|2:0,0:0:0:0:
177,98,164443,1,0,3:2:0:0:
220,274,164617,1,2,2:0:0:0:
301,102,164792,1,8,3:2:0:0:
146,197,164966,1,2,2:0:0:0:
44,43,165141,6,0,B|118:45|118:45|142:68|142:68|215:71,1,174.599994671631,2|8,3:2|3:2,0:0:0:0:
44,43,165664,1,0,0:0:0:0:
259,141,165838,2,0,P|214:143|166:149,1,87.2999973358155,0|2,3:2|2:0,0:0:0:0:
48,258,166187,2,0,P|93:260|141:266,1,87.2999973358155,10|2,3:2|2:0,0:0:0:0:
7,158,166536,5,2,3:2:0:0:
164,91,166710,1,0,0:0:0:0:
65,231,166885,2,0,P|108:236|151:238,1,87.2999973358155,8|0,3:2|0:0,0:0:0:0:
363,238,167234,1,0,3:2:0:0:
206,171,167408,1,0,0:0:0:0:
305,311,167583,2,0,P|261:316|218:318,1,87.2999973358155,8|2,3:2|2:0,0:0:0:0:
280,123,167931,6,0,P|340:138|358:245,1,174.599994671631,2|10,3:2|3:2,0:0:0:0:
248,344,168455,1,2,2:0:0:0:
248,344,168629,2,0,P|291:345|334:351,1,87.2999973358155,0|2,3:2|2:0,0:0:0:0:
171,293,168977,2,0,P|127:314|114:359,1,87.2999973358155,8|2,3:2|2:0,0:0:0:0:
251,246,169326,6,0,P|229:202|184:189,1,87.2999973358155,0|2,3:2|2:0,0:0:0:0:
68,134,169676,2,0,P|80:176|90:218,1,87.2999973358155,8|2,3:2|2:0,0:0:0:0:
164,84,170024,2,0,P|174:41|186:0,1,87.2999973358155,0|2,3:2|2:0,0:0:0:0:
267,155,170373,1,8,3:2:0:0:
84,48,170548,1,2,2:0:0:0:
210,216,170722,6,0,P|301:229|348:148,1,174.599994671631,2|8,3:2|3:2,0:0:0:0:
210,216,171245,1,0,0:0:0:0:
329,90,171420,1,0,3:2:0:0:
329,90,171594,1,2,2:0:0:0:
214,17,171769,2,0,P|226:58|237:101,1,87.2999973358155,10|2,3:2|2:0,0:0:0:0:
483,28,172117,6,0,B|396:4|393:66|304:46,1,174.599994671631,2|10,3:2|3:2,0:0:0:0:
483,28,172641,1,2,2:0:0:0:
395,161,172815,2,0,P|407:202|418:245,1,87.2999973358155,0|0,3:2|0:0,0:0:0:0:
232,239,173164,2,0,P|260:213|313:219,1,87.2999973358155,8|2,3:2|2:0,0:0:0:0:
208,330,173513,6,0,B|134:319|134:319|107:337|107:337|36:326,1,174.599994671631,2|10,3:2|3:2,0:0:0:0:
116,147,174036,1,2,2:0:0:0:
116,147,174210,2,0,P|128:184|144:237,1,87.2999973358155,0|2,3:2|2:0,0:0:0:0:
252,62,174559,1,8,3:2:0:0:
316,123,174734,6,0,P|304:160|288:213,1,87.2999973358155,2|0,2:0|3:2,0:0:0:0:
416,49,175083,2,0,P|376:28|331:31,1,87.2999973358155,2|8,2:0|3:2,0:0:0:0:
429,171,175431,2,0,P|466:159|519:143,1,87.2999973358155,2|0,2:0|3:2,0:0:0:0:
395,277,175780,2,0,P|358:265|305:249,1,87.2999973358155,2|8,2:0|3:2,0:0:0:0:
469,374,176129,1,0,0:0:0:0:
250,317,176303,6,0,B|215:255|215:255|253:155,1,174.599994671631,2|8,3:2|3:2,0:0:0:0:
250,317,176827,1,0,0:0:0:0:
348,122,177001,2,0,P|357:164|367:207,1,87.2999973358155,0|2,3:2|2:0,0:0:0:0:
185,73,177350,2,0,P|175:115|165:158,1,87.2999973358155,10|2,3:2|2:0,0:0:0:0:
290,36,177699,6,0,P|359:13|442:100,1,174.599994671631,2|10,3:2|3:2,0:0:0:0:
290,36,178222,1,2,2:0:0:0:
463,161,178396,2,0,P|420:151|377:141,1,87.2999973358155,0|0,3:2|0:0,0:0:0:0:
272,283,178745,2,0,P|314:273|357:263,1,87.2999973358155,10|0,3:2|0:0,0:0:0:0:
174,195,179094,6,0,L|149:378,1,174.599994671631,2|10,3:2|3:2,0:0:0:0:
174,195,179617,1,2,2:0:0:0:
283,369,179792,2,0,L|271:282,1,87.2999973358155,0|0,3:2|0:0,0:0:0:0:
87,220,180141,2,0,L|75:306,1,87.2999973358155,8|0,3:2|0:0,0:0:0:0:
246,96,180490,6,0,L|257:182,1,87.2999973358155,2|2,3:2|2:0,0:0:0:0:
50,245,180838,2,0,L|61:158,1,87.2999973358155,10|2,3:2|2:0,0:0:0:0:
217,320,181187,1,0,3:2:0:0:
166,161,181362,1,2,2:0:0:0:
345,257,181536,1,10,3:2:0:0:
186,308,181711,1,2,2:0:0:0:
326,166,181885,5,8,3:2:0:0:
369,164,181972,1,8,2:0:0:0:
407,184,182059,1,8,2:0:0:0:
430,221,182146,1,8,2:0:0:0:
432,264,182234,2,0,L|426:324,3,43.6499986679078,8|8|8|8,3:2|2:0|2:0|2:0,0:0:0:0:
339,89,182583,5,8,3:2:0:0:
295,87,182670,1,8,2:0:0:0:
257,107,182757,1,8,2:0:0:0:
234,144,182844,1,8,2:0:0:0:
232,187,182932,2,0,L|238:246,3,43.6499986679078,8|8|8|8,3:2|2:0|2:0|2:0,0:0:0:0:
256,192,183280,12,0,184501,0:0:0:0:
236,230,184676,6,0,P|317:238|343:142,1,174.599994671631,6|0,3:2|0:0,0:0:0:0:
301,100,185024,2,0,P|230:101|209:148,1,116.399996447754,10|0,3:2|0:0,0:0:0:0:
419,125,185373,1,2,3:2:0:0:
344,20,185548,1,0,0:0:0:0:
419,125,185722,2,0,P|490:109|497:57,1,116.399996447754,10|0,3:2|0:0,0:0:0:0:
509,298,186071,6,0,P|410:295|317:299,1,174.599994671631,2|0,3:2|0:0,0:0:0:0:
276,338,186420,2,0,P|303:273|274:239,1,116.399996447754,10|2,3:2|2:0,0:0:0:0:
184,154,186769,1,0,3:2:0:0:
131,270,186943,1,0,0:0:0:0:
13,219,187117,2,0,P|58:175|111:191,1,116.399996447754,8|2,3:2|2:0,0:0:0:0:
257,82,187466,6,0,B|201:100|168:68|187:57|137:22|82:48,1,174.599994671631,2|0,3:2|0:0,0:0:0:0:
35,91,187815,2,0,P|10:37|44:-17,1,116.399996447754,10|0,3:2|0:0,0:0:0:0:
173,152,188164,1,2,3:2:0:0:
13,219,188338,1,0,0:0:0:0:
194,278,188513,2,0,P|134:232|87:244,1,116.399996447754,10|0,3:2|0:0,0:0:0:0:
273,361,188862,6,0,P|330:362|369:321,1,116.399996447754,2|2,3:2|2:0,0:0:0:0:
337,146,189210,1,10,3:2:0:0:
276,259,189385,2,0,B|339:251|339:251|379:274|379:274|460:265,1,174.599994671631,2|0,2:0|0:0,0:0:0:0:
467,249,189734,1,2,2:0:0:0:
337,146,189908,1,10,3:2:0:0:
467,249,190083,1,2,2:0:0:0:
448,1,190257,6,0,P|433:116|430:183,1,174.599994671631,2|0,3:2|0:0,0:0:0:0:
430,175,190606,2,0,P|378:133|331:151,1,116.399996447754,8|0,3:2|0:0,0:0:0:0:
251,261,190955,1,2,3:2:0:0:
165,120,191129,1,0,0:0:0:0:
165,120,191216,1,0,0:0:0:0:
165,120,191303,2,0,P|211:87|267:96,1,116.399996447754,8|0,3:2|0:0,0:0:0:0:
28,280,191652,6,0,P|90:265|68:156,1,174.599994671631,2|0,3:2|0:0,0:0:0:0:
13,159,192001,2,0,L|13:282,1,116.399996447754,8|2,3:2|2:0,0:0:0:0:
165,120,192350,1,2,3:2:0:0:
17,22,192524,1,0,0:0:0:0:
165,120,192699,2,0,P|236:112|252:57,1,116.399996447754,8|2,3:2|2:0,0:0:0:0:
389,220,193048,6,0,P|357:174|301:177,1,116.399996447754,2|2,3:2|2:0,0:0:0:0:
344,297,193396,1,10,3:2:0:0:
458,130,193571,2,0,B|398:108|370:148|380:150|351:186|296:176,1,174.599994671631,2|0,2:0|0:0,0:0:0:0:
265,164,193920,1,2,2:0:0:0:
403,240,194094,1,10,3:2:0:0:
265,164,194269,1,2,2:0:0:0:
230,316,194443,6,0,L|354:307,1,116.399996447754,2|2,3:2|2:0,0:0:0:0:
165,182,194792,1,10,3:2:0:0:
65,261,194966,1,2,2:0:0:0:
56,51,195141,2,0,P|74:106|80:169,1,116.399996447754,0|0,3:2|0:0,0:0:0:0:
357,197,195490,1,10,3:2:0:0:
333,170,195577,1,0,0:0:0:0:
299,159,195664,1,2,2:0:0:0:
265,164,195751,1,0,0:0:0:0:
236,182,195838,6,0,P|293:201|330:95,1,174.599994671631,6|0,3:2|0:0,0:0:0:0:
330,82,196187,1,10,3:2:0:0:
435,173,196362,1,2,2:0:0:0:
247,88,196536,1,2,3:2:0:0:
455,17,196710,1,2,2:0:0:0:
418,257,196885,2,0,P|355:229|302:228,1,116.399996447754,10|2,3:2|2:0,0:0:0:0:
117,204,197234,6,0,P|175:200|227:174,1,116.399996447754,2|2,3:2|2:0,0:0:0:0:
121,81,197583,1,10,3:2:0:0:
237,262,197757,1,2,2:0:0:0:
121,81,197931,2,0,B|118:138|118:138|116:140|116:140|114:200,1,116.399996447754,0|0,3:2|0:0,0:0:0:0:
230,377,198280,2,0,B|233:320|233:320|235:318|235:318|237:258,1,116.399996447754,8|2,3:2|2:0,0:0:0:0:
0,103,198629,6,0,B|8:195|8:195|10:197|10:197|16:288,1,174.599994671631,2|0,3:2|0:0,0:0:0:0:
15,299,198978,1,10,3:2:0:0:
117,204,199152,1,2,2:0:0:0:
15,299,199327,2,0,L|141:290,1,116.399996447754,2|0,3:2|0:0,0:0:0:0:
273,145,199676,2,0,B|219:133|188:174|198:177|166:214|100:202,1,174.599994671631,10|0,3:2|0:0,0:0:0:0:
69,135,200024,6,0,P|119:86|177:107,1,116.399996447754,2|2,3:2|2:0,0:0:0:0:
261,228,200373,1,10,3:2:0:0:
338,86,200548,1,2,2:0:0:0:
464,215,200722,2,0,P|400:178|342:180,1,116.399996447754,0|2,3:2|2:0,0:0:0:0:
247,65,201071,2,0,P|304:59|352:26,1,116.399996447754,10|2,3:2|2:0,0:0:0:0:
429,7,201333,1,0,0:0:0:0:
451,13,201420,6,0,L|451:252,1,232.799992895508,2|8,3:2|3:2,0:0:0:0:
361,353,201943,1,2,2:0:0:0:
256,260,202117,2,0,P|314:209|374:232,1,116.399996447754,0|2,3:2|2:0,0:0:0:0:
215,354,202466,1,8,3:2:0:0:
93,222,202641,1,2,2:0:0:0:
93,222,202728,1,0,0:0:0:0:
93,222,202815,6,0,B|151:204|180:235|170:242|211:280|276:253,1,174.599994671631,2|0,3:2|0:0,0:0:0:0:
313,207,203164,2,0,B|337:150|337:150|304:93,1,116.399996447754,8|2,3:2|2:0,0:0:0:0:
136,56,203513,1,0,3:2:0:0:
233,155,203687,1,2,2:0:0:0:
23,178,203862,2,0,P|56:140|120:144,1,116.399996447754,8|2,3:2|2:0,0:0:0:0:
260,343,204210,5,10,3:2:0:0:
293,354,204298,1,8,2:0:0:0:
327,350,204385,1,10,2:0:0:0:
357,332,204472,1,8,2:0:0:0:
374,301,204559,1,8,3:2:0:0:
393,272,204646,1,8,2:0:0:0:
424,256,204734,1,10,2:0:0:0:
458,256,204821,1,8,2:0:0:0:
491,266,204908,6,0,L|486:347,3,63.0499971138002,8|8|10|8,3:2|2:0|2:0|2:0,0:0:0:0:
314,173,205257,2,0,L|325:251,3,63.0499971138002,8|8|10|8,3:2|2:0|2:0|2:0,0:0:0:0:
362,47,205606,5,10,3:2:0:0:
329,36,205694,1,8,2:0:0:0:
295,40,205781,1,8,2:0:0:0:
265,58,205868,1,8,2:0:0:0:
248,89,205955,1,8,3:2:0:0:
229,118,206042,1,8,2:0:0:0:
198,134,206130,1,10,2:0:0:0:
164,134,206217,1,8,2:0:0:0:
131,124,206304,6,0,L|139:48,1,63.0499971138002,10|8,3:2|2:0,0:0:0:0:
28,217,206478,2,0,P|61:210|105:202,1,63.0499971138002,10|8,2:0|2:0,0:0:0:0:
226,243,206652,2,0,P|187:251|141:257,1,63.0499971138002,10|8,3:2|2:0,0:0:0:0:
21,345,206827,2,0,P|60:337|104:331,1,63.0499971138002,10|8,2:0|2:0,0:0:0:0:
263,376,207001,5,2,2:0:0:0:
