osu file format v14

[General]
AudioFilename: audio.mp3
AudioLeadIn: 0
PreviewTime: 111418
Countdown: 0
SampleSet: Soft
StackLeniency: 0.7
Mode: 0
LetterboxInBreaks: 0
WidescreenStoryboard: 1

[Editor]
DistanceSpacing: 1
BeatDivisor: 8
GridSize: 4
TimelineZoom: 2.899999

[Metadata]
Title:Saigo no Hanabira (The meaning of love)
TitleUnicode:最後の花弁 (The meaning of love)
Artist:EGOIST
ArtistUnicode:EGOIST
Creator:anna apple
Version:Hard
Source:
Tags:chelly エゴイスト m2u pop japanese kakifly BANG!!! last flower petal jpop j-pop
BeatmapID:3644932
BeatmapSetID:1494327

[Difficulty]
HPDrainRate:4.5
CircleSize:4
OverallDifficulty:7.2
ApproachRate:7.6
SliderMultiplier:2.3
SliderTickRate:2

[Events]
//Background and Video events
0,0,"inoribg.jpg",0,0
//Break Periods
2,178868,187458
//Storyboard Layer 0 (Background)
//Storyboard Layer 1 (Fail)
//Storyboard Layer 2 (Pass)
//Storyboard Layer 3 (Foreground)
//Storyboard Layer 4 (Overlay)
//Storyboard Sound Samples

[TimingPoints]
2668,800,4,2,1,45,1,0
5567,-100,4,2,1,50,0,0
5868,-100,4,2,1,45,0,0
6868,-100,4,2,1,50,0,0
7068,-100,4,2,1,45,0,0
7268,-100,4,2,1,50,0,0
7468,-100,4,2,1,45,0,0
8767,-100,4,2,1,50,0,0
9068,-100,4,2,1,45,0,0
11668,-100,4,2,1,50,0,0
11868,-100,4,2,1,45,0,0
12218,-100,4,2,1,50,0,0
12268,-100,4,2,1,45,0,0
13867,-100,4,2,1,55,0,0
14667,-100,4,2,1,65,0,0
15067,-100,4,2,1,65,0,0
15267,-100,4,2,1,65,0,0
15467,-100,4,2,1,50,0,0
15667,-100,4,2,1,50,0,0
17068,-100,4,2,1,40,0,0
17867,-100,4,2,1,40,0,0
18067,-100,4,2,1,50,0,0
18267,-100,4,2,1,50,0,0
18467,-100,4,2,1,50,0,0
18667,-100,4,2,1,50,0,0
19267,-100,4,2,1,50,0,0
19867,-100,4,2,1,50,0,0
20317,-100,4,2,1,10,0,0
21067,-100,4,2,1,60,0,0
21117,-100,4,2,1,30,0,0
21267,-100,4,2,1,50,0,0
21467,-100,4,2,1,70,0,0
21667,-100,4,2,1,100,0,0
21767,-100,4,2,1,60,0,0
21817,-100,4,2,1,100,0,0
21867,-100,4,2,1,75,0,0
22968,-100,4,2,1,50,0,0
23068,-100,4,2,1,75,0,0
23467,-100,4,2,1,75,0,0
24267,-100,4,2,1,75,0,0
24568,-100,4,2,1,50,0,0
24668,-100,4,2,1,75,0,0
24968,-100,4,2,1,50,0,0
25067,-100,4,2,1,75,0,0
27467,-100,4,2,1,75,0,0
27818,-100,4,2,1,50,0,0
27868,-100,4,2,1,75,0,0
28267,-100,4,2,1,75,0,0
28368,-100,4,2,1,50,0,0
28568,-100,4,2,1,75,0,0
29067,-100,4,2,1,75,0,0
29367,-100,4,2,1,75,0,0
29667,-100,4,2,1,75,0,0
30518,-100,4,2,1,50,0,0
30568,-100,4,2,1,75,0,0
30618,-100,4,2,1,50,0,0
30668,-100,4,2,1,75,0,0
31267,-100,4,2,1,75,0,0
31467,-100,4,2,1,55,0,0
32068,-100,4,2,1,50,0,0
32268,-100,4,2,1,55,0,0
34468,-100,4,2,1,50,0,0
34667,-100,4,2,1,55,0,0
35467,-100,4,2,1,55,0,0
35868,-100,4,2,1,55,0,0
36067,-100,4,2,1,50,0,0
36268,-100,4,2,1,55,0,0
36818,-100,4,2,1,50,0,0
36868,-100,4,2,1,55,0,0
37268,-100,4,2,1,55,0,0
37867,-100,4,2,1,55,0,0
38567,-100,4,2,1,50,0,0
38667,-100,4,2,1,55,0,0
39268,-100,4,2,1,50,0,0
39467,-100,4,2,1,55,0,0
40267,-100,4,2,1,55,0,0
42267,-100,4,2,1,55,0,0
42667,-100,4,2,1,55,0,0
43168,-100,4,2,1,50,0,0
43268,-100,4,2,1,55,0,0
44168,-100,4,2,1,50,0,0
44267,-100,4,2,1,50,0,0
45067,-100,4,2,1,50,0,0
45867,-100,4,2,1,50,0,0
46667,-100,4,2,1,50,0,0
48267,-100,4,2,1,50,0,0
49067,-100,4,2,1,50,0,0
49867,-100,4,2,1,50,0,0
50667,-100,4,2,1,50,0,0
52267,-100,4,2,1,50,0,0
54667,-100,4,2,1,50,0,0
55467,-100,4,2,1,50,0,0
56267,-100,4,2,1,50,0,0
57867,-100,4,2,1,50,0,0
58667,-100,4,2,1,50,0,0
61067,-100,4,2,1,50,0,0
61867,-100,4,2,1,50,0,0
62667,-100,4,2,1,50,0,0
63467,-100,4,2,1,50,0,0
64267,-100,4,2,1,50,0,0
66667,-100,4,2,1,50,0,0
68667,-100,4,2,1,50,0,0
69067,-100,4,2,1,50,0,0
69868,-83.3333333333333,4,2,1,75,0,1
70267,-83.3333333333333,4,2,1,75,0,1
70667,-83.3333333333333,4,2,1,75,0,1
70967,-83.3333333333333,4,2,1,50,0,1
71068,-83.3333333333333,4,2,1,75,0,1
71267,-83.3333333333333,4,2,1,75,0,1
71467,-83.3333333333333,4,2,1,75,0,1
72268,-83.3333333333333,4,2,1,75,0,1
73067,-83.3333333333333,4,2,1,75,0,1
73867,-83.3333333333333,4,2,1,75,0,1
74268,-83.3333333333333,4,2,1,75,0,1
74667,-83.3333333333333,4,2,1,75,0,1
76267,-83.3333333333333,4,2,1,75,0,1
77868,-83.3333333333333,4,2,1,75,0,1
78667,-83.3333333333333,4,2,1,75,0,1
79467,-83.3333333333333,4,2,1,75,0,1
79668,-83.3333333333333,4,2,1,50,0,1
79868,-83.3333333333333,4,2,1,75,0,1
80267,-83.3333333333333,4,2,1,75,0,1
80668,-83.3333333333333,4,2,1,75,0,1
81068,-83.3333333333333,4,2,1,75,0,1
81468,-83.3333333333333,4,2,1,75,0,1
81868,-83.3333333333333,4,2,1,75,0,1
82268,-83.3333333333333,4,2,1,75,0,1
82667,-83.3333333333333,4,2,1,75,0,1
84068,-83.3333333333333,4,2,1,50,0,1
84267,-83.3333333333333,4,2,1,75,0,1
84968,-83.3333333333333,4,2,1,50,0,1
85067,-83.3333333333333,4,2,1,75,0,1
85668,-83.3333333333333,4,2,1,50,0,1
85867,-83.3333333333333,4,2,1,75,0,1
86667,-83.3333333333333,4,2,1,75,0,1
87467,-83.3333333333333,4,2,1,75,0,1
88268,-83.3333333333333,4,2,1,75,0,1
89067,-83.3333333333333,4,2,1,75,0,1
90268,-83.3333333333333,4,2,1,75,0,1
90667,-83.3333333333333,4,2,1,75,0,1
90868,-83.3333333333333,4,2,1,50,0,1
91068,-83.3333333333333,4,2,1,75,0,1
91268,-83.3333333333333,4,2,1,50,0,1
91467,-83.3333333333333,4,2,1,75,0,1
92267,-100,4,2,1,75,0,1
93867,-83.3333333333333,4,2,1,75,0,1
95067,-83.3333333333333,4,2,1,75,0,1
95468,-100,4,2,1,75,0,0
97867,-100,4,2,1,5,0,0
98467,-100,4,2,1,75,0,0
98667,-100,4,2,1,50,0,0
101867,-100,4,2,1,50,0,0
102667,-100,4,2,1,50,0,0
105067,-100,4,2,1,50,0,0
105867,-100,4,2,1,50,0,0
106667,-100,4,2,1,50,0,0
107467,-100,4,2,1,50,0,0
109467,-100,4,2,1,50,0,0
109867,-100,4,2,1,50,0,0
111467,-100,4,2,1,50,0,0
112267,-100,4,2,1,50,0,0
112368,-100,4,2,1,25,0,0
113067,-100,4,2,1,50,0,0
113867,-100,4,2,1,50,0,0
114667,-100,4,2,1,50,0,0
115467,-100,4,2,1,50,0,0
116267,-100,4,2,1,50,0,0
117067,-100,4,2,1,50,0,0
117867,-100,4,2,1,50,0,0
118667,-100,4,2,1,50,0,0
119467,-100,4,2,1,50,0,0
120268,-100,4,2,1,50,0,0
121867,-100,4,2,1,50,0,0
122668,-100,4,2,1,50,0,0
123468,-100,4,2,1,50,0,0
124268,-100,4,2,1,50,0,0
125067,-100,4,2,1,50,0,0
125867,-100,4,2,1,50,0,0
128267,-100,4,2,1,50,0,0
129067,-100,4,2,1,50,0,0
129867,-100,4,2,1,50,0,0
130667,-100,4,2,1,50,0,0
131467,-100,4,2,1,50,0,0
133068,-100,4,2,1,50,0,0
133867,-100,4,2,1,50,0,0
135867,-100,4,2,1,50,0,0
136267,-100,4,2,1,50,0,0
137068,-83.3333333333333,4,2,1,80,0,1
137467,-83.3333333333333,4,2,1,80,0,1
137867,-83.3333333333333,4,2,1,80,0,1
138167,-83.3333333333333,4,2,1,50,0,1
138268,-83.3333333333333,4,2,1,80,0,1
138467,-83.3333333333333,4,2,1,80,0,1
138667,-83.3333333333333,4,2,1,80,0,1
140267,-83.3333333333333,4,2,1,80,0,1
141067,-83.3333333333333,4,2,1,80,0,1
141867,-83.3333333333333,4,2,1,80,0,1
143467,-83.3333333333333,4,2,1,80,0,1
145867,-83.3333333333333,4,2,1,80,0,1
146667,-83.3333333333333,4,2,1,80,0,1
146868,-83.3333333333333,4,2,1,50,0,1
147068,-83.3333333333333,4,2,1,80,0,1
147467,-83.3333333333333,4,2,1,80,0,1
149867,-83.3333333333333,4,2,1,80,0,1
151268,-83.3333333333333,4,2,1,50,0,1
151467,-83.3333333333333,4,2,1,80,0,1
152168,-83.3333333333333,4,2,1,50,0,1
152267,-83.3333333333333,4,2,1,80,0,1
152868,-83.3333333333333,4,2,1,50,0,1
153067,-83.3333333333333,4,2,1,80,0,1
153867,-83.3333333333333,4,2,1,80,0,1
154667,-83.3333333333333,4,2,1,80,0,1
156267,-83.3333333333333,4,2,1,80,0,1
157867,-83.3333333333333,4,2,1,80,0,1
158068,-83.3333333333333,4,2,1,50,0,1
158268,-83.3333333333333,4,2,1,80,0,1
158468,-83.3333333333333,4,2,1,50,0,1
158667,-83.3333333333333,4,2,1,80,0,1
159467,-100,4,2,1,80,0,1
161067,-100,4,2,1,80,0,1
162267,-100,4,2,1,80,0,1
162668,-100,4,2,1,45,0,0
163068,-100,4,2,1,45,0,0
163268,-100,4,2,1,45,0,0
165067,-100,4,2,1,45,0,0
167467,-100,4,2,1,45,0,0
167868,-100,4,2,1,45,0,0
168268,-100,4,2,1,60,0,0
168667,-100,4,2,1,70,0,0
169068,-83.3333333333333,4,2,1,80,0,1
169568,-83.3333333333333,4,2,1,50,0,1
169668,-83.3333333333333,4,2,1,80,0,1
169867,-83.3333333333333,4,2,1,80,0,1
170667,-83.3333333333333,4,2,1,80,0,1
170968,-83.3333333333333,4,2,1,80,0,1
171268,-83.3333333333333,4,2,1,50,0,1
171467,-83.3333333333333,4,2,1,80,0,1
171768,-83.3333333333333,4,2,1,80,0,1
172067,-83.3333333333333,4,2,1,50,0,1
172268,-100,4,2,1,80,0,0
172967,-100,4,2,1,50,0,0
173067,-100,4,2,1,80,0,0
173767,-100,4,2,1,80,0,0
173867,-100,4,2,1,80,0,0
174567,-100,4,2,1,50,0,0
174667,-100,4,2,1,80,0,0
175267,-100,4,2,1,50,0,0
175467,-100,4,2,1,80,0,0
178667,-100,4,2,1,25,0,0
188268,-100,4,2,1,55,0,0
190667,-100,4,2,1,55,0,0
190968,-100,4,2,1,50,0,0
191067,-100,4,2,1,55,0,0
191368,-100,4,2,1,50,0,0
191468,-83.3333333333333,4,2,1,85,0,1
192267,-83.3333333333333,4,2,1,85,0,1
192568,-83.3333333333333,4,2,1,50,0,1
192668,-83.3333333333333,4,2,1,85,0,1
193867,-83.3333333333333,4,2,1,85,0,1
195768,-83.3333333333333,4,2,1,50,0,1
195868,-83.3333333333333,4,2,1,85,0,1
197868,-100,4,2,1,85,0,0
198868,-100,4,2,1,50,0,0
199067,-100,4,2,1,85,0,0
200068,-100,4,2,1,50,0,0
200267,-100,4,2,1,85,0,0
200867,-100,4,2,1,50,0,0
201067,-100,4,2,1,85,0,0
202667,-100,4,2,1,85,0,0
203467,-100,4,2,1,85,0,0
203767,-100,4,2,1,50,0,0
203867,-100,4,2,1,85,0,0
204067,-100,4,2,1,50,0,0
204168,-100,4,2,1,85,0,0
204267,-100,4,2,1,75,0,0
205067,-100,4,2,1,75,0,0
205368,-100,4,2,1,50,0,0
205468,-100,4,2,1,75,0,0
205768,-100,4,2,1,50,0,0
205867,-100,4,2,1,75,0,0
206667,-100,4,2,1,75,0,0
206968,-100,4,2,1,50,0,0
207068,-100,4,2,1,75,0,0
209067,-100,4,2,1,75,0,0
209867,-100,4,2,1,75,0,0
210168,-100,4,2,1,50,0,0
210268,-100,4,2,1,75,0,0
210667,-100,4,2,1,60,0,0
212468,-100,4,2,1,50,0,0
213868,-100,4,2,1,20,0,0

[Colours]
Combo1 : 199,139,203
Combo2 : 245,143,187
Combo3 : 241,225,160

[HitObjects]
77,193,2668,6,0,P|131:140|117:44,1,172.5,4|0,0:1|3:0,0:0:0:0:
54,8,3468,1,8,0:0:0:0:
182,67,3868,1,2,0:0:0:0:
304,195,4268,2,2,P|277:137|270:74,1,115,0|0,3:0|0:0,0:1:0:0:
356,27,4868,1,0,0:0:0:0:
441,97,5068,2,0,P|435:160|411:210,1,115,8|0,0:0|0:0,0:0:0:0:
239,284,5868,6,0,P|295:311|359:318,1,115,2|0,0:0|0:0,0:0:0:0:
455,371,6468,1,0,3:0:0:0:
455,371,6568,1,0,3:0:0:0:
455,371,6668,2,0,L|372:377,1,57.5,8|0,0:0|0:0,0:0:0:0:
317,323,7068,2,0,L|240:309,1,57.5
160,360,7468,2,0,P|172:286|79:239,1,172.5,2|0,0:0|3:0,0:0:0:0:
50,291,8268,2,0,B|44:230|65:201|65:201|87:171|78:123,1,172.5,8|0,0:0|0:0,0:0:0:0:
8,46,9068,6,0,L|18:167,1,115,2|0,0:0|3:0,0:0:0:0:
121,192,9668,1,2,0:3:0:0:
121,192,9868,2,0,L|136:69,1,115,8|0,0:0|3:0,0:0:0:0:
264,30,10668,2,0,L|384:57,2,115,4|0|8,0:3|3:0|0:0,0:0:0:0:
148,65,11868,1,0,0:0:0:0:
98,174,12268,6,0,P|41:137|20:80,1,115,2|0,0:1|3:0,0:0:0:0:
156,174,12868,1,0,3:0:0:0:
156,174,13068,2,0,P|135:222|63:259,1,115,8|0,0:0|0:0,0:0:0:0:
13,331,13668,1,2,0:0:0:0:
13,331,13868,2,0,P|57:306|134:300,1,115,2|0,3:2|0:0,0:0:0:0:
11,217,14468,1,0,3:0:0:0:
11,217,14668,2,0,P|88:258|118:296,1,115,2|0,3:2|0:0,0:0:0:0:
142,354,15268,1,2,0:0:0:0:
142,354,15468,6,0,L|207:366,2,57.5,2|0|0,0:0|0:0|3:0,0:0:0:0:
220,286,16068,1,0,3:0:0:0:
220,286,16268,2,0,L|291:271,2,57.5,2|0|0,3:0|0:0|0:0,0:0:0:0:
262,358,16868,1,0,0:0:0:0:
262,358,17068,1,2,0:0:0:0:
371,378,17468,2,0,L|403:322,1,57.5,2|0,0:0|0:0,0:0:0:0:
379,248,17868,2,0,L|457:244,1,57.5,8|0,0:0|0:0,0:0:0:0:
475,322,18268,2,0,L|496:255,1,57.5
495,185,18668,5,4,2:3:0:0:
495,185,19068,2,0,L|477:113,1,57.5
420,51,19468,2,0,L|479:25,2,57.5,2|0|2,0:0|0:0|0:0,0:0:0:0:
335,35,20068,1,0,0:0:0:0:
335,35,20168,1,0,0:0:0:0:
335,35,20268,1,2,1:2:0:0:
38,218,21868,6,0,L|176:205,1,115,4|4,1:0|0:3,0:0:0:0:
211,58,22568,1,2,0:3:0:0:
211,58,22668,2,0,L|162:4,1,57.5,0|0,1:0|0:0,0:0:0:0:
91,11,23068,2,0,L|84:78,1,57.5,2|0,1:2|0:0,0:0:0:0:
28,151,23468,2,0,L|163:179,1,115,4|0,0:3|3:0,0:0:0:0:
304,293,24168,1,2,0:3:0:0:
304,293,24268,2,0,L|287:352,1,57.5,6|0,1:3|3:0,0:0:0:0:
372,370,24668,2,0,L|422:324,1,57.5,4|0,1:3|3:0,0:0:0:0:
484,253,25068,6,0,L|348:233,1,115,2|2,3:2|1:2,0:0:0:0:
293,98,25768,1,0,3:0:0:0:
293,98,25868,2,0,L|311:37,1,57.5,8|2,1:2|0:0,0:0:0:0:
398,22,26268,1,2,3:2:0:0:
413,107,26468,1,0,3:0:0:0:
433,193,26668,2,0,P|418:249|288:266,1,201.25,2|2,3:2|0:0,0:0:0:0:
267,238,27468,1,8,1:2:0:0:
102,203,27868,1,2,1:2:0:0:
139,290,28068,1,0,3:0:0:0:
83,362,28268,5,4,0:0:0:0:
256,192,28368,12,2,30668,3:2:0:0:
408,146,31468,6,0,P|378:86|286:35,1,172.5,4|0,0:3|0:0,0:0:0:0:
217,73,32268,2,0,P|152:79|85:57,1,115,8|0,0:0|0:0,0:0:0:0:
34,28,32868,1,0,3:0:0:0:
34,28,33068,2,0,P|120:28|194:105,1,172.5,2|0,0:0|0:0,0:0:0:0:
200,167,33868,2,0,P|231:210|298:247,2,115,0|2|0,3:0|0:0|3:0,0:0:0:0:
25,318,35268,1,0,3:0:0:0:
0,242,35468,2,0,P|21:194|80:141,1,115,8|2,3:2|0:0,0:0:0:0:
192,310,36268,2,0,P|221:312|252:322,2,57.5,4|0|0,0:3|0:0|0:0,0:0:0:0:
131,357,36868,2,0,L|262:342,1,115,2|0,3:2|0:0,0:0:0:0:
328,365,37468,1,2,0:0:0:0:
400,329,37668,1,0,3:0:0:0:
470,371,37868,6,0,P|497:307|449:207,1,172.5,4|0,3:0|3:0,0:0:0:0:
386,150,38668,2,0,P|397:91|449:38,1,115,2|2,0:1|3:2,0:0:0:0:
340,136,39268,1,0,0:0:0:0:
270,193,39468,2,0,P|223:205|139:184,1,115,4|2,3:0|0:0,0:0:0:0:
69,148,40068,1,0,3:0:0:0:
69,148,40268,2,0,L|56:73,1,57.5,4|0,3:0|0:0,0:0:0:0:
23,22,40668,2,0,L|12:99,1,57.5,0|0,0:0|3:0,0:0:0:0:
0,155,41068,1,4,3:0:0:0:
217,379,41868,2,0,L|352:362,1,115,0|2,3:0|3:2,0:0:0:0:
416,344,42668,2,0,P|351:333|239:279,1,172.5,4|2,3:2|0:0,0:0:0:0:
218,212,43468,2,0,L|223:147,1,57.5,2|0,3:2|0:0,0:0:0:0:
510,32,44268,5,4,1:0:0:0:
367,52,45068,1,0,1:0:0:0:
502,112,45868,2,0,P|409:131|316:135,1,172.5,4|0,3:2|0:0,0:0:0:0:
270,94,46668,2,0,P|244:41|129:48,1,172.5,4|0,3:0|0:0,0:0:0:0:
80,90,47468,2,0,L|69:220,1,115,2|2,1:2|0:0,0:0:0:0:
30,339,48268,2,0,P|114:325|215:314,1,172.5,2|0,3:0|0:0,0:0:0:0:
291,301,49068,2,0,P|231:257|291:201,1,172.5,4|0,3:0|0:0,0:0:0:0:
382,216,49868,2,0,L|350:395,1,172.5,2|0,1:2|3:0,0:0:0:0:
453,319,50668,2,0,L|466:385,1,57.5,4|0,1:3|0:0,0:0:0:0:
322,203,51468,2,0,P|343:135|480:145,2,230,8|4|4,0:0|3:0|0:0,0:0:0:0:
253,379,53668,1,0,0:0:0:0:
253,379,53868,2,0,L|171:363,1,57.5,4|0,0:3|0:0,0:0:0:0:
20,239,54668,2,0,P|129:195|184:148,1,172.5,2|0,1:2|3:0,0:0:0:0:
195,91,55468,1,4,1:3:0:0:
72,300,56268,2,0,P|92:206|100:109,1,172.5,2|0,1:0|0:0,3:0:0:0:
45,62,57068,5,4,1:0:0:0:
207,26,57868,1,8,0:0:0:0:
207,26,58668,2,0,L|390:52,1,172.5,4|0,3:0|3:0,0:0:0:0:
461,34,59468,1,2,3:0:0:0:
405,180,59868,1,0,3:0:0:0:
483,313,60268,2,0,P|447:348|360:364,1,115,4|0,3:0|0:0,0:0:0:0:
252,339,61068,2,0,P|285:305|327:190,1,172.5,8|0,0:0|3:0,0:0:0:0:
314,83,61868,2,0,L|443:58,2,115,4|0|2,3:0|0:0|1:3,0:0:0:0:
134,154,63068,2,0,L|111:96,1,57.5
58,30,63468,6,0,L|43:167,1,115,4|0,0:0|3:0,0:0:0:0:
76,371,64268,2,0,P|157:314|233:284,1,172.5,2|0,3:0|3:0,0:0:0:0:
316,326,65068,2,0,L|439:344,2,115,4|0|4,3:0|1:0|3:0,0:0:0:0:
144,379,66268,2,0,L|88:381,2,28.75,0|0|0,1:0|0:0|0:0,0:0:0:0:
218,334,66668,2,0,B|265:283|228:227|228:227|194:169|252:103,1,230,4|8,1:3|0:0,0:0:0:0:
418,61,67868,2,0,L|442:5,2,57.5,0|0|2,3:0|3:0|0:0,0:0:0:0:
235,120,68668,1,4,1:3:0:0:
188,44,68868,1,0,3:0:0:0:
103,89,69068,2,0,L|34:108,1,57.5,4|4,1:2|1:3,0:0:0:0:
125,184,69468,1,8,0:3:0:0:
125,184,69568,1,0,0:0:0:0:
125,184,69668,1,12,0:3:0:0:
200,256,69868,6,0,P|189:315|94:348,1,137.999995788574,4|0,1:0|1:0,0:0:0:0:
314,322,70668,2,0,P|366:347|454:365,1,137.999995788574,8|8,0:0|3:3,0:0:0:0:
495,302,71268,1,4,3:3:0:0:
508,218,71468,2,2,P|458:178|408:100,1,137.999995788574,4|4,1:3|3:0,0:1:0:0:
434,39,72068,1,0,0:0:0:0:
362,0,72268,2,0,P|313:19|262:103,1,137.999995788574,0|0,1:0|3:0,0:0:0:0:
108,165,73068,6,0,P|170:197|260:214,1,137.999995788574,4|0,3:0|1:0,0:0:0:0:
300,341,73868,2,0,P|269:345|227:364,1,68.9999978942872,8|0,0:0|3:0,0:0:0:0:
159,384,74268,2,0,P|138:353|125:309,1,68.9999978942872,2|0,3:0|3:0,0:0:0:0:
169,249,74668,2,0,P|112:215|54:146,1,137.999995788574,4|4,0:0|3:0,0:0:0:0:
81,85,75268,1,2,0:0:0:0:
40,9,75468,2,0,L|126:2,1,68.9999978942872,0|8,1:0|0:3,0:0:0:0:
184,27,75868,1,4,3:0:0:0:
221,95,76068,1,4,3:0:0:0:
232,175,76268,6,0,P|311:155|380:162,1,137.999995788574,2|0,1:1|1:0,0:0:0:0:
217,281,77068,2,0,P|178:264|74:252,1,137.999995788574,2|0,1:0|1:0,0:0:0:0:
273,371,77868,2,0,P|323:357|405:315,2,137.999995788574,4|0|8,0:0|1:0|0:0,0:0:0:0:
85,300,79068,1,2,0:0:0:0:
85,300,79268,1,2,0:0:0:0:
12,250,79468,6,0,L|22:165,1,68.9999978942872,4|0,1:0|0:0,0:0:0:0:
110,216,79868,2,0,L|99:137,1,68.9999978942872,4|8,0:3|0:3,0:0:0:0:
192,235,80268,2,0,L|200:158,1,68.9999978942872,0|0,1:0|1:0,0:0:0:0:
286,212,80668,2,0,L|270:132,1,68.9999978942872,4|0,3:0|3:0,0:0:0:0:
341,65,81068,1,4,0:0:0:0:
357,205,81468,1,4,3:0:0:0:
380,346,81868,1,0,1:0:0:0:
461,369,82068,1,4,3:0:0:0:
489,291,82268,1,2,0:0:0:0:
489,291,82368,1,0,0:0:0:0:
489,291,82468,1,6,3:0:0:0:
411,240,82668,6,0,P|392:172|436:92,1,137.999995788574,4|2,1:0|3:0,0:0:0:0:
352,52,83268,1,0,0:0:0:0:
270,4,83468,2,0,P|260:66|203:143,1,137.999995788574,2|4,3:2|0:0,0:0:0:0:
33,238,84268,2,2,P|102:242|179:265,1,137.999995788574,0|4,0:0|3:0,0:1:0:0:
235,313,84868,1,0,3:0:0:0:
308,364,85068,2,0,P|359:344|448:299,1,137.999995788574,8|0,1:2|0:0,0:0:0:0:
321,149,85868,6,0,P|374:126|474:128,2,137.999995788574,4|2|8,3:0|1:2|1:2,0:0:0:0:
139,179,87068,1,2,0:0:0:0:
83,103,87268,1,2,0:0:0:0:
72,17,87468,2,0,P|61:78|-1:162,1,137.999995788574,4|4,0:0|3:0,0:0:0:0:
22,228,88068,1,2,3:0:0:0:
60,303,88268,2,0,P|109:288|148:262,1,68.9999978942872,0|4,1:0|3:0,0:0:0:0:
176,218,88668,1,4,3:0:0:0:
176,218,88768,1,2,3:0:0:0:
176,218,88868,1,4,1:3:0:0:
149,126,89068,6,0,L|163:55,2,68.9999978942872,4|0|2,1:2|0:0|3:0,0:0:0:0:
293,244,89868,2,0,P|341:218|364:202,1,68.9999978942872,0|0,1:0|0:0,0:0:0:0:
441,195,90268,2,0,P|453:146|450:120,1,68.9999978942872,4|4,3:0|3:0,0:0:0:0:
491,68,90668,2,0,P|487:104|472:156,1,68.9999978942872,4|0,1:2|0:0,0:0:0:0:
509,246,91068,2,0,P|486:274|449:307,1,68.9999978942872,4|0,1:3|0:0,0:0:0:0:
394,358,91468,2,0,L|372:268,1,68.9999978942872,8|10,1:2|0:3,0:0:0:0:
281,186,91868,2,0,L|274:272,1,68.9999978942872,4|2,3:0|3:0,0:0:0:0:
228,344,92268,5,4,1:0:0:0:
228,344,92668,2,0,L|152:353,2,57.5,2|0|2,0:0|0:0|1:2,0:0:0:0:
107,252,93468,1,2,0:0:0:0:
48,373,93868,2,2,P|34:285|133:226,1,206.999993682861,4|0,3:0|0:0,0:1:0:0:
186,173,94668,2,0,P|195:124|116:88,1,137.999995788574,2|2,3:0|0:0,0:0:0:0:
0,183,95468,1,4,1:0:0:0:
256,192,95568,12,0,97868,0:0:0:0:
325,44,98668,6,0,P|285:102|313:202,1,172.5,4|0,0:3|0:0,0:0:0:0:
401,233,99468,2,0,P|427:296|405:355,1,115,8|0,0:0|0:0,0:0:0:0:
332,368,100068,1,0,3:0:0:0:
332,368,100268,2,0,P|250:364|157:335,1,172.5,2|0,0:0|0:0,0:0:0:0:
90,269,101068,2,0,P|59:313|35:373,2,115,0|2|0,3:0|0:0|3:0,0:0:0:0:
17,43,102668,6,0,P|73:55|104:118,2,115,8|2|4,3:2|0:0|0:3,0:0:0:0:
0,126,103668,1,0,0:0:0:0:
39,205,103868,2,0,L|104:184,1,57.5,0|2,3:0|3:2,0:0:0:0:
256,73,104468,1,0,0:0:0:0:
320,124,104668,2,0,L|392:139,1,57.5,2|0,0:0|3:0,0:0:0:0:
465,82,105068,6,0,P|405:126|301:160,1,172.5,4|0,3:0|3:0,0:0:0:0:
237,198,105868,2,0,P|208:145|158:92,1,115,2|2,0:1|3:2,0:0:0:0:
117,184,106468,1,0,0:0:0:0:
117,184,106668,2,0,L|104:358,1,172.5,4|0,3:0|3:0,0:0:0:0:
17,295,107468,2,0,P|6:243|50:189,2,115,4|0|4,3:0|0:0|3:0,0:0:0:0:
341,371,109068,2,0,P|358:329|355:301,1,57.5,0|0,3:0|0:0,0:0:0:0:
414,246,109468,2,0,P|421:279|440:316,1,57.5,2|0,3:2|0:0,0:0:0:0:
495,353,109868,6,0,L|445:178,1,172.5,4|2,3:2|0:0,0:0:0:0:
454,81,110668,2,0,L|471:12,1,57.5,2|0,3:2|0:0,0:0:0:0:
510,352,111468,5,4,1:0:0:0:
367,332,112268,1,0,1:0:0:0:
502,272,113068,2,0,P|409:253|316:249,1,172.5,4|0,3:2|0:0,0:0:0:0:
270,290,113868,2,0,P|244:343|129:336,1,172.5,4|0,3:0|0:0,0:0:0:0:
80,294,114668,2,0,L|69:164,1,115,2|2,1:2|0:0,0:0:0:0:
30,45,115468,2,0,P|114:59|215:70,1,172.5,2|0,3:0|0:0,0:0:0:0:
291,83,116268,2,0,P|231:127|291:183,1,172.5,4|0,3:0|0:0,0:0:0:0:
382,168,117068,2,0,L|350:-11,1,172.5,2|0,1:2|3:0,0:0:0:0:
453,65,117868,2,0,L|466:-1,1,57.5,4|0,1:3|0:0,0:0:0:0:
322,181,118668,2,0,P|343:249|480:239,2,230,8|4|4,0:0|3:0|0:0,0:0:0:0:
253,5,120868,1,0,0:0:0:0:
253,5,121068,2,0,L|171:21,1,57.5,4|0,0:3|0:0,0:0:0:0:
20,145,121868,2,0,P|129:189|184:236,1,172.5,2|0,1:2|3:0,0:0:0:0:
195,293,122668,1,4,1:3:0:0:
72,84,123468,2,0,P|92:178|100:275,1,172.5,2|0,1:0|0:0,3:0:0:0:
45,322,124268,5,4,3:1:0:0:
207,358,125068,1,8,0:0:0:0:
207,358,125868,2,0,L|390:332,1,172.5,4|0,3:0|3:0,0:0:0:0:
461,350,126668,1,2,3:0:0:0:
405,204,127068,1,0,3:0:0:0:
483,71,127468,2,0,P|447:36|360:20,1,115,4|0,3:0|0:0,0:0:0:0:
252,45,128268,2,0,P|285:79|327:194,1,172.5,8|0,0:0|3:0,0:0:0:0:
314,301,129068,2,0,L|443:326,2,115,4|0|2,3:0|0:0|1:3,0:0:0:0:
134,230,130268,2,0,L|111:288,1,57.5
58,354,130668,6,0,L|43:217,1,115,4|0,0:0|3:0,0:0:0:0:
76,13,131468,2,0,P|157:70|233:100,1,172.5,2|0,3:0|3:0,0:0:0:0:
316,58,132268,2,0,L|439:40,2,115,4|0|4,3:0|1:0|3:0,0:0:0:0:
144,5,133468,2,0,L|88:3,2,28.75,0|0|0,1:0|0:0|0:0,0:0:0:0:
218,50,133868,2,0,B|265:101|228:157|228:157|194:215|252:281,1,230,4|8,1:3|0:0,0:0:0:0:
418,323,135068,2,0,L|442:379,2,57.5,0|0|2,3:0|3:0|0:0,0:0:0:0:
235,264,135868,1,4,1:3:0:0:
188,340,136068,1,0,3:0:0:0:
103,295,136268,2,0,L|34:276,1,57.5,4|4,1:2|1:3,0:0:0:0:
125,200,136668,1,8,0:3:0:0:
125,200,136768,1,0,0:0:0:0:
125,200,136868,1,12,0:3:0:0:
200,128,137068,6,0,P|189:69|94:36,1,137.999995788574,4|0,1:0|1:0,0:0:0:0:
336,46,137868,2,0,P|388:21|476:3,1,137.999995788574,8|8,0:0|3:3,0:0:0:0:
495,82,138468,1,4,3:3:0:0:
427,146,138668,2,2,P|399:205|406:289,1,137.999995788574,4|4,1:3|0:3,0:1:0:0:
451,352,139268,1,0,0:0:0:0:
363,384,139468,2,0,P|314:365|280:281,1,137.999995788574,0|0,1:0|3:0,0:0:0:0:
147,211,140268,6,0,P|209:179|299:162,1,137.999995788574,4|0,3:0|1:0,0:0:0:0:
307,30,141068,2,0,P|276:26|234:7,1,68.9999978942872,8|0,0:0|3:0,0:0:0:0:
157,11,141468,2,0,P|136:42|123:86,1,68.9999978942872,2|0,3:0|3:0,0:0:0:0:
175,141,141868,2,0,P|118:175|60:244,1,137.999995788574,4|4,0:0|3:0,0:0:0:0:
85,308,142468,1,2,0:0:0:0:
37,379,142668,2,0,L|123:386,1,68.9999978942872,0|8,1:0|0:3,0:0:0:0:
189,357,143068,1,4,3:0:0:0:
206,280,143268,1,4,3:0:0:0:
202,197,143468,6,0,P|281:217|350:210,1,137.999995788574,2|0,1:0|1:0,0:0:0:0:
192,86,144268,2,0,P|153:103|49:115,1,137.999995788574,2|0,1:0|1:0,0:0:0:0:
272,8,145068,2,0,P|322:22|404:64,2,137.999995788574,4|0|8,0:0|1:0|0:0,0:0:0:0:
88,104,146268,1,2,0:0:0:0:
88,104,146468,1,2,0:0:0:0:
5,129,146668,6,0,L|15:214,1,68.9999978942872,4|0,1:0|0:0,0:0:0:0:
100,158,147068,2,0,L|89:237,1,68.9999978942872,4|8,0:3|0:3,0:0:0:0:
176,131,147468,2,0,L|184:208,1,68.9999978942872,0|0,1:0|3:0,0:0:0:0:
269,164,147868,2,0,L|253:244,1,68.9999978942872,2|0,1:2|3:0,0:0:0:0:
299,305,148268,1,4,0:0:0:0:
384,184,148668,1,4,3:0:0:0:
380,38,149068,1,0,1:0:0:0:
469,37,149268,1,4,3:0:0:0:
489,123,149468,1,2,0:0:0:0:
489,123,149568,1,0,0:0:0:0:
489,123,149668,1,6,3:0:0:0:
422,175,149868,6,0,P|403:243|447:323,1,137.999995788574,4|2,1:0|3:0,0:0:0:0:
341,328,150468,1,0,0:0:0:0:
263,381,150668,2,0,P|253:319|196:242,1,137.999995788574,2|4,3:2|0:0,0:0:0:0:
54,114,151468,2,2,P|122:123|196:152,1,137.999995788574,0|4,0:0|3:0,0:1:0:0:
212,62,152068,1,0,3:0:0:0:
288,9,152268,2,0,P|339:29|424:86,1,137.999995788574,8|0,1:2|0:0,0:0:0:0:
349,271,153068,6,0,P|406:234|474:229,2,137.999995788574,4|2|8,3:0|1:2|1:2,0:0:0:0:
171,268,154268,1,2,0:0:0:0:
92,289,154468,1,2,0:0:0:0:
26,369,154668,2,0,P|57:315|63:210,1,137.999995788574,4|4,0:0|3:0,0:0:0:0:
31,162,155268,1,2,3:0:0:0:
60,84,155468,2,0,P|109:99|148:125,1,68.9999978942872,0|4,1:0|3:0,0:0:0:0:
177,187,155868,1,4,3:0:0:0:
177,187,155968,1,2,3:0:0:0:
177,187,156068,1,4,1:3:0:0:
141,265,156268,6,0,L|155:336,2,68.9999978942872,4|0|2,1:2|0:0|3:0,0:0:0:0:
280,139,157068,2,0,P|328:165|351:181,1,68.9999978942872,0|0,1:0|0:0,0:0:0:0:
432,178,157468,2,0,P|444:227|441:253,1,68.9999978942872,4|4,3:0|3:0,0:0:0:0:
474,359,157868,2,0,P|484:324|492:270,1,68.9999978942872,4|0,1:2|0:0,0:0:0:0:
512,190,158268,2,0,P|489:162|452:129,1,68.9999978942872,4|0,1:3|0:0,0:0:0:0:
381,46,158668,2,0,L|359:136,1,68.9999978942872,8|2,1:2|0:0,0:0:0:0:
279,220,159068,2,0,L|272:134,1,68.9999978942872,4|2,3:0|3:0,0:0:0:0:
211,62,159468,5,4,1:3:0:0:
211,62,159868,2,0,L|135:53,2,57.5,0|0|2,0:0|0:0|1:2,0:0:0:0:
129,131,160668,1,2,3:0:0:0:
50,60,161068,2,0,P|48:142|27:234,1,172.5,4|0,0:0|0:0,0:0:0:0:
92,297,161868,2,0,L|133:288,3,28.75,2|0|0|0,1:2|3:0|3:0|3:0,0:0:0:0:
157,322,162268,2,0,L|201:329,3,28.75,2|0|0|0,0:0|0:0|0:0|0:0,0:0:0:0:
207,372,162668,5,4,0:1:0:0:
441,345,163268,1,0,0:0:0:0:
441,345,163468,2,0,P|430:280|399:233,1,115,2|0,0:0|0:0,0:0:0:0:
319,193,164068,1,2,3:0:0:0:
319,193,164268,2,0,P|323:144|364:85,1,115,2|0,0:0|0:0,0:0:0:0:
427,40,164868,1,0,3:0:0:0:
427,40,165068,2,0,L|307:33,1,115,2|0,0:0|0:0,0:0:0:0:
102,38,165868,6,0,L|101:121,2,57.5,2|0|2,0:3|0:0|0:0,0:0:0:0:
31,138,166668,1,2,0:0:0:0:
34,320,167268,1,0,0:0:0:0:
34,320,167468,2,0,P|95:338|167:346,2,115,8|0|4,0:3|1:1|3:0,0:0:0:0:
92,246,168468,1,0,0:0:0:0:
92,246,168568,1,0,0:0:0:0:
92,246,168668,1,4,1:0:0:0:
150,89,169068,6,0,L|169:234,1,137.999995788574,4|2,1:0|1:2,0:0:0:0:
212,303,169668,2,0,P|217:321|233:353,1,34.4999989471436,0|2,0:0|0:0,0:0:0:0:
248,346,169868,2,0,L|268:213,1,103.499996841431,4|0,3:0|0:0,0:0:0:0:
285,231,170268,2,0,P|322:221|345:192,1,68.9999978942872,2|2,1:2|0:0,0:0:0:0:
396,98,170668,2,0,P|410:162|431:213,1,103.499996841431,4|2,3:0|0:0,0:0:0:0:
448,213,171068,1,2,1:2:0:0:
511,25,171468,2,0,P|470:82|418:111,1,103.499996841431,4|2,3:0|0:0,0:0:0:0:
414,93,171868,1,2,1:2:0:0:
261,6,172268,6,0,P|203:52|245:130,1,172.5,4|0,0:1|0:0,0:0:0:0:
181,188,173068,2,0,P|145:198|114:199,2,57.5,2|0|2,3:0|0:0|0:0,0:0:0:0:
323,261,173868,2,0,P|293:335|210:386,1,172.5,2|0,1:3|0:0,0:0:0:0:
156,328,174668,2,0,P|115:313|90:314,1,57.5,4|0,0:0|0:0,0:0:0:0:
38,355,175068,2,0,P|72:333|94:310,1,57.5,4|0,3:0|0:0,0:0:0:0:
79,243,175468,1,4,1:0:0:0:
256,192,175568,12,4,178668,0:1:0:0:
380,329,188268,5,2,3:0:0:0:
271,293,188668,1,2,3:0:0:0:
177,359,189068,1,2,1:3:0:0:
68,323,189468,1,2,1:2:0:0:
68,323,189868,2,0,P|71:282|52:231,1,86.25,4|2,1:3|0:0,0:0:0:0:
36,235,190268,1,2,1:2:0:0:
100,122,190668,2,0,P|134:102|154:86,1,57.5,4|4,1:3|3:0,0:0:0:0:
173,17,191068,1,8,0:0:0:0:
230,201,191468,6,0,P|255:142|328:92,1,137.999995788574,4|4,1:0|3:0,0:0:0:0:
377,292,192268,2,0,P|407:270|428:229,1,68.9999978942872,8|0,0:0|3:0,0:0:0:0:
499,193,192668,2,0,P|490:160|477:122,1,68.9999978942872,0|0,1:0|0:0,0:0:0:0:
427,22,193068,2,2,P|377:105|363:176,1,137.999995788574,4|4,1:2|3:0,1:0:0:0:
289,200,193668,1,2,0:0:0:0:
197,161,193868,2,0,P|184:103|106:36,1,137.999995788574,8|0,1:2|3:0,0:0:0:0:
45,224,194668,6,0,P|105:235|183:275,2,137.999995788574,4|2|8,1:3|0:0|1:2,0:0:0:0:
133,373,195868,1,2,0:0:0:0:
214,346,196068,1,2,0:0:0:0:
274,287,196268,2,0,P|305:232|379:211,1,137.999995788574,4|4,3:0|1:3,0:0:0:0:
443,168,196868,1,0,0:0:0:0:
443,168,197068,2,0,L|354:140,1,68.9999978942872,0|4,1:0|3:0,0:0:0:0:
292,124,197468,1,4,3:0:0:0:
425,12,197868,5,4,1:0:0:0:
376,259,198668,1,2,0:0:0:0:
479,291,199068,1,2,0:0:0:0:
406,369,199468,2,0,P|371:362|326:345,1,57.5,2|0,0:0|0:0,0:0:0:0:
276,315,199868,2,0,P|245:317|205:331,1,57.5,2|0,0:0|0:0,0:0:0:0:
150,266,200268,2,0,P|171:235|190:217,1,57.5,2|0,1:2|0:0,0:0:0:0:
265,197,200668,2,0,P|290:153|295:130,1,57.5,2|0,0:0|0:0,0:0:0:0:
265,62,201068,5,4,3:0:0:0:
63,206,201668,1,0,3:0:0:0:
63,206,201868,2,0,L|55:134,1,57.5,4|0,0:0|0:0,0:0:0:0:
238,303,202668,1,2,1:3:0:0:
462,250,203268,1,2,0:0:0:0:
462,250,203368,1,0,0:0:0:0:
462,250,203468,2,0,L|474:331,1,57.5,8|8,1:2|3:0,0:0:0:0:
398,364,203868,2,0,L|370:308,1,57.5,4|0,1:3|0:0,0:0:0:0:
342,227,204268,6,0,P|300:268|247:308,1,115,4|2,1:0|0:0,0:0:0:0:
79,299,204968,1,0,3:0:0:0:
79,299,205068,2,0,L|79:228,1,57.5,8|0,1:2|3:0,0:0:0:0:
161,190,205468,2,0,L|210:228,1,57.5,2|0,1:2|0:0,0:0:0:0:
263,148,205868,2,0,P|288:95|274:25,1,115,4|4,1:3|1:3,0:0:0:0:
449,1,206568,1,2,0:0:0:0:
449,1,206668,2,0,L|430:66,1,57.5,0|4,1:0|3:0,0:0:0:0:
406,129,207068,1,2,0:0:0:0:
508,260,207468,6,0,P|481:304|407:318,1,115,4|2,1:3|1:2,0:0:0:0:
238,351,208168,1,2,0:0:0:0:
238,351,208268,2,0,P|228:299|234:271,1,57.5,8|2,1:2|0:0,0:0:0:0:
250,220,208668,1,2,0:0:0:0:
217,146,208868,1,2,3:0:0:0:
139,113,209068,2,0,P|98:82|121:16,1,115,4|2,1:0|1:2,0:0:0:0:
89,190,209768,1,2,0:0:0:0:
89,190,209868,2,0,L|72:257,1,57.5,8|0,1:2|0:0,0:0:0:0:
9,296,210268,1,2,0:0:0:0:
44,372,210468,1,2,0:0:0:0:
124,355,210668,1,4,0:0:0:0:
256,192,210768,12,4,213868,0:0:0:0:
