osu file format v14

[General]
AudioFilename: audio.mp3
AudioLeadIn: 0
PreviewTime: 111418
Countdown: 0
SampleSet: Soft
StackLeniency: 0.7
Mode: 0
LetterboxInBreaks: 0
WidescreenStoryboard: 0

[Editor]
DistanceSpacing: 1
BeatDivisor: 8
GridSize: 4
TimelineZoom: 3.599998

[Metadata]
Title:Saigo no Hanabira (The meaning of love)
TitleUnicode:最後の花弁 (The meaning of love)
Artist:EGOIST
ArtistUnicode:EGOIST
Creator:anna apple
Version:Expert
Source:
Tags:chelly エゴイスト m2u pop japanese kakifly BANG!!! last flower petal jpop j-pop
BeatmapID:3062846
BeatmapSetID:1494327

[Difficulty]
HPDrainRate:6
CircleSize:4.5
OverallDifficulty:8.5
ApproachRate:8.5
SliderMultiplier:2.9
SliderTickRate:2

[Events]
//Background and Video events
0,0,"inoribg.jpg",0,0
//Break Periods
2,178868,187593
//Storyboard Layer 0 (Background)
//Storyboard Layer 1 (Fail)
//Storyboard Layer 2 (Pass)
//Storyboard Layer 3 (Foreground)
//Storyboard Layer 4 (Overlay)
//Storyboard Sound Samples

[TimingPoints]
2668,800,4,2,1,45,1,0
3067,-100,4,2,1,45,0,0
5567,-100,4,2,1,50,0,0
5868,-100,4,2,1,45,0,0
6868,-100,4,2,1,50,0,0
7068,-100,4,2,1,45,0,0
7268,-100,4,2,1,50,0,0
7468,-100,4,2,1,45,0,0
8767,-100,4,2,1,50,0,0
9068,-100,4,2,1,45,0,0
11668,-100,4,2,1,50,0,0
11868,-100,4,2,1,45,0,0
12218,-100,4,2,1,50,0,0
12268,-100,4,2,1,45,0,0
13867,-125,4,2,1,55,0,0
14667,-166.666666666667,4,2,1,65,0,0
15067,-100,4,2,1,65,0,0
15267,-100,4,2,1,65,0,0
15467,-166.666666666667,4,2,1,50,0,0
15667,-200,4,2,1,50,0,0
17068,-200,4,2,1,40,0,0
17867,-200,4,2,1,40,0,0
18067,-200,4,2,1,50,0,0
18267,-200,4,2,1,50,0,0
18467,-200,4,2,1,50,0,0
18667,-200,4,2,1,50,0,0
19267,-133.333333333333,4,2,1,50,0,0
19867,-83.3333333333333,4,2,1,50,0,0
20317,-100,4,2,1,10,0,0
21067,-100,4,2,1,60,0,0
21117,-100,4,2,1,30,0,0
21267,-100,4,2,1,50,0,0
21467,-100,4,2,1,70,0,0
21667,-100,4,2,1,100,0,0
21767,-100,4,2,1,60,0,0
21817,-100,4,2,1,100,0,0
21867,-58.8235294117647,4,2,1,75,0,0
22968,-58.8235294117647,4,2,1,50,0,0
23068,-58.8235294117647,4,2,1,75,0,0
23467,-83.3333333333333,4,2,1,75,0,0
24267,-58.8235294117647,4,2,1,75,0,0
24568,-58.8235294117647,4,2,1,50,0,0
24668,-58.8235294117647,4,2,1,75,0,0
24968,-58.8235294117647,4,2,1,50,0,0
25067,-83.3333333333333,4,2,1,75,0,0
27467,-58.8235294117647,4,2,1,75,0,0
27818,-58.8235294117647,4,2,1,50,0,0
27868,-58.8235294117647,4,2,1,75,0,0
28267,-133.333333333333,4,2,1,75,0,0
28368,-133.333333333333,4,2,1,50,0,0
28568,-133.333333333333,4,2,1,75,0,0
29067,-90.9090909090909,4,2,1,75,0,0
29367,-76.9230769230769,4,2,1,75,0,0
29667,-66.6666666666667,4,2,1,75,0,0
30518,-66.6666666666667,4,2,1,50,0,0
30568,-66.6666666666667,4,2,1,75,0,0
30618,-66.6666666666667,4,2,1,50,0,0
30668,-66.6666666666667,4,2,1,75,0,0
31267,-100,4,2,1,75,0,0
31467,-100,4,2,1,55,0,0
32068,-100,4,2,1,50,0,0
32268,-100,4,2,1,55,0,0
34468,-100,4,2,1,50,0,0
34667,-125,4,2,1,55,0,0
35467,-111.111111111111,4,2,1,55,0,0
35667,-111.111111111111,4,2,1,50,0,0
35868,-111.111111111111,4,2,1,55,0,0
36067,-111.111111111111,4,2,1,50,0,0
36268,-111.111111111111,4,2,1,55,0,0
36818,-111.111111111111,4,2,1,50,0,0
36868,-111.111111111111,4,2,1,55,0,0
37067,-111.111111111111,4,2,1,50,0,0
37268,-111.111111111111,4,2,1,55,0,0
37867,-83.3333333333333,4,2,1,55,0,0
38567,-83.3333333333333,4,2,1,50,0,0
38667,-66.6666666666667,4,2,1,55,0,0
39268,-66.6666666666667,4,2,1,50,0,0
39467,-76.9230769230769,4,2,1,55,0,0
40267,-90.9090909090909,4,2,1,55,0,0
42267,-76.9230769230769,4,2,1,55,0,0
42667,-133.333333333333,4,2,1,55,0,0
43168,-133.333333333333,4,2,1,50,0,0
43268,-133.333333333333,4,2,1,55,0,0
44168,-133.333333333333,4,2,1,50,0,0
44267,-74.0740740740741,4,2,1,50,0,0
45067,-133.333333333333,4,2,1,50,0,0
45867,-100,4,2,1,50,0,0
46667,-111.111111111111,4,2,1,50,0,0
48267,-153.846153846154,4,2,1,50,0,0
49067,-105.263157894737,4,2,1,50,0,0
49867,-133.333333333333,4,2,1,50,0,0
50667,-100,4,2,1,50,0,0
52267,-125,4,2,1,50,0,0
54667,-100,4,2,1,50,0,0
55467,-125,4,2,1,50,0,0
56267,-83.3333333333333,4,2,1,50,0,0
57867,-117.647058823529,4,2,1,50,0,0
58667,-100,4,2,1,50,0,0
61067,-133.333333333333,4,2,1,50,0,0
61867,-105.263157894737,4,2,1,50,0,0
62667,-83.3333333333333,4,2,1,50,0,0
63467,-66.6666666666667,4,2,1,50,0,0
64267,-80,4,2,1,50,0,0
66667,-100,4,2,1,50,0,0
68667,-58.8235294117647,4,2,1,50,0,0
69067,-100,4,2,1,50,0,0
69868,-58.8235294117647,4,2,1,75,0,1
70267,-66.6666666666667,4,2,1,75,0,1
70667,-76.9230769230769,4,2,1,75,0,1
70967,-76.9230769230769,4,2,1,50,0,1
71068,-76.9230769230769,4,2,1,75,0,1
71267,-58.8235294117647,4,2,1,75,0,1
71467,-90.9090909090909,4,2,1,75,0,1
73067,-66.6666666666667,4,2,1,75,0,1
73867,-76.9230769230769,4,2,1,75,0,1
74667,-90.9090909090909,4,2,1,75,0,1
76267,-58.8235294117647,4,2,1,75,0,1
78667,-76.9230769230769,4,2,1,75,0,1
79467,-58.8235294117647,4,2,1,75,0,1
79668,-58.8235294117647,4,2,1,50,0,1
79868,-58.8235294117647,4,2,1,75,0,1
80267,-66.6666666666667,4,2,1,75,0,1
82667,-66.6666666666667,4,2,1,75,0,1
84068,-66.6666666666667,4,2,1,50,0,1
84267,-50,4,2,1,75,0,1
84968,-50,4,2,1,50,0,1
85067,-71.4285714285714,4,2,1,75,0,1
85668,-71.4285714285714,4,2,1,50,0,1
85867,-83.3333333333333,4,2,1,75,0,1
86667,-68.9655172413793,4,2,1,75,0,1
87467,-90.9090909090909,4,2,1,75,0,1
89067,-66.6666666666667,4,2,1,75,0,1
90667,-58.8235294117647,4,2,1,75,0,1
90868,-58.8235294117647,4,2,1,50,0,1
91068,-58.8235294117647,4,2,1,75,0,1
91268,-58.8235294117647,4,2,1,50,0,1
91467,-50,4,2,1,75,0,1
92267,-100,4,2,1,75,0,1
93867,-100,4,2,1,75,0,1
95067,-100,4,2,1,75,0,1
95468,-100,4,2,1,75,0,0
97867,-100,4,2,1,5,0,0
98467,-100,4,2,1,75,0,0
98667,-100,4,2,1,50,0,0
101867,-125,4,2,1,50,0,0
102667,-111.111111111111,4,2,1,50,0,0
105067,-83.3333333333333,4,2,1,50,0,0
105867,-66.6666666666667,4,2,1,50,0,0
106667,-76.9230769230769,4,2,1,50,0,0
107467,-90.9090909090909,4,2,1,50,0,0
109467,-76.9230769230769,4,2,1,50,0,0
109867,-133.333333333333,4,2,1,50,0,0
111467,-74.0740740740741,4,2,1,50,0,0
112267,-133.333333333333,4,2,1,50,0,0
113067,-76.9230769230769,4,2,1,50,0,0
113867,-111.111111111111,4,2,1,50,0,0
114667,-90.9090909090909,4,2,1,50,0,0
115467,-153.846153846154,4,2,1,50,0,0
116267,-105.263157894737,4,2,1,50,0,0
117067,-133.333333333333,4,2,1,50,0,0
117867,-100,4,2,1,50,0,0
118667,-111.111111111111,4,2,1,50,0,0
119467,-125,4,2,1,50,0,0
121867,-100,4,2,1,50,0,0
122667,-125,4,2,1,50,0,0
123467,-83.3333333333333,4,2,1,50,0,0
125067,-117.647058823529,4,2,1,50,0,0
125867,-100,4,2,1,50,0,0
128267,-133.333333333333,4,2,1,50,0,0
129067,-105.263157894737,4,2,1,50,0,0
129867,-83.3333333333333,4,2,1,50,0,0
130667,-66.6666666666667,4,2,1,50,0,0
131467,-80,4,2,1,50,0,0
133867,-100,4,2,1,50,0,0
135867,-58.8235294117647,4,2,1,50,0,0
136267,-100,4,2,1,50,0,0
137068,-58.8235294117647,4,2,1,80,0,1
137467,-66.6666666666667,4,2,1,80,0,1
137867,-76.9230769230769,4,2,1,80,0,1
138167,-76.9230769230769,4,2,1,50,0,1
138268,-76.9230769230769,4,2,1,80,0,1
138467,-58.8235294117647,4,2,1,80,0,1
138667,-90.9090909090909,4,2,1,80,0,1
140267,-66.6666666666667,4,2,1,80,0,1
141067,-76.9230769230769,4,2,1,80,0,1
141867,-90.9090909090909,4,2,1,80,0,1
143467,-58.8235294117647,4,2,1,80,0,1
145867,-76.9230769230769,4,2,1,80,0,1
146667,-58.8235294117647,4,2,1,80,0,1
146868,-58.8235294117647,4,2,1,50,0,1
147068,-58.8235294117647,4,2,1,80,0,1
147467,-66.6666666666667,4,2,1,80,0,1
149867,-66.6666666666667,4,2,1,80,0,1
151268,-66.6666666666667,4,2,1,50,0,1
151467,-50,4,2,1,80,0,1
152168,-50,4,2,1,50,0,1
152267,-71.4285714285714,4,2,1,80,0,1
152868,-71.4285714285714,4,2,1,50,0,1
153067,-83.3333333333333,4,2,1,80,0,1
153867,-68.9655172413793,4,2,1,80,0,1
154667,-90.9090909090909,4,2,1,80,0,1
156267,-66.6666666666667,4,2,1,80,0,1
157867,-58.8235294117647,4,2,1,80,0,1
158068,-58.8235294117647,4,2,1,50,0,1
158268,-58.8235294117647,4,2,1,80,0,1
158468,-58.8235294117647,4,2,1,50,0,1
158667,-50,4,2,1,80,0,1
159467,-100,4,2,1,80,0,1
161067,-100,4,2,1,80,0,1
162267,-58.8235294117647,4,2,1,80,0,1
162668,-100,4,2,1,45,0,0
163068,-100,4,2,1,45,0,0
163268,-100,4,2,1,45,0,0
165067,-100,4,2,1,45,0,0
167467,-83.3333333333333,4,2,1,45,0,0
167667,-83.3333333333333,4,2,1,45,0,0
167868,-83.3333333333333,4,2,1,45,0,0
168067,-83.3333333333333,4,2,1,50,0,0
168268,-83.3333333333333,4,2,1,60,0,0
168667,-58.8235294117647,4,2,1,70,0,0
169068,-76.9230769230769,4,2,1,80,0,1
169568,-76.9230769230769,4,2,1,50,0,1
169668,-76.9230769230769,4,2,1,80,0,1
169867,-76.9230769230769,4,2,1,80,0,1
170667,-66.6666666666667,4,2,1,80,0,1
170868,-66.6666666666667,4,2,1,50,0,1
170968,-66.6666666666667,4,2,1,80,0,1
171268,-66.6666666666667,4,2,1,50,0,1
171467,-83.3333333333333,4,2,1,80,0,1
171667,-83.3333333333333,4,2,1,50,0,1
171768,-83.3333333333333,4,2,1,80,0,1
172067,-83.3333333333333,4,2,1,50,0,1
172268,-100,4,2,1,80,0,0
172967,-100,4,2,1,50,0,0
173067,-90.9090909090909,4,2,1,80,0,0
173767,-90.9090909090909,4,2,1,80,0,0
173867,-83.3333333333333,4,2,1,80,0,0
174567,-83.3333333333333,4,2,1,50,0,0
174667,-76.9230769230769,4,2,1,80,0,0
175267,-76.9230769230769,4,2,1,50,0,0
175467,-133.333333333333,4,2,1,80,0,0
176968,-133.333333333333,4,2,1,50,0,0
178667,-76.9230769230769,4,2,1,25,0,0
188268,-76.9230769230769,4,2,1,55,0,0
190667,-66.6666666666667,4,2,1,55,0,0
190968,-66.6666666666667,4,2,1,50,0,0
191067,-66.6666666666667,4,2,1,55,0,0
191368,-66.6666666666667,4,2,1,50,0,0
191468,-58.8235294117647,4,2,1,85,0,1
192267,-66.6666666666667,4,2,1,85,0,1
192568,-66.6666666666667,4,2,1,50,0,1
192668,-66.6666666666667,4,2,1,85,0,1
193867,-76.9230769230769,4,2,1,85,0,1
195768,-76.9230769230769,4,2,1,50,0,1
195868,-76.9230769230769,4,2,1,85,0,1
197868,-100,4,2,1,85,0,0
198868,-100,4,2,1,50,0,0
199067,-90.9090909090909,4,2,1,85,0,0
200068,-90.9090909090909,4,2,1,50,0,0
200267,-76.9230769230769,4,2,1,85,0,0
200867,-76.9230769230769,4,2,1,50,0,0
201067,-100,4,2,1,85,0,0
202667,-83.3333333333333,4,2,1,85,0,0
203467,-76.9230769230769,4,2,1,85,0,0
203767,-76.9230769230769,4,2,1,50,0,0
203867,-66.6666666666667,4,2,1,85,0,0
203968,-66.6666666666667,4,2,1,50,0,0
204067,-58.8235294117647,4,2,1,50,0,0
204168,-58.8235294117647,4,2,1,85,0,0
204267,-52.6315789473684,4,2,1,75,0,0
205067,-58.8235294117647,4,2,1,75,0,0
205368,-58.8235294117647,4,2,1,50,0,0
205468,-58.8235294117647,4,2,1,75,0,0
205768,-58.8235294117647,4,2,1,50,0,0
205867,-83.3333333333333,4,2,1,75,0,0
206667,-66.6666666666667,4,2,1,75,0,0
206968,-66.6666666666667,4,2,1,50,0,0
207068,-66.6666666666667,4,2,1,75,0,0
209067,-100,4,2,1,75,0,0
209867,-66.6666666666667,4,2,1,75,0,0
210168,-66.6666666666667,4,2,1,50,0,0
210268,-66.6666666666667,4,2,1,75,0,0
210667,-100,4,2,1,60,0,0
210868,-100,4,2,1,50,0,0
211468,-90.9090909090909,4,2,1,50,0,0
211768,-76.9230769230769,4,2,1,50,0,0
212068,-76.9230769230769,4,2,1,50,0,0
213068,-100,4,2,1,20,0,0

[Colours]
Combo1 : 199,139,203
Combo2 : 245,143,187
Combo3 : 241,225,160

[HitObjects]
406,384,2668,6,0,P|434:307|476:251,1,145,4|0,0:1|0:0,0:0:0:0:
309,305,3268,1,0,3:0:0:0:
261,185,3468,2,0,P|279:250|297:342,1,145,8|2,0:0|0:0,0:0:0:0:
100,39,4268,2,2,P|80:144|67:263,1,217.5,0|0,3:0|0:0,0:1:0:0:
150,312,5068,2,0,B|165:255|152:206|100:193|95:193|90:190|39:163|25:106|32:50,1,290,8|2,0:0|0:0,0:0:0:0:
43,52,6268,1,0,0:0:0:0:
229,188,6468,2,0,P|243:170|251:145,1,36.25,0|0,3:0|3:0,0:0:0:0:
205,77,6668,2,0,P|129:103|114:112,1,72.5,8|0,0:0|0:0,0:0:0:0:
57,215,7068,2,0,P|89:228|143:262,1,72.5
319,370,7468,2,0,P|346:325|238:325,1,217.5,2|0,0:0|3:0,0:0:0:0:
413,365,8268,2,0,P|376:273|376:149,1,217.5,8|0,0:0|0:0,0:0:0:0:
449,80,9018,1,0,0:0:0:0:
449,80,9068,6,0,P|366:74|305:43,1,145,2|0,0:0|3:0,0:0:0:0:
335,171,9668,1,2,0:3:0:0:
212,231,9868,2,0,P|325:192|376:190,1,145,8|0,0:0|3:0,0:0:0:0:
464,360,10668,2,0,L|299:341,1,145,4|0,0:3|3:0,0:0:0:0:
245,285,11268,1,2,0:0:0:0:
190,358,11468,2,0,L|102:373,1,72.5,8|0,0:0|0:0,0:0:0:0:
0,384,11868,1,0,0:0:0:0:
90,148,12218,1,0,0:0:0:0:
90,148,12268,2,0,P|119:218|132:301,1,145,2|0,0:1|3:0,0:0:0:0:
207,145,12868,1,0,3:0:0:0:
231,233,13068,2,0,P|240:165|270:85,1,145,8|0,0:0|0:0,0:0:0:0:
341,253,13668,1,2,0:0:0:0:
451,295,13868,2,0,P|378:246|357:221,1,116,2|0,3:2|0:0,0:0:0:0:
361,132,14468,1,0,3:0:0:0:
444,172,14668,2,0,P|414:135|389:88,1,86.9999973449708,2|0,3:2|0:0,0:0:0:0:
436,30,15268,1,2,0:0:0:0:
499,76,15468,6,0,L|504:132,2,43.4999986724854,2|0|0,0:0|0:0|3:0,0:0:0:0:
423,42,16068,1,0,3:0:0:0:
401,35,16268,2,0,L|387:-5,2,36.25,2|0|0,3:0|0:0|0:0,0:0:0:0:
329,64,16868,1,0,0:0:0:0:
318,81,17068,1,2,0:0:0:0:
192,211,17468,2,0,L|187:158,1,36.25,2|0,0:0|0:0,0:0:0:0:
121,145,17868,2,0,L|112:188,1,36.25,8|0,0:0|0:0,0:0:0:0:
49,205,18268,2,0,L|44:169,1,36.25
0,243,18668,1,4,2:3:0:0:
0,243,19068,2,0,L|49:254,1,36.25
59,283,19368,1,0,0:0:0:0:
59,283,19468,2,0,P|61:250|50:211,1,54.3750020742417,2|0,0:0|0:0,0:0:0:0:
140,335,19868,2,0,P|164:301|188:235,1,86.9999973449708,2|0,0:0|0:0,0:0:0:0:
308,195,20135,1,0,3:0:0:0:
317,182,20202,1,2,3:0:0:0:
319,167,20268,6,0,L|354:146,31,21.7499993362427,2|0|0|0|0|0|0|0|0|0|0|0|0|0|0|0|0|0|0|0|0|0|0|0|0|0|0|0|0|0|0|0,1:2|0:0|0:0|0:0|0:0|0:0|0:0|0:0|0:0|0:0|0:0|0:0|0:0|0:0|0:0|0:0|3:0|0:0|0:0|0:0|0:0|0:0|0:0|0:0|0:0|0:0|0:0|0:0|0:0|0:0|0:0|0:0,0:0:0:0:
319,167,21868,6,0,B|376:132|376:132|376:78|334:29|262:8,1,246.500004701614,4|4,1:0|0:3,0:0:0:0:
164,274,22568,1,2,0:3:0:0:
239,236,22668,2,0,P|295:285|341:387,1,184.875003526211,0|0,1:0|0:0,0:0:0:0:
174,351,23068,2,0,P|212:274|186:169,1,184.875003526211,2|0,1:2|0:0,0:0:0:0:
122,0,23468,2,0,P|88:50|183:17,1,260.999992034912,4|0,0:3|3:0,0:0:0:0:
48,64,24168,1,2,0:3:0:0:
123,159,24268,2,0,P|135:219|72:318,1,184.875003526211,6|0,1:3|0:0,0:0:0:0:
14,158,24668,2,0,P|101:115|140:33,1,184.875003526211,4|0,1:3|0:0,0:0:0:0:
0,146,25068,6,0,B|44:140|79:106|79:106|76:153|116:188|116:188,1,173.999994689942,2|2,3:2|1:2,0:0:0:0:
221,28,25768,1,0,3:0:0:0:
233,71,25868,1,8,1:2:0:0:
310,54,26068,1,2,0:0:0:0:
376,95,26268,1,2,3:2:0:0:
386,172,26468,1,0,3:0:0:0:
353,243,26668,2,0,P|392:301|460:303,1,130.499996017456,2|4,3:2|0:3,0:0:0:0:
296,189,27068,1,4,3:0:0:0:
137,308,27368,1,2,0:0:0:0:
105,234,27468,2,0,P|114:326|215:348,1,184.875003526211,8|2,1:2|0:1,0:0:0:0:
258,325,27818,1,0,0:0:0:0:
265,317,27868,1,2,1:2:0:0:
344,335,28068,1,0,3:0:0:0:
405,379,28268,6,0,L|443:382,5,27.1875010371209,4|0|0|0|2|0,0:0|0:0|0:0|0:0|0:0|0:0,0:0:0:0:
482,315,28868,1,2,3:2:0:0:
482,315,28968,1,0,0:0:0:0:
428,311,29068,2,0,L|477:321,1,39.8750012168885,2|0,1:2|3:0,0:0:0:0:
468,232,29268,1,2,0:0:0:0:
435,235,29368,2,0,L|490:245,1,47.1249978427888,2|0,3:2|3:0,0:0:0:0:
465,138,29568,1,0,3:0:0:0:
438,154,29668,2,0,B|411:163|385:150|385:150|364:174|317:174,1,108.750004148483,2|4,0:0|3:0,0:0:0:0:
59,36,30518,2,0,L|88:5,3,27.1875010371209,0|2|0|2,0:0|0:0|0:0|3:2,0:0:0:0:
0,0,31268,5,0,0:0:0:0:
5,133,31468,2,0,P|23:169|123:201,1,145,4|0,0:3|0:0,0:0:0:0:
230,85,32068,1,0,0:0:0:0:
365,181,32268,2,0,P|345:255|281:288,1,145,8|0,0:0|0:0,0:0:0:0:
118,209,32868,1,0,3:0:0:0:
12,306,33068,2,0,B|49:320|83:310|83:310|96:339|139:364,1,145,2|2,0:0|0:0,0:0:0:0:
287,382,33668,1,0,0:0:0:0:
399,343,33868,2,0,P|409:308|412:265,2,72.5,0|0|2,3:0|0:0|0:0,0:0:0:0:
310,291,34468,1,0,0:0:0:0:
263,230,34668,2,0,P|255:184|285:109,1,116,0|0,3:0|0:0,0:0:0:0:
422,101,35268,1,0,3:0:0:0:
512,17,35468,2,0,P|482:24|449:34,1,65.2499980087281,8|0,3:2|0:0,0:0:0:0:
345,96,35868,2,0,P|378:104|408:116,1,65.2499980087281,2|0,0:0|0:0,0:0:0:0:
512,212,36268,1,4,0:3:0:0:
495,287,36468,1,0,0:0:0:0:
428,349,36668,1,0,0:0:0:0:
331,375,36818,1,0,0:0:0:0:
331,375,36868,2,0,L|263:364,1,65.2499980087281,2|0,3:2|0:0,0:0:0:0:
57,216,37268,1,0,0:0:0:0:
102,279,37468,1,2,0:0:0:0:
68,205,37668,5,0,3:0:0:0:
28,361,37868,2,0,P|114:303|134:227,1,173.999994689942,4|0,3:0|0:0,0:0:0:0:
46,135,38468,2,0,P|64:106|75:99,1,43.4999986724854,0|0,3:0|0:0,0:0:0:0:
194,72,38668,2,0,P|130:108|87:2,1,217.500008296967,2|2,0:1|3:2,0:0:0:0:
230,160,39268,1,0,0:0:0:0:
327,293,39468,2,0,P|375:278|414:247,2,94.2499956855776,4|0|2,3:0|3:0|0:0,0:0:0:0:
198,228,40068,1,0,3:0:0:0:
74,275,40268,2,0,P|94:340|176:385,1,159.500004867554,4|0,3:0|0:0,0:0:0:0:
277,326,40868,1,0,3:0:0:0:
378,384,41068,2,0,P|408:308|459:242,1,159.500004867554,4|0,3:0|0:0,0:0:0:0:
258,140,41868,2,0,P|309:123|340:106,1,79.7500024337769,0|0,3:0|0:0,0:0:0:0:
161,207,42268,2,0,P|149:262|148:300,1,94.2499956855776,2|0,3:2|0:0,0:0:0:0:
151,89,42668,2,0,P|118:51|62:29,1,108.75,4|0,3:2|0:0,0:0:0:0:
228,171,43168,1,0,0:0:0:0:
267,151,43268,1,2,0:0:0:0:
298,129,43368,1,2,0:0:0:0:
324,101,43468,2,0,B|358:59|355:14|355:14|375:53|435:68,1,190.312507259846,2|0,3:2|0:0,0:0:0:0:
486,133,44268,6,0,P|436:141|376:155,1,97.8750003733635,4|0,1:0|3:0,0:0:0:0:
297,227,45068,2,0,P|333:185|371:145,1,108.750004148483,0|0,1:0|0:0,0:0:0:0:
342,338,45868,2,0,P|220:286|99:244,1,253.75,4|0,3:2|0:0,0:0:0:0:
56,139,46668,2,0,P|72:202|87:269,1,130.499996017456,4|2,3:0|3:0,0:0:0:0:
145,96,47268,1,0,0:0:0:0:
202,169,47468,2,0,P|210:137|220:101,1,65.2499980087281,2|0,1:2|3:0,0:0:0:0:
300,50,47868,1,2,0:0:0:0:
300,50,48068,1,0,0:0:0:0:
350,146,48268,2,0,P|387:114|429:86,1,94.2499956855776,2|0,3:0|3:0,0:0:0:0:
512,94,48868,1,0,0:0:0:0:
479,0,49068,2,0,P|497:86|508:210,1,206.624994482517,4|0,3:0|0:0,0:0:0:0:
404,69,49868,2,0,P|393:122|376:179,1,108.750004148483,2|0,1:2|0:0,0:0:0:0:
306,147,50468,1,0,3:0:0:0:
424,61,50668,2,0,P|428:92|431:135,1,72.5,4|0,1:3|0:0,0:0:0:0:
135,299,51468,6,0,P|198:338|277:359,1,145,8|2,0:0|0:0,0:0:0:0:
381,288,52068,1,0,0:0:0:0:
454,364,52268,2,0,P|423:328|389:208,1,174,4|0,3:0|0:0,0:0:0:0:
294,345,53068,2,0,P|285:258|269:229,1,116,4|0,0:0|0:0,0:0:0:0:
170,178,53668,1,0,0:0:0:0:
100,163,53868,2,0,P|125:179|151:193,1,58,4|0,0:3|0:0,0:0:0:0:
0,0,54668,2,0,P|7:77|56:140,1,145,2|0,1:2|0:0,0:0:0:0:
205,164,55268,1,0,3:0:0:0:
366,81,55468,2,0,P|338:142|312:247,1,174,4|2,1:3|3:0,0:0:0:0:
392,377,56268,2,0,P|359:258|294:79,1,304.499990707398,2|0,1:0|0:0,3:0:0:0:
183,9,57068,6,0,L|277:50,1,86.9999973449708,4|0,1:0|0:0,0:0:0:0:
380,50,57868,1,8,0:0:0:0:
380,50,57968,2,0,L|279:71,1,92.4375017631054,0|2,0:0|3:0,0:0:0:0:
225,88,58368,1,0,0:0:0:0:
225,88,58468,1,0,0:0:0:0:
69,184,58668,1,4,3:0:0:0:
69,184,58768,2,0,P|112:146|145:100,1,108.75,0|2,3:0|3:2,0:0:0:0:
170,257,59268,1,0,3:0:0:0:
229,169,59468,2,0,P|216:240|204:322,1,145,2|0,3:0|3:0,0:0:0:0:
272,384,60068,1,0,3:0:0:0:
332,310,60268,2,0,L|369:385,2,72.5,4|0|0,3:0|0:0|0:0,0:0:0:0:
373,233,60868,1,0,0:0:0:0:
507,252,61068,2,0,P|451:235|393:213,1,108.750004148483,8|2,0:0|3:0,0:0:0:0:
354,150,61668,1,0,3:0:0:0:
225,180,61868,2,0,P|290:147|343:105,1,137.749996321678,4|0,3:0|0:0,0:0:0:0:
409,12,62468,1,0,3:0:0:0:
433,152,62668,2,0,P|378:69|483:94,1,260.999992034912,2|0,1:3|0:0,0:0:0:0:
328,219,63468,2,0,P|281:138|200:33,1,217.500008296967,4|0,0:0|3:0,0:0:0:0:
274,384,64268,6,0,P|182:360|78:341,1,181.25,2|0,3:0|3:0,0:0:0:0:
19,353,64768,1,0,3:0:0:0:
19,353,64868,1,0,3:0:0:0:
111,172,65068,2,0,P|116:288|29:228,1,271.875,4|8,3:0|3:0,0:0:0:0:
238,205,65868,2,0,P|289:140|300:26,1,181.25,4|0,3:0|1:0,0:0:0:0:
361,237,66468,1,0,0:0:0:0:
282,375,66668,2,0,P|381:284|452:138,1,290,4|8,1:3|0:0,0:0:0:0:
484,11,67868,2,0,P|460:38|445:71,2,72.5,0|0|2,3:0|3:0|0:0,0:0:0:0:
394,349,68668,6,0,P|453:364|514:384,1,123.250002350807,4|0,1:3|3:0,0:0:0:0:
217,384,69068,1,4,1:2:0:0:
259,349,69168,1,0,0:0:0:0:
278,298,69268,1,4,1:3:0:0:
321,331,69368,1,0,0:0:0:0:
372,349,69468,2,0,P|405:348|454:326,1,72.5,8|12,0:3|0:3,0:0:0:0:
512,290,69868,6,0,B|450:259|422:207|422:207|366:235|297:220,1,246.500004701614,4|0,1:0|1:0,0:0:0:0:
117,0,70668,2,0,P|151:36|192:123,1,141.374993528366,8|0,0:0|0:0,0:0:0:0:
157,181,71068,1,8,3:3:0:0:
0,338,71268,2,0,P|22:360|55:381,1,61.6250011754036,4|0,3:3|3:0,0:0:0:0:
240,281,71468,6,2,P|166:306|78:328,1,159.500004867554,4|4,1:3|3:0,0:1:0:0:
177,174,72068,1,0,0:0:0:0:
2,154,72268,2,0,P|59:101|130:45,1,159.500004867554,0|0,1:0|3:0,0:0:0:0:
255,382,73068,6,0,B|301:343|356:351|356:351|364:294|430:248,1,217.500008296967,4|0,3:0|1:0,0:0:0:0:
460,0,73868,2,0,P|490:56|505:96,1,94.2499956855776,8|0,0:0|3:0,0:0:0:0:
390,235,74268,2,0,P|329:216|290:198,1,94.2499956855776,2|0,3:0|3:0,0:0:0:0:
116,361,74668,6,0,P|150:287|167:201,1,159.500004867554,4|4,0:0|3:0,0:0:0:0:
306,331,75268,1,2,0:0:0:0:
341,150,75468,1,0,1:0:0:0:
490,273,75668,1,8,0:3:0:0:
346,229,75868,1,4,3:0:0:0:
422,313,76068,1,4,3:0:0:0:
323,333,76268,6,0,P|243:323|153:271,1,184.875003526211,2|0,1:1|0:0,0:0:0:0:
127,182,76668,2,0,P|144:241|150:330,1,123.250002350807,0|0,1:0|0:0,0:0:0:0:
268,186,77068,2,0,P|176:162|95:114,1,184.875003526211,2|0,1:0|3:0,0:0:0:0:
0,91,77468,2,0,P|56:89|132:72,1,123.250002350807,0|0,1:0|0:0,0:0:0:0:
132,338,77868,6,0,P|193:279|241:186,1,184.875003526211,4|0,0:0|0:0,0:0:0:0:
358,114,78268,2,0,P|295:163|256:207,1,123.250002350807,0|0,1:0|0:0,0:0:0:0:
494,366,78668,2,0,P|461:295|370:233,1,188.499991371155,8|2,0:0|0:0,0:0:0:0:
234,261,79268,1,2,0:0:0:0:
432,105,79468,6,0,P|451:166|459:247,1,123.250002350807,4|0,1:0|0:0,0:0:0:0:
318,49,79868,2,0,P|288:105|236:168,1,123.250002350807,4|8,0:3|0:3,0:0:0:0:
90,350,80268,2,0,P|76:298|52:250,1,108.750004148483,0|0,1:0|1:0,0:0:0:0:
236,194,80668,2,0,P|189:166|138:151,1,108.750004148483,4|0,3:0|3:0,0:0:0:0:
359,384,81068,2,0,P|330:325|449:266,1,217.500008296967,4|4,0:0|3:0,0:0:0:0:
339,0,81868,5,0,1:0:0:0:
374,122,82068,1,8,0:3:0:0:
499,165,82268,1,4,0:3:0:0:
483,346,82468,1,6,3:0:0:0:
265,384,82668,6,0,P|320:283|341:169,1,217.500008296967,4|2,1:0|3:0,0:0:0:0:
114,8,83468,2,0,P|95:60|61:114,1,108.750004148483,2|0,3:2|0:0,0:0:0:0:
52,246,83768,1,0,0:0:0:0:
52,246,83868,2,0,P|92:198|146:164,1,108.750004148483,4|0,0:0|0:0,0:0:0:0:
296,17,84268,6,2,P|275:110|413:57,1,290,0|4,0:0|3:0,0:1:0:0:
187,151,84868,2,0,P|174:184|169:233,1,72.5,0|0,3:0|0:0,0:0:0:0:
286,378,85068,2,0,P|269:331|393:287,1,202.999993804932,8|0,1:2|0:0,0:0:0:0:
512,258,85668,1,0,0:0:0:0:
502,140,85868,6,0,P|471:219|460:327,1,173.999994689942,4|2,3:0|1:2,0:0:0:0:
348,41,86668,2,0,P|302:126|204:193,1,210.250006416321,8|2,1:2|0:0,0:0:0:0:
19,82,87268,1,2,0:0:0:0:
38,296,87468,6,0,P|94:219|116:157,1,159.500004867554,4|4,0:0|3:0,0:0:0:0:
202,290,88068,1,2,3:0:0:0:
339,209,88268,2,0,P|338:304|357:367,1,159.500004867554,0|4,1:0|3:0,0:0:0:0:
454,381,88768,1,2,3:0:0:0:
454,381,88868,1,4,1:3:0:0:
454,381,88968,1,2,3:0:0:0:
336,380,89068,6,0,B|248:356|248:356|219:284|248:201|337:158,1,326.25001244545,4|0,1:2|0:0,0:0:0:0:
110,44,89868,2,0,P|160:30|230:18,1,108.750004148483,0|0,1:0|0:0,0:0:0:0:
54,173,90268,2,0,P|105:189|172:220,1,108.750004148483,4|4,3:0|3:0,0:0:0:0:
341,384,90668,6,0,P|325:329|288:253,1,123.250002350807,4|0,1:2|0:0,0:0:0:0:
504,238,91068,2,0,P|454:210|373:182,1,123.250002350807,4|0,1:3|0:0,0:0:0:0:
206,30,91468,2,0,P|239:101|258:171,1,145,8|10,1:2|0:3,0:0:0:0:
452,37,91868,2,0,P|445:114|426:185,1,145,4|2,3:0|3:0,0:0:0:0:
162,299,92268,6,0,B|239:288|291:323|295:326|297:329|357:368|442:358,1,290,4|2,1:0|1:2,0:0:0:0:
98,333,93868,2,2,B|145:271|206:259|211:258|215:259|285:243|338:176,1,290,4|2,3:0|3:0,0:1:0:0:
320,90,95068,1,2,0:0:0:0:
73,377,95468,5,4,1:0:0:0:
256,192,95568,12,0,97868,0:0:0:0:
34,361,98468,5,0,0:0:0:0:
21,236,98668,2,0,P|69:193|150:188,1,145,4|0,0:3|0:0,0:0:0:0:
259,287,99268,1,0,0:0:0:0:
421,274,99468,2,0,P|472:213|462:147,1,145,8|0,0:0|0:0,0:0:0:0:
303,135,100068,1,0,3:0:0:0:
240,0,100268,2,0,B|278:10|299:38|299:38|327:22|376:27,1,145,2|2,0:0|0:0,0:0:0:0:
502,59,100868,1,0,0:0:0:0:
443,145,101068,2,0,P|435:179|434:221,2,72.5,0|0|2,3:0|0:0|0:0,0:0:0:0:
491,53,101668,1,0,0:0:0:0:
401,64,101868,2,0,P|332:54|288:28,1,116,0|0,3:0|0:0,0:0:0:0:
362,327,102668,2,0,P|330:343|288:354,1,65.2499980087281,8|0,3:2|0:0,0:0:0:0:
190,278,103068,2,0,P|222:281|254:280,1,65.2499980087281,2|0,0:0|0:0,0:0:0:0:
317,177,103468,1,4,0:3:0:0:
285,104,103668,1,0,0:0:0:0:
198,53,103868,1,0,3:0:0:0:
90,60,104018,1,0,0:0:0:0:
90,60,104068,2,0,L|21:46,1,65.2499980087281,2|0,3:2|0:0,0:0:0:0:
110,205,104468,1,0,0:0:0:0:
29,235,104668,1,2,0:0:0:0:
123,214,104868,5,0,3:0:0:0:
50,364,105068,2,0,P|100:288|187:260,1,173.999994689942,4|0,3:0|0:0,0:0:0:0:
328,314,105668,2,0,P|344:299|365:274,1,43.4999986724854,0|0,3:0|0:0,0:0:0:0:
415,173,105868,2,0,P|386:235|508:279,1,217.500008296967,2|2,0:1|3:2,0:0:0:0:
340,138,106468,1,0,0:0:0:0:
176,123,106668,2,0,P|140:154|115:196,2,94.2499956855776,4|0|2,3:0|3:0|0:0,0:0:0:0:
314,152,107268,1,0,3:0:0:0:
425,71,107468,2,0,P|391:25|290:1,1,159.500004867554,4|0,3:0|0:0,0:0:0:0:
212,83,108068,1,0,3:0:0:0:
124,15,108268,2,0,P|87:54|-4:114,1,159.500004867554,4|0,3:0|0:0,0:0:0:0:
213,259,109068,2,0,P|162:276|131:293,1,79.7500024337769,0|0,3:0|0:0,0:0:0:0:
310,192,109468,2,0,P|322:137|323:99,1,94.2499956855776,2|0,3:2|0:0,0:0:0:0:
320,310,109868,2,0,P|353:348|409:370,1,108.75,4|0,3:2|0:0,0:0:0:0:
259,259,110368,1,0,0:0:0:0:
215,265,110468,1,2,0:0:0:0:
179,277,110568,1,2,0:0:0:0:
146,295,110668,2,0,P|87:303|12:208,1,190.312507259846,2|0,3:2|0:0,0:0:0:0:
41,141,111468,6,0,P|56:188|73:245,1,97.8750003733635,4|0,1:0|3:0,0:0:0:0:
86,346,112268,2,0,L|102:234,1,108.750004148483,0|0,1:0|0:0,0:0:0:0:
261,174,113068,2,0,P|221:147|171:116,1,94.2499956855776,4|0,3:2|3:0,0:0:0:0:
44,116,113868,2,0,P|108:107|175:98,1,130.499996017456,4|2,3:0|3:0,0:0:0:0:
331,17,114668,2,0,P|369:34|418:59,1,79.7500024337769,2|0,1:2|3:0,0:0:0:0:
493,33,115068,1,2,0:0:0:0:
493,33,115268,1,0,0:0:0:0:
491,132,115468,2,0,P|447:140|398:151,1,94.2499956855776,2|0,3:0|3:0,0:0:0:0:
333,207,116068,1,0,0:0:0:0:
291,130,116268,2,0,P|328:187|359:249,1,137.749996321678,4|0,3:0|0:0,0:0:0:0:
286,37,117068,2,0,P|234:50|173:71,1,108.750004148483,2|0,1:2|0:0,0:0:0:0:
35,187,117868,2,0,P|17:154|-4:117,1,72.5,4|0,1:3|0:0,0:0:0:0:
38,0,118668,6,0,P|41:67|48:140,1,130.499996017456,8|2,0:0|0:0,0:0:0:0:
112,217,119268,1,0,0:0:0:0:
42,257,119468,2,0,P|100:267|162:281,1,116,4|2,3:0|3:0,0:0:0:0:
338,347,120268,2,0,P|279:359|218:373,1,116,4|0,0:0|0:0,0:0:0:0:
166,327,120868,1,0,0:0:0:0:
235,289,121068,2,0,P|202:292|178:296,1,58,4|0,0:3|0:0,0:0:0:0:
435,319,121868,2,0,P|407:260|336:216,1,145,2|0,1:2|0:0,0:0:0:0:
217,20,122668,2,0,P|229:80|246:134,1,116,4|0,1:3|0:0,0:0:0:0:
450,0,123468,2,0,P|399:62|362:152,1,173.999994689942,2|0,1:0|0:0,3:0:0:0:
427,284,124068,1,0,0:0:0:0:
316,297,124268,6,0,P|361:302|407:309,1,86.9999973449708,4|0,3:1|3:0,0:0:0:0:
512,384,125068,1,8,0:0:0:0:
512,384,125168,2,0,P|465:360|419:340,1,92.4375017631054,0|2,0:0|3:0,0:0:0:0:
365,327,125568,1,0,0:0:0:0:
365,327,125668,1,0,0:0:0:0:
272,207,125868,1,4,3:0:0:0:
272,207,125968,2,0,P|246:258|241:318,1,108.75,0|2,3:0|3:2,0:0:0:0:
159,192,126468,1,0,3:0:0:0:
122,285,126668,2,0,P|108:208|90:133,1,145,2|0,3:0|3:0,0:0:0:0:
23,64,127268,1,0,3:0:0:0:
103,12,127468,2,0,P|123:39|145:73,2,72.5,4|0|0,3:0|0:0|0:0,0:0:0:0:
227,63,128068,1,0,0:0:0:0:
348,43,128268,2,0,P|295:59|246:88,1,108.750004148483,8|2,0:0|3:0,0:0:0:0:
197,159,128868,1,0,3:0:0:0:
59,125,129068,2,0,P|124:150|190:190,1,137.749996321678,4|0,3:0|0:0,0:0:0:0:
269,267,129668,1,0,3:0:0:0:
309,118,129868,2,0,P|260:215|369:217,1,260.999992034912,2|0,1:3|0:0,0:0:0:0:
159,189,130668,2,0,P|116:279|28:375,1,217.500008296967,4|0,0:0|3:0,0:0:0:0:
255,14,131468,6,0,P|174:51|72:69,1,181.25,2|0,3:0|3:0,0:0:0:0:
0,34,131968,1,0,3:0:0:0:
0,34,132068,1,0,3:0:0:0:
83,223,132268,2,0,P|116:164|1:191,1,271.875,4|8,3:0|3:0,0:0:0:0:
211,177,133068,2,0,P|275:244|303:343,1,181.25,4|0,3:0|1:0,0:0:0:0:
404,159,133668,1,0,0:0:0:0:
272,25,133868,2,0,P|377:72|491:208,1,290,4|8,1:3|0:0,0:0:0:0:
438,366,135068,2,0,P|455:322|474:291,2,72.5,0|0|2,3:0|3:0|0:0,0:0:0:0:
375,53,135868,6,0,P|442:32|510:14,1,123.250002350807,4|0,1:3|3:0,0:0:0:0:
199,35,136268,1,4,1:2:0:0:
248,56,136368,1,0,0:0:0:0:
279,100,136468,1,4,1:3:0:0:
318,61,136568,1,0,0:0:0:0:
370,46,136668,2,0,P|404:44|454:49,1,72.5,8|12,0:3|0:3,0:0:0:0:
493,121,137068,6,0,B|427:131|379:90|379:90|363:155|292:177,1,246.500004701614,4|0,1:0|1:0,0:0:0:0:
58,364,137868,2,0,P|91:286|137:225,1,141.374993528366,8|0,0:0|0:0,0:0:0:0:
197,203,138268,1,8,3:3:0:0:
161,41,138468,2,0,P|137:16|105:-7,1,61.6250011754036,4|0,3:3|3:0,0:0:0:0:
9,110,138668,6,2,P|117:52|149:19,1,159.500004867554,4|4,1:3|0:3,0:1:0:0:
146,174,139268,1,0,0:0:0:0:
287,130,139468,2,0,P|251:247|252:293,1,159.500004867554,0|0,1:0|3:0,0:0:0:0:
156,0,140268,6,0,B|103:43|101:90|101:90|51:83|-13:125,1,217.500008296967,4|0,3:0|1:0,0:0:0:0:
65,383,141068,2,0,P|40:338|24:284,1,94.2499956855776,8|0,0:0|3:0,0:0:0:0:
156,169,141468,2,0,P|206:174|254:193,1,94.2499956855776,2|0,3:0|3:0,0:0:0:0:
245,0,141868,6,0,P|254:77|282:159,1,159.500004867554,4|4,0:0|3:0,0:0:0:0:
132,47,142468,1,2,0:0:0:0:
176,219,142668,1,0,1:0:0:0:
30,242,142868,1,8,0:3:0:0:
139,139,143068,1,4,3:0:0:0:
34,116,143268,1,4,3:0:0:0:
130,28,143468,6,0,P|212:65|274:141,1,184.875003526211,2|0,1:0|0:0,0:0:0:0:
291,213,143868,2,0,P|294:140|321:76,1,123.250002350807,0|0,1:0|0:0,0:0:0:0:
125,204,144268,2,0,P|211:223|305:266,1,184.875003526211,2|0,1:0|3:0,0:0:0:0:
422,234,144668,2,0,P|361:260|312:301,1,123.250002350807,0|0,1:0|0:0,0:0:0:0:
360,31,145068,6,0,P|304:107|232:169,1,184.875003526211,4|0,0:0|0:0,0:0:0:0:
110,253,145468,2,0,P|142:198|191:160,1,123.250002350807,0|0,1:0|0:0,0:0:0:0:
3,100,145868,2,0,P|76:43|189:22,1,188.499991371155,8|2,0:0|0:0,0:0:0:0:
300,92,146468,1,2,0:0:0:0:
103,272,146668,6,0,P|84:211|76:130,1,123.250002350807,4|0,1:0|0:0,0:0:0:0:
233,330,147068,2,0,P|263:274|315:211,1,123.250002350807,4|8,0:3|0:3,0:0:0:0:
445,27,147468,2,0,P|459:79|483:127,1,108.750004148483,0|0,1:0|3:0,0:0:0:0:
299,183,147868,2,0,P|346:211|397:226,1,108.750004148483,2|0,1:2|3:0,0:0:0:0:
302,0,148268,6,0,P|301:94|422:99,1,217.500008296967,4|4,0:0|3:0,0:0:0:0:
319,384,149068,1,0,1:0:0:0:
345,263,149268,1,4,3:0:0:0:
496,222,149468,1,2,0:0:0:0:
471,43,149668,1,6,3:0:0:0:
269,0,149868,6,0,P|302:89|329:225,1,217.500008296967,4|2,1:0|3:0,0:0:0:0:
114,384,150668,2,0,P|85:333|38:296,1,108.750004148483,2|0,3:2|0:0,0:0:0:0:
0,146,150968,1,0,0:0:0:0:
0,146,151068,2,0,P|18:193|66:236,1,108.750004148483,4|0,0:0|0:0,0:0:0:0:
236,384,151468,6,2,P|255:269|338:354,1,290,0|4,0:0|3:0,0:1:0:0:
137,218,152068,2,0,P|116:177|116:144,1,72.5,0|0,3:0|0:0,0:0:0:0:
183,24,152268,2,0,P|193:85|326:124,1,202.999993804932,8|0,1:2|0:0,0:0:0:0:
443,58,152868,1,0,0:0:0:0:
491,166,153068,6,0,P|458:78|444:-7,1,173.999994689942,4|2,3:0|1:2,0:0:0:0:
449,342,153868,2,0,P|385:261|277:199,1,210.250006416321,8|2,1:2|0:0,0:0:0:0:
83,263,154468,1,2,0:0:0:0:
54,108,154668,6,0,P|118:164|159:232,1,159.500004867554,4|4,0:0|3:0,0:0:0:0:
210,93,155268,1,2,3:0:0:0:
337,163,155468,2,0,P|309:82|308:3,1,159.500004867554,0|4,1:0|3:0,0:0:0:0:
404,0,155968,1,2,3:0:0:0:
404,0,156068,1,4,1:3:0:0:
404,0,156168,1,2,3:0:0:0:
296,0,156268,6,0,B|208:24|208:24|179:96|208:179|297:222,1,326.25001244545,4|0,1:2|0:0,0:0:0:0:
77,321,157068,2,0,P|144:360|206:372,1,108.750004148483,0|0,1:0|0:0,0:0:0:0:
113,190,157468,2,0,P|190:190|250:169,1,108.750004148483,4|4,3:0|3:0,0:0:0:0:
369,15,157868,6,0,P|353:70|316:146,1,123.250002350807,4|0,1:2|0:0,0:0:0:0:
504,180,158268,2,0,P|454:208|373:236,1,123.250002350807,4|0,1:3|0:0,0:0:0:0:
188,355,158668,2,0,P|221:284|240:214,1,145,8|2,1:2|0:0,0:0:0:0:
438,331,159068,2,0,P|431:254|412:183,1,145,4|2,3:0|3:0,0:0:0:0:
179,36,159468,6,2,B|235:97|221:205|221:205|148:201|122:143,1,290,4|2,1:3|1:2,0:1:0:0:
277,18,160668,1,2,3:0:0:0:
418,159,161068,6,0,B|357:103|249:117|249:117|253:190|311:216,1,290,4|2,0:0|1:2,0:0:0:0:
466,223,162068,1,0,3:0:0:0:
486,193,162168,1,0,3:0:0:0:
497,159,162268,2,0,P|498:131|486:92,3,61.6250011754036,2|0|0|0,0:0|0:0|0:0|0:0,0:0:0:0:
446,241,162668,6,0,P|449:301|486:378,1,145,4|0,0:1|0:0,0:0:0:0:
414,268,163268,1,0,0:0:0:0:
364,187,163468,2,0,P|321:139|244:90,1,145,2|0,0:0|0:0,0:0:0:0:
124,91,164068,1,2,3:0:0:0:
262,127,164268,6,0,P|331:91|382:28,1,145,2|0,0:0|0:0,0:0:0:0:
293,155,164868,1,0,3:0:0:0:
210,223,165068,2,0,P|183:292|181:374,1,145,2|0,0:0|0:0,0:0:0:0:
23,155,165868,6,0,B|66:159|90:134|90:134|103:159|159:171,2,145,2|2|2,0:3|0:0|0:0,0:0:0:0:
0,171,167268,1,0,0:0:0:0:
98,38,167468,2,0,P|113:70|115:127,1,86.9999973449708,8|0,0:3|0:0,0:0:0:0:
50,239,167868,2,0,P|70:207|109:175,1,86.9999973449708,0|0,1:1|0:0,0:0:0:0:
263,122,168268,2,0,P|300:67|297:-4,1,130.499996017456,4|0,3:0|0:0,0:0:0:0:
349,183,168668,2,0,P|343:247|454:247,1,184.875003526211,4|0,1:0|0:0,0:0:0:0:
506,377,169068,6,0,P|419:352|350:342,1,141.374993528366,4|2,1:0|0:0,0:0:0:0:
262,369,169468,1,2,1:2:0:0:
303,346,169568,1,0,0:0:0:0:
315,300,169668,1,0,0:0:0:0:
295,257,169768,1,2,0:0:0:0:
223,193,169868,6,0,P|273:185|327:169,1,94.2499956855776,4|0,3:0|0:0,0:0:0:0:
371,124,170168,1,0,0:0:0:0:
452,23,170268,2,0,P|462:69|484:126,1,94.2499956855776,2|2,1:2|0:0,0:0:0:0:
324,5,170668,6,0,P|307:54|270:124,1,108.750004148483,4|0,3:0|0:0,0:0:0:0:
208,129,170968,1,2,0:0:0:0:
48,141,171068,2,0,P|100:152|153:179,1,108.750004148483,2|0,1:2|0:0,0:0:0:0:
215,362,171468,6,0,P|183:339|149:292,1,86.9999973449708,4|0,3:0|0:0,0:0:0:0:
196,240,171768,1,2,0:0:0:0:
91,119,171868,2,0,L|76:17,1,86.9999973449708,2|0,1:2|0:0,0:0:0:0:
10,11,172268,6,0,P|4:109|3:269,1,253.75,4|0,0:1|0:0,0:0:0:0:
82,353,173068,2,0,P|117:234|178:81,1,279.125008518219,2|0,3:0|3:0,0:0:0:0:
223,9,173868,2,0,P|258:131|324:297,1,304.499990707398,2|0,1:3|0:0,0:0:0:0:
375,384,174668,2,0,P|401:205|446:46,1,329.874984899522,4|0,0:0|0:0,0:0:0:0:
482,0,175468,6,0,P|436:169|333:50,1,407.812515556813,4|0,1:0|0:0,0:0:0:0:
396,0,177068,1,6,0:0:0:0:
256,192,177118,12,4,178668,0:1:0:0:
512,42,188268,5,2,3:0:0:0:
430,28,188668,1,2,3:0:0:0:
348,14,189068,1,2,1:3:0:0:
266,0,189468,1,2,1:2:0:0:
248,101,189868,6,0,P|197:103|140:108,1,94.2499956855776,4|0,1:3|0:0,0:0:0:0:
28,193,190268,2,0,P|77:199|125:207,1,94.2499956855776,2|0,1:2|0:0,0:0:0:0:
228,323,190668,2,0,P|173:317|110:313,1,108.750004148483,4|4,1:3|3:0,0:0:0:0:
4,357,190968,1,0,3:0:0:0:
4,357,191018,1,0,3:0:0:0:
4,357,191068,2,0,P|10:274|70:204,1,163.125006222725,8|0,1:0|0:0,0:0:0:0:
64,63,191468,6,0,B|53:164|123:228|123:228|165:213|207:210,1,246.500004701614,4|4,1:0|3:0,0:0:0:0:
481,364,192268,2,0,P|449:304|401:261,1,108.750004148483,8|0,0:0|3:0,0:0:0:0:
286,215,192568,1,0,0:0:0:0:
231,163,192668,2,0,P|227:103|264:44,1,108.750004148483,0|0,1:0|0:0,0:0:0:0:
441,13,193068,6,2,P|335:60|390:115,1,217.500008296967,4|4,1:2|3:0,1:0:0:0:
512,0,193668,1,2,0:0:0:0:
439,184,193868,2,0,P|361:159|281:73,1,188.499991371155,8|0,1:2|3:0,0:0:0:0:
228,376,194668,6,0,P|190:297|99:231,1,188.499991371155,4|2,1:3|0:0,0:0:0:0:
0,12,195468,2,0,P|33:53|58:107,1,94.2499956855776,8|0,1:2|0:0,0:0:0:0:
174,99,195768,1,0,0:0:0:0:
219,152,195868,2,0,P|222:199|202:258,1,94.2499956855776,2|2,0:0|0:0,0:0:0:0:
110,355,196268,6,0,P|105:260|18:219,1,188.499991371155,4|4,3:0|1:3,0:0:0:0:
6,384,196868,1,0,0:0:0:0:
58,186,197068,1,0,1:0:0:0:
107,301,197268,1,4,3:0:0:0:
259,274,197468,1,4,3:0:0:0:
401,373,197668,1,4,3:0:0:0:
474,325,197868,6,0,P|487:250|453:179,1,145,4|0,1:0|0:0,0:0:0:0:
320,370,198668,2,0,P|278:352|256:331,1,72.5,2|0,0:0|0:0,0:0:0:0:
210,203,199068,2,0,P|196:241|194:289,1,79.7500024337769,2|2,0:0|3:0,0:0:0:0:
127,377,199468,2,0,P|111:341|112:286,1,79.7500024337769,2|0,0:0|0:0,0:0:0:0:
32,177,199868,2,0,P|44:131|74:94,1,79.7500024337769,2|0,0:0|0:0,0:0:0:0:
31,299,200268,2,0,P|55:257|101:219,1,94.2499956855776,2|0,1:2|0:0,0:0:0:0:
264,191,200668,2,0,P|304:188|357:205,1,94.2499956855776,2|0,0:0|0:0,0:0:0:0:
135,4,201068,6,0,P|178:119|264:170,1,217.5,4|0,3:0|3:0,0:0:0:0:
443,102,201868,1,4,0:0:0:0:
462,86,202568,1,2,3:0:0:0:
408,281,202668,2,0,P|336:193|201:133,1,260.999992034912,2|2,1:3|0:0,0:0:0:0:
74,142,203368,1,0,0:0:0:0:
8,92,203468,5,8,1:2:0:0:
8,92,203668,2,0,L|33:152,1,47.1249978427888,8|0,3:0|0:0,0:0:0:0:
88,227,203868,2,0,L|110:169,1,54.3750020742417,4|0,1:3|0:0,0:0:0:0:
214,82,204068,2,0,L|227:165,1,61.6250011754036,0|2,1:3|0:0,0:0:0:0:
326,251,204268,6,0,B|403:234|403:234|468:141|365:55,1,275.499992643357,4|2,1:0|0:0,0:0:0:0:
48,300,204968,1,0,3:0:0:0:
169,377,205068,2,0,P|175:320|271:212,1,184.875003526211,8|0,1:2|0:0,0:0:0:0:
125,98,205468,2,0,P|216:176|298:188,1,184.875003526211,2|0,1:2|0:0,0:0:0:0:
451,308,205868,2,0,P|396:228|494:263,1,260.999992034912,4|0,1:3|0:0,0:0:0:0:
394,373,206568,1,2,0:0:0:0:
344,233,206668,2,0,P|297:175|222:119,1,163.125006222725,0|0,1:0|0:0,0:0:0:0:
306,298,207068,2,0,P|372:255|444:185,1,163.125006222725,2|2,0:0|0:0,0:0:0:0:
221,337,207468,6,0,B|164:339|127:285|127:285|85:331|13:321,1,217.500008296967,4|2,1:3|1:2,0:0:0:0:
60,115,208168,1,2,0:0:0:0:
0,159,208268,1,8,1:2:0:0:
46,97,208468,1,2,0:0:0:0:
131,116,208668,1,2,0:0:0:0:
166,17,208868,1,2,3:0:0:0:
279,69,209068,2,0,P|328:91|391:107,1,108.75,4|2,1:0|0:0,0:0:0:0:
456,67,209468,1,2,1:2:0:0:
292,241,209768,1,2,0:0:0:0:
399,182,209868,2,0,P|325:233|276:291,1,163.125006222725,8|0,1:2|0:0,0:0:0:0:
262,364,210218,1,0,0:0:0:0:
270,374,210268,5,2,0:0:0:0:
186,328,210468,1,2,0:0:0:0:
107,379,210668,2,0,L|65:382,5,36.25,4|0|0|0|0|0,0:0|0:0|0:0|0:0|0:0|0:0,0:0:0:0:
14,310,211268,1,0,3:0:0:0:
14,310,211368,1,2,3:0:0:0:
84,311,211468,2,0,L|35:321,1,39.8750012168885,2|0,0:0|0:0,0:0:0:0:
55,219,211668,1,0,3:0:0:0:
88,222,211768,2,0,L|33:232,1,47.1249978427888,2|0,0:0|0:0,0:0:0:0:
49,118,211968,1,0,3:0:0:0:
78,129,212068,2,0,P|122:124|178:90,1,94.2499956855776,2|4,0:0|0:0,0:0:0:0:
408,370,212935,1,0,3:0:0:0:
408,370,213002,1,0,3:0:0:0:
408,370,213068,2,0,L|418:344,16,18.125,2|2|2|2|2|2|2|2|2|2|2|2|2|2|2|2|6,0:0|0:0|0:0|0:0|0:0|0:0|0:0|0:0|0:0|0:0|0:0|0:0|0:0|0:0|0:0|0:0|0:0,0:0:0:0:
