osu file format v14

[General]
AudioFilename: audio.mp3
AudioLeadIn: 0
PreviewTime: 69883
Countdown: 0
SampleSet: Soft
StackLeniency: 0.7
Mode: 0
LetterboxInBreaks: 0
WidescreenStoryboard: 1

[Editor]
DistanceSpacing: 0.6
BeatDivisor: 8
GridSize: 4
TimelineZoom: 1

[Metadata]
Title:Saigo no Hanabira (The meaning of love)
TitleUnicode:最後の花弁 (The meaning of love)
Artist:EGOIST
ArtistUnicode:EGOIST
Creator:LunarSakuya
Version:Elegy
Source:
Tags:chelly エゴイスト M2U pop japanese
BeatmapID:2400965
BeatmapSetID:1150157

[Difficulty]
HPDrainRate:7
CircleSize:4
OverallDifficulty:7
ApproachRate:8.5
SliderMultiplier:2.9
SliderTickRate:2

[Events]
//Background and Video events
0,0,"inoribg.jpg",0,0
//Break Periods
2,28483,30608
//Storyboard Layer 0 (Background)
//Storyboard Layer 1 (Fail)
//Storyboard Layer 2 (Pass)
//Storyboard Layer 3 (Foreground)
//Storyboard Layer 4 (Overlay)
//Storyboard Sound Samples

[TimingPoints]
2683.6730966568,800,4,2,1,70,1,0
3083,-100,4,2,1,45,0,0
5483,-100,4,2,1,20,0,0
5583,-100,4,2,1,45,0,0
8683,-100,4,2,1,20,0,0
8783,-100,4,2,1,45,0,0
13883,-90.9090909090909,4,2,1,45,0,0
14683,-83.3333333333333,4,2,1,45,0,0
15083,-83.3333333333333,4,2,1,20,0,0
15283,-83.3333333333333,4,2,1,45,0,0
15483,-100,4,2,1,45,0,0
15683,-100,4,2,1,35,0,0
17883,-100,4,2,1,30,0,0
18083,-100,4,2,1,25,0,0
18283,-100,4,2,1,20,0,0
18483,-100,4,2,1,15,0,0
18683,-100,4,2,1,20,0,0
19283,-100,4,2,1,35,0,0
21883,-83.3333333333333,4,2,1,70,0,0
21983,-83.3333333333333,4,2,1,50,0,0
31283,-100,4,2,1,35,0,0
69083,-100,4,2,1,50,0,0
69883,-83.3333333333333,4,2,1,65,0,1
93883,-83.3333333333333,4,2,1,40,0,1
95083,-83.3333333333333,4,2,1,10,0,1
95483,-83.3333333333333,4,2,1,20,0,0
97883,-83.3333333333333,4,2,1,10,0,0
98683,-100,4,2,1,35,0,0
114483,-100,4,2,1,20,0,0
114683,-100,4,2,1,35,0,0
136283,-100,4,2,1,50,0,0
137083,-83.3333333333333,4,2,1,65,0,1
160683,-83.3333333333333,4,2,1,10,0,1
161083,-83.3333333333333,4,2,1,40,0,1
162683,-100,4,2,1,50,0,0
169083,-83.3333333333333,4,2,1,65,0,1
169883,-76.9230769230769,4,2,1,65,0,1
170683,-71.4285714285714,4,2,1,65,0,1
171483,-66.6666666666667,4,2,1,65,0,1
172283,-76.9230769230769,4,2,1,65,0,0
172983,-76.9230769230769,4,2,1,10,0,0
173083,-76.9230769230769,4,2,1,50,0,0
173783,-76.9230769230769,4,2,1,10,0,0
173883,-76.9230769230769,4,2,1,50,0,0
174583,-76.9230769230769,4,2,1,10,0,0
174683,-76.9230769230769,4,2,1,50,0,0
175283,-76.9230769230769,4,2,1,25,0,0
175483,-117.647058823529,4,2,1,50,0,0
177883,-100,4,2,1,10,0,0
178683,-100,4,2,1,50,0,0
191483,-83.3333333333333,4,2,1,65,0,1
197883,-83.3333333333333,4,2,1,50,0,0
203483,-83.3333333333333,4,2,1,65,0,0
210783,-83.3333333333333,4,2,1,50,0,0
211483,-83.3333333333333,4,2,1,40,0,0
212283,-83.3333333333333,4,2,1,30,0,0
213083,-83.3333333333333,4,2,1,20,0,0
213883,-83.3333333333333,4,2,1,10,0,0

[Colours]
Combo1 : 199,139,203
Combo2 : 245,143,187
Combo3 : 241,225,160

[HitObjects]
272,47,2683,5,8,0:3:0:0:
138,333,3083,2,0,P|93:328|52:314,1,72.5
67,321,3383,1,0,0:0:0:0:
67,321,3483,2,0,L|79:243,1,72.5,2|0,0:1|0:0,0:0:0:0:
167,124,3883,2,0,L|154:47,1,72.5
371,271,4283,6,0,P|389:306|404:351,1,72.5,2|0,0:0|0:0,0:0:0:0:
278,148,4683,2,0,P|265:185|254:232,1,72.5
372,15,5083,2,0,P|393:92|422:162,1,145,2|0,0:1|0:0,0:0:0:0:
431,167,5883,6,0,P|430:209|426:252,1,72.5,2|0,0:0|0:0,0:0:0:0:
204,122,6283,2,0,L|200:47,1,72.5
201,50,6583,1,0,0:0:0:0:
201,50,6683,2,0,P|247:43|292:43,1,72.5,2|0,0:1|0:0,0:0:0:0:
331,242,7083,2,0,P|292:241|251:232,1,72.5
437,107,7483,6,0,P|433:148|427:188,1,72.5,2|0,0:0|0:0,0:0:0:0:
253,132,7883,1,0,0:0:0:0:
271,25,8083,1,0,0:0:0:0:
112,121,8283,2,0,P|117:195|129:281,1,145,2|0,0:1|0:1,0:1:0:0:
29,246,9083,6,0,P|33:283|41:335,1,72.5,2|0,0:0|0:0,0:0:0:0:
235,117,9483,2,0,P|240:156|243:198,1,72.5
242,189,9783,1,0,0:0:0:0:
242,189,9883,2,0,L|323:184,1,72.5,2|0,0:1|0:0,0:0:0:0:
476,331,10283,2,0,L|395:325,1,72.5
455,144,10683,5,2,0:0:0:0:
428,238,10883,1,0,0:0:0:0:
323,55,11083,1,0,0:0:0:0:
334,156,11283,1,0,0:0:0:0:
161,86,11483,2,0,L|171:15,1,72.5,2|0,0:1|0:0,0:0:0:0:
181,227,11883,2,0,L|106:220,1,72.5
413,119,12283,6,0,P|389:193|312:224,1,145,2|0,0:0|0:0,0:0:0:0:
94,86,12883,1,0,0:0:0:0:
74,199,13083,2,0,P|130:252|194:256,1,145,2|0,0:1|0:0,0:0:0:0:
336,54,13683,1,0,0:0:0:0:
461,206,13883,6,0,P|383:204|320:146,1,159.500004867554,2|0,0:0|0:0,0:0:0:0:
112,171,14483,1,0,0:0:0:0:
35,342,14683,2,0,P|111:345|206:277,1,173.999994689942,2|0,0:1|0:0,0:0:0:0:
442,321,15283,1,0,0:0:0:0:
442,321,15483,6,0,L|349:314,1,72.5,2|0,0:0|0:0,0:0:0:0:
356,186,15883,2,0,L|283:180,1,72.5
458,64,16283,2,0,P|360:60|303:49,1,145,2|0,0:1|0:0,0:0:0:0:
113,16,16883,1,0,0:0:0:0:
92,149,17083,6,0,L|78:243,1,72.5,2|0,0:0|0:0,0:0:0:0:
223,296,17483,2,0,L|218:212,1,72.5
307,37,17883,1,2,0:1:0:0:
405,132,18083,1,0,0:0:0:0:
321,238,18283,1,0,0:0:0:0:
406,327,18483,1,0,0:0:0:0:
257,356,18683,6,0,P|184:352|113:363,1,145,2|0,0:0|0:0,0:0:0:0:
159,180,19283,1,0,0:0:0:0:
159,180,19383,1,0,0:0:0:0:
159,180,19483,2,0,P|160:213|167:265,1,72.5,2|0,0:1|0:0,0:0:0:0:
73,123,19883,1,0,0:0:0:0:
210,89,20083,2,0,L|227:69,3,24.1666666666667,0|0|0|2,0:0|0:0|0:0|0:0,0:0:0:0:
181,256,21883,5,8,0:3:0:0:
396,343,22083,1,0,0:0:0:0:
357,140,22283,2,0,P|342:76|342:1,1,130.499996017456
254,40,22683,2,0,P|214:64|164:76,1,86.9999973449708,8|0,0:0|0:0,0:0:0:0:
134,317,23083,2,0,P|137:270|149:224,1,86.9999973449708
254,297,23483,5,2,0:0:0:0:
80,161,23683,1,0,0:0:0:0:
304,36,23883,2,0,P|310:103|286:163,1,130.499996017456
352,220,24283,2,0,P|390:205|437:197,1,86.9999973449708,8|0,0:0|0:0,0:0:0:0:
184,143,24683,1,0,0:0:0:0:
252,292,24883,1,0,0:0:0:0:
92,155,25083,6,0,P|108:86|164:50,1,130.499996017456,2|0,0:0|0:0,0:0:0:0:
184,143,25483,2,0,B|195:218|195:218|166:274,1,130.499996017456
186,355,25883,1,8,0:0:0:0:
282,152,26083,1,0,0:0:0:0:
67,259,26283,1,2,0:0:0:0:
61,49,26483,1,0,0:0:0:0:
24,183,26683,6,0,P|90:174|142:209,1,130.499996017456,2|0,0:0|0:0,0:0:0:0:
200,136,27083,2,0,B|236:128|256:106|256:106|276:128|316:136,1,130.499996017456
370,207,27483,2,0,P|424:173|488:183,1,130.499996017456,8|0,0:0|0:0,0:0:0:0:
440,256,27883,1,2,0:0:0:0:
256,360,28083,1,0,0:0:0:0:
72,256,28283,1,8,0:3:0:0:
92,119,31283,5,0,0:0:0:0:
166,185,31483,2,0,P|238:197|306:169,1,145,2|0,0:0|0:0,0:0:0:0:
70,216,32083,1,0,0:0:0:0:
142,289,32283,2,0,P|157:326|164:364,1,72.5,8|0,0:1|0:0,0:0:0:0:
260,143,32683,1,0,0:0:0:0:
243,242,32883,1,0,0:0:0:0:
162,101,33083,6,0,P|204:48|286:36,1,145
409,113,33683,1,0,0:0:0:0:
361,225,33883,2,0,B|405:251|464:228|464:228|443:266,1,145,8|0,0:1|0:0,0:0:0:0:
260,143,34483,1,0,0:0:0:0:
249,296,34683,6,0,P|251:344|256:389,1,72.5
72,311,35083,2,0,P|112:309|150:311,1,72.5
380,368,35483,2,0,P|370:329|359:287,1,72.5,8|0,0:1|0:0,0:0:0:0:
228,108,35883,1,0,0:0:0:0:
228,108,36283,6,0,L|236:208,1,72.5
147,29,36683,1,0,0:0:0:0:
104,128,36883,2,0,P|92:200|96:280,1,145,2|0,0:0|0:0,0:0:0:0:
304,289,37483,1,0,0:0:0:0:
211,351,37683,1,0,0:0:0:0:
388,339,37883,6,0,P|404:270|364:208,1,145,0|0,0:0|0:0,0:0:0:0:
218,263,38483,1,0,0:0:0:0:
267,129,38682,2,0,P|320:82|393:78,1,145,8|0,0:1|0:0,0:0:0:0:
218,263,39283,1,0,0:0:0:0:
91,160,39483,6,0,L|163:148,1,72.5
290,270,39883,2,0,L|214:262,1,72.5
304,64,40283,2,0,P|372:44|452:32,1,145,8|2,0:1|0:0,0:0:0:0:
164,51,40883,1,0,0:0:0:0:
200,156,41083,6,0,P|204:220|196:308,1,145,2|0,0:0|0:0,0:0:0:0:
197,300,41883,2,0,P|153:304|121:304,1,72.5,8|0,0:1|0:0,0:0:0:0:
300,340,42283,2,0,P|344:336|376:336,1,72.5
260,233,42683,6,0,P|246:163|259:89,1,145,2|0,0:0|0:0,0:0:0:0:
421,162,43283,1,0,0:0:0:0:
421,162,43483,2,0,L|338:166,1,72.5
144,268,43883,2,0,L|227:264,1,72.5
352,72,44283,5,2,0:0:0:0:
365,49,45083,2,0,B|377:84|362:120|362:120|347:154|370:192,1,145
120,288,45883,6,0,B|127:266|132:230|132:230|183:230|223:199|223:199|248:224|270:238,1,217.5,2|0,0:0|0:0,0:0:0:0:
164,135,46683,2,0,P|92:141|41:88,1,145,2|0,0:0|0:0,0:0:0:0:
364,192,47283,1,0,0:0:0:0:
364,192,47483,5,2,0:0:0:0:
328,286,47683,1,0,0:0:0:0:
233,323,47883,1,0,0:0:0:0:
138,286,48083,1,0,0:0:0:0:
109,188,48283,2,0,P|117:160|133:116,1,72.5
244,16,48683,2,0,P|249:53|251:96,1,72.5
241,233,49083,6,0,B|281:221|313:233|313:233|345:245|383:233,1,145,2|0,0:0|0:0,0:0:0:0:
54,60,49883,2,0,P|16:116|21:194,1,145,2|0,0:0|0:0,0:0:0:0:
222,145,50483,1,0,0:0:0:0:
222,145,50683,5,2,0:0:0:0:
309,92,50883,1,0,0:0:0:0:
415,115,51083,1,0,0:0:0:0:
470,217,51283,1,0,0:0:0:0:
418,328,51483,2,0,P|334:312|281:272,1,145,2|0,0:0|0:0,0:0:0:0:
140,240,52083,1,0,0:0:0:0:
140,240,52283,6,0,P|144:284|144:320,1,72.5,2|0,0:0|0:0,0:0:0:0:
88,132,52683,2,0,P|92:88|99:52,1,72.5
252,172,53083,2,0,P|320:180|400:152,2,145,2|0|2,0:0|0:0|0:0,0:0:0:0:
152,232,54083,5,0,0:0:0:0:
224,96,54283,1,0,0:0:0:0:
240,268,54483,1,0,0:0:0:0:
128,124,54683,2,0,P|128:80|144:32,1,72.5,2|0,0:0|0:0,0:0:0:0:
295,84,55083,2,0,P|255:92|219:96,1,72.5
68,224,55483,6,0,P|136:248|204:220,1,145
420,56,56283,2,0,L|428:208,1,145,2|0,0:0|0:0,0:0:0:0:
328,328,56883,1,0,0:0:0:0:
328,328,57083,6,0,P|320:276|320:244,1,72.5,2|0,0:0|0:0,0:0:0:0:
208,224,57483,2,0,P|220:188|240:148,1,72.5
76,36,57883,2,0,L|92:148,1,108.75,8|0,0:1|0:0,0:0:0:0:
72,192,58283,1,0,0:0:0:0:
308,276,58683,6,0,P|216:296|160:304,1,145,2|0,0:0|0:0,0:0:0:0:
372,344,59283,1,0,0:0:0:0:
424,256,59483,2,0,P|428:208|424:172,1,72.5,8|0,0:1|0:0,0:1:0:0:
232,204,59883,1,0,0:0:0:0:
336,220,60083,1,0,0:0:0:0:
165,265,60283,6,0,P|140:199|172:136,1,145,2|0,0:0|0:0,0:0:0:0:
256,340,60883,1,0,0:0:0:0:
152,288,61083,2,0,P|112:284|80:284,1,72.5,8|0,0:1|0:0,0:0:0:0:
332,256,61483,2,0,P|368:248|412:240,1,72.5
384,96,61883,6,0,P|344:148|264:176,1,145,2|0,0:0|0:0,0:0:0:0:
95,40,62483,1,0,0:0:0:0:
95,40,62683,2,0,P|141:86|223:104,2,145,8|0|2,0:1|0:0|0:0,0:0:0:0:
408,236,63883,5,0,0:0:0:0:
328,304,64083,1,0,0:0:0:0:
308,136,64283,2,0,L|324:216,1,72.5,8|0,0:1|0:0,0:0:0:0:
220,96,64683,1,0,0:0:0:0:
220,96,64783,1,0,0:0:0:0:
220,96,64883,1,0,0:0:0:0:
80,208,65083,6,0,P|156:208|228:196,1,145,2|0,0:0|0:0,0:0:0:0:
370,66,65683,1,0,0:0:0:0:
357,168,65883,1,8,0:1:0:0:
408,301,66083,1,0,0:0:0:0:
298,284,66283,1,0,0:0:0:0:
150,225,66483,1,0,0:0:0:0:
61,346,66683,6,0,P|49:254|33:186,1,145,2|0,0:0|0:0,0:0:0:0:
196,356,67283,1,0,0:0:0:0:
185,247,67483,2,0,P|182:199|180:154,1,72.5,8|0,0:1|0:0,0:0:0:0:
329,284,67883,1,0,0:0:0:0:
329,171,68083,2,0,P|329:136|332:78,1,72.5,0|2,0:0|0:0,0:0:0:0:
324,71,68683,6,0,L|332:23,1,36.25,2|0,0:0|0:0,0:0:0:0:
244,120,68883,2,0,L|228:76,1,36.25,2|0,0:0|0:0,0:0:0:0:
204,215,69083,2,0,L|174:189,1,36.25,8|0,0:0|0:0,0:0:0:0:
120,288,69283,2,0,L|107:253,1,36.25
28,160,69483,2,0,P|36:112|48:76,1,72.5,2|0,0:0|0:0,0:0:0:0:
288,260,69883,6,0,P|296:296|301:350,1,86.9999973449708,8|0,0:3|0:0,0:0:0:0:
400,216,70283,2,0,P|400:152|416:76,1,130.499996017456
346,39,70683,2,0,L|258:31,1,86.9999973449708,8|0,0:0|0:0,0:0:0:0:
176,208,71083,1,0,0:0:0:0:
296,132,71283,1,0,0:0:0:0:
312,368,71483,6,0,P|292:264|260:200,1,173.999994689942,2|0,0:0|0:0,0:0:0:0:
23,147,72083,1,0,0:0:0:0:
161,85,72283,2,0,P|209:69|245:61,1,86.9999973449708,8|0,0:0|0:0,0:0:0:0:
128,264,72683,2,0,P|76:256|36:256,1,86.9999973449708
375,352,73083,6,0,P|374:306|366:262,1,86.9999973449708,2|0,0:0|0:0,0:0:0:0:
229,163,73483,2,0,P|271:183|310:196,1,86.9999973449708
468,124,73883,2,0,P|432:153|401:185,1,86.9999973449708,8|0,0:0|0:0,0:0:0:0:
274,335,74283,1,0,0:0:0:0:
176,106,74483,1,0,0:0:0:0:
37,311,74683,6,0,P|120:301|205:267,1,173.999994689942,2|0,0:0|0:0,0:0:0:0:
99,61,75283,1,0,0:0:0:0:
5,158,75483,1,8,0:0:0:0:
130,194,75683,1,0,0:0:0:0:
10,69,75883,1,0,0:0:0:0:
50,238,76083,1,0,0:0:0:0:
188,32,76283,6,0,L|196:132,1,86.9999973449708,2|0,0:0|0:0,0:0:0:0:
392,176,76683,2,0,L|368:280,1,86.9999973449708,8|0,0:0|0:0,0:0:0:0:
88,152,77083,2,0,L|120:256,1,86.9999973449708,2|0,0:0|0:0,0:0:0:0:
336,28,77483,2,0,L|320:120,1,86.9999973449708,8|0,0:0|0:0,0:0:0:0:
208,332,77883,6,0,P|200:276|200:224,1,86.9999973449708,2|0,0:0|0:0,0:0:0:0:
74,174,78283,2,0,P|65:224|62:277,1,86.9999973449708
362,367,78683,2,0,P|334:299|330:227,1,130.499996017456,8|0,0:0|0:0,0:0:0:0:
386,187,79083,2,0,P|430:211|486:231,1,86.9999973449708,2|0,0:0|0:0,0:0:0:0:
184,108,79483,6,0,P|116:100|76:100,1,86.9999973449708,2|0,0:0|0:0,0:0:0:0:
272,276,79883,2,0,P|340:248|420:248,1,130.499996017456
468,164,80283,2,0,L|484:260,1,86.9999973449708,10|0,0:0|0:0,0:0:0:0:
260,123,80683,2,0,L|244:27,1,86.9999973449708,2|0,0:0|0:0,0:0:0:0:
55,288,81083,6,0,L|88:336,1,43.4999986724854,2|0,0:0|0:0,0:0:0:0:
146,234,81283,2,0,L|157:280,1,43.4999986724854
256,228,81483,2,0,L|248:292,1,43.4999986724854,2|0,0:0|0:0,0:0:0:0:
350,200,81683,2,0,L|360:252,1,43.4999986724854
434,138,81883,1,10,0:0:0:0:
247,64,82083,1,0,0:0:0:0:
321,260,82283,1,2,0:0:0:0:
403,38,82483,1,0,0:0:0:0:
452,250,82683,6,0,P|424:314|380:354,1,130.499996017456,8|0,0:3|0:0,0:0:0:0:
297,368,83083,2,0,P|243:363|197:364,1,86.9999973449708
215,125,83483,2,0,P|236:162|246:205,1,86.9999973449708,8|0,0:0|0:0,0:0:0:0:
367,111,83883,2,0,P|345:73|335:31,1,86.9999973449708
152,204,84283,6,0,P|96:264|64:372,1,173.999994689942,2|0,0:0|0:0,0:0:0:0:
256,96,84883,1,0,0:0:0:0:
370,167,85083,2,0,P|426:227|458:335,1,173.999994689942,8|0,0:0|0:0,0:0:0:0:
80,60,85883,6,0,L|176:44,1,86.9999973449708,2|0,0:0|0:0,0:0:0:0:
284,128,86283,2,0,P|228:132|132:156,1,130.499996017456
92,200,86683,2,0,P|84:248|84:296,1,86.9999973449708,8|0,0:0|0:0,0:0:0:0:
240,368,87083,1,0,0:0:0:0:
380,288,87283,1,0,0:0:0:0:
240,368,87483,6,0,P|236:320|212:192,1,173.999994689942,2|0,0:0|0:0,0:0:0:0:
364,28,88083,1,0,0:0:0:0:
392,157,88283,2,0,P|399:218|401:254,1,86.9999973449708,8|0,0:0|0:0,0:0:0:0:
240,368,88683,1,0,0:0:0:0:
292,215,88883,1,0,0:0:0:0:
124,350,89083,6,0,P|43:325|1:244,1,173.999994689942,8|0,0:3|0:0,0:0:0:0:
289,263,89683,1,0,0:0:0:0:
387,348,89883,2,0,P|431:341|470:323,1,86.9999973449708,8|0,0:0|0:0,0:0:0:0:
399,92,90283,2,0,P|381:129|368:180,1,86.9999973449708
77,200,90683,6,0,P|133:215|217:205,1,130.499996017456,2|0,0:0|0:0,0:0:0:0:
226,128,91083,2,0,P|215:82|211:31,1,86.9999973449708
169,305,91483,2,0,P|118:308|62:316,1,86.9999973449708,8|0,0:0|0:0,0:0:0:0:
350,260,91883,2,0,P|401:263|457:271,1,86.9999973449708
208,160,92283,6,0,B|208:92|208:92|172:48|116:24|32:76|80:204|80:204|192:252|216:328,1,521.999984069825,8|0,0:3|0:0,0:0:0:0:
304,160,93883,2,0,B|304:92|304:92|340:48|396:24|480:76|432:204|432:204|320:252|296:328,1,521.999984069825,2|0,0:0|0:0,0:0:0:0:
256,192,95483,12,0,97883,0:0:0:0:
172,244,98683,6,0,P|220:200|296:200,1,145,2|0,0:0|0:0,0:0:0:0:
261,320,99283,1,0,0:0:0:0:
172,244,99483,2,0,L|161:94,1,145,8|0,0:1|0:0,0:0:0:0:
77,284,100083,1,0,0:0:0:0:
180,356,100283,5,0,0:0:0:0:
255,215,100483,2,0,L|263:142,1,72.5
316,320,100883,1,0,0:0:0:0:
316,320,101083,2,0,P|365:344|457:338,1,145,8|0,0:1|0:0,0:0:0:0:
409,143,101683,1,0,0:0:0:0:
363,237,101883,6,0,P|396:248|432:246,1,72.5
409,143,102283,1,0,0:0:0:0:
145,131,102683,2,0,P|123:179|131:240,1,108.75,8|0,0:1|0:0,0:0:0:0:
144,263,103083,2,0,L|135:336,1,72.5
248,201,103483,6,0,P|272:225|303:248,1,72.5
277,69,103883,1,0,0:0:0:0:
438,94,104083,2,0,P|396:144|316:162,1,145,2|0,0:0|0:0,0:0:0:0:
234,101,104683,1,0,0:0:0:0:
335,56,104883,1,0,0:0:0:0:
246,220,105083,6,0,P|253:257|261:295,1,72.5
154,342,105483,1,0,0:0:0:0:
170,138,105683,1,0,0:0:0:0:
170,138,105883,2,0,P|237:112|308:128,1,145,8|0,0:1|0:0,0:0:0:0:
132,227,106483,1,0,0:0:0:0:
81,136,106683,6,0,L|92:63,1,72.5
235,210,107083,2,0,L|224:283,1,72.5
106,348,107483,2,0,P|121:269|141:200,1,145,8|0,0:1|0:0,0:0:0:0:
231,362,108083,1,0,0:0:0:0:
358,346,108283,6,0,P|396:341|447:324,1,72.5,2|0,0:0|0:0,0:0:0:0:
409,151,108683,1,0,0:0:0:0:
409,151,109083,2,0,P|405:199|396:233,1,72.5,8|0,0:1|0:0,0:0:0:0:
281,66,109483,2,0,P|293:111|299:154,1,72.5
72,169,109883,6,0,P|131:122|204:121,1,145,2|0,0:0|0:0,0:0:0:0:
173,242,110483,1,0,0:0:0:0:
103,319,110683,2,0,P|139:342|179:348,1,72.5,8|0,0:1|0:0,0:0:0:0:
336,226,111083,2,0,P|297:240|262:270,1,72.5
443,336,111483,5,2,0:0:0:0:
440,314,112283,2,0,L|444:238,1,72.5
386,69,112683,1,0,0:0:0:0:
358,56,113083,6,0,B|336:53|309:48|309:48|258:50|210:66,1,145,2|0,0:0|0:0,0:0:0:0:
61,331,113883,2,0,B|128:335|166:259|166:259|192:298|240:302,1,217.5
329,232,114683,5,2,0:0:0:0:
326,91,114883,1,0,0:0:0:0:
247,208,115083,1,0,0:0:0:0:
379,160,115283,1,0,0:0:0:0:
244,119,115483,2,0,P|163:114|85:84,1,145
75,274,116083,1,0,0:0:0:0:
75,274,116283,6,0,P|137:254|155:249,1,72.5,2|0,0:0|0:0,0:0:0:0:
237,140,116683,2,0,P|244:188|253:213,1,72.5
334,325,117083,2,0,P|393:300|482:318,2,145,0|0|2,0:0|0:0|0:0,0:0:0:0:
218,343,118083,5,0,0:0:0:0:
108,305,118283,1,0,0:0:0:0:
63,197,118483,1,0,0:0:0:0:
93,85,118683,2,0,P|115:40|134:9,1,72.5
230,160,119083,2,0,P|198:164|136:167,1,72.5
329,193,119483,6,0,P|355:240|386:339,1,145,2|0,0:0|0:0,0:0:0:0:
177,55,120283,2,0,P|151:102|120:201,1,145
40,96,120883,1,0,0:0:0:0:
48,288,121083,6,0,L|128:280,1,72.5,2|0,0:0|0:0,0:0:0:0:
279,228,121483,1,0,0:0:0:0:
248,344,121683,1,0,0:0:0:0:
270,132,121883,2,0,P|333:149|373:214,1,145
266,33,122683,6,0,P|201:59|168:122,1,145
409,340,123483,2,0,P|410:251|410:187,1,145,2|0,0:0|0:0,0:0:0:0:
395,61,124083,1,0,0:0:0:0:
395,61,124283,6,0,P|356:77|324:85,1,72.5,2|0,0:0|0:0,0:0:0:0:
304,199,124683,2,0,P|246:197|209:193,1,72.5
102,220,125083,1,8,0:1:0:0:
226,102,125283,1,0,0:0:0:0:
259,281,125483,1,0,0:0:0:0:
275,310,125883,6,0,P|178:307|116:308,1,145,2|0,0:0|0:0,0:0:0:0:
176,116,126483,1,0,0:0:0:0:
176,116,126683,2,0,P|188:150|191:187,1,72.5,8|0,0:1|0:0,0:0:0:0:
320,186,127083,2,0,P|323:150|336:116,1,72.5,0|0,0:1|0:0,0:0:0:0:
360,308,127483,5,2,0:0:0:0:
244,276,127683,1,0,0:0:0:0:
360,308,127883,1,0,0:0:0:0:
160,360,128083,1,0,0:0:0:0:
264,240,128283,2,0,P|288:168|280:96,1,145,8|0,0:1|0:0,0:0:0:0:
164,276,128883,1,0,0:0:0:0:
320,320,129083,6,0,P|368:292|420:220,1,145,2|0,0:0|0:0,0:0:0:0:
64,80,129883,2,0,P|100:136|180:160,1,145,8|0,0:1|0:0,0:0:0:0:
168,56,130483,1,0,0:0:0:0:
96,232,130683,6,0,L|80:320,1,72.5,2|0,0:0|0:0,0:0:0:0:
296,180,131083,2,0,L|348:252,1,72.5
208,244,131483,2,0,L|228:328,1,72.5,8|0,0:1|0:0,0:0:0:0:
208,128,131883,1,0,0:0:0:0:
208,128,131983,1,0,0:0:0:0:
208,128,132083,1,0,0:0:0:0:
332,152,132283,6,0,P|384:152|476:120,1,145,2|0,0:0|0:0,0:0:0:0:
268,72,132883,1,0,0:0:0:0:
267,242,133083,2,0,P|300:255|336:264,1,72.5,8|0,0:1|0:0,0:0:0:0:
144,344,133483,2,0,P|188:328|224:312,1,72.5
224,140,133883,5,2,0:0:0:0:
176,232,134083,1,0,0:0:0:0:
324,336,134283,1,0,0:0:0:0:
304,244,134483,1,0,0:0:0:0:
96,184,134683,2,0,P|88:224|84:260,1,72.5,8|0,0:1|0:0,0:0:0:0:
284,156,135083,1,0,0:0:0:0:
172,64,135283,2,0,P|179:99|183:136,1,72.5,0|2,0:0|0:0,0:0:0:0:
160,176,135883,6,0,L|148:216,1,36.25,2|0,0:0|0:0,0:0:0:0:
248,220,136083,2,0,L|256:284,1,36.25,2|0,0:0|0:0,0:0:0:0:
348,224,136283,2,0,L|380:264,1,36.25,8|0,0:0|0:0,0:0:0:0:
436,180,136483,2,0,L|484:200,1,36.25
431,70,136683,2,0,P|387:58|346:49,1,72.5,2|0,0:0|0:0,0:0:0:0:
152,248,137083,6,0,P|140:292|132:352,1,86.9999973449708,8|0,0:3|0:0,0:0:0:0:
380,332,137483,2,0,P|373:289|346:200,1,130.499996017456
288,144,137883,2,0,P|336:112|368:80,1,86.9999973449708,8|0,0:0|0:0,0:0:0:0:
158,104,138283,1,0,0:0:0:0:
225,267,138483,1,0,0:0:0:0:
41,303,138683,6,0,P|81:247|173:195,1,173.999994689942,2|0,0:0|0:0,0:0:0:0:
425,297,139283,1,0,0:0:0:0:
302,270,139483,2,0,L|314:362,1,86.9999973449708,8|0,0:0|0:0,0:0:0:0:
400,149,139883,2,0,L|388:57,1,86.9999973449708
200,288,140283,6,0,P|152:304|96:312,1,86.9999973449708,2|0,0:0|0:0,0:0:0:0:
337,254,140683,2,0,P|374:271|411:297,1,86.9999973449708
145,185,141083,2,0,P|125:146|114:99,1,86.9999973449708,8|0,0:0|0:0,0:0:0:0:
328,164,141483,1,0,0:0:0:0:
291,356,141683,1,0,0:0:0:0:
70,270,141883,6,0,P|82:182|117:99,1,173.999994689942,2|0,0:0|0:0,0:0:0:0:
380,92,142483,1,0,0:0:0:0:
244,160,142683,1,8,0:0:0:0:
368,240,142883,1,0,0:0:0:0:
283,67,143083,1,0,0:0:0:0:
208,256,143283,1,0,0:0:0:0:
76,116,143483,6,0,L|168:124,1,86.9999973449708,2|0,0:0|0:0,0:0:0:0:
428,228,143883,2,0,L|336:236,1,86.9999973449708,8|0,0:0|0:0,0:0:0:0:
56,81,144283,2,0,L|148:89,1,86.9999973449708,2|0,0:0|0:0,0:0:0:0:
132,308,144683,2,0,L|224:316,1,86.9999973449708,8|0,0:0|0:0,0:0:0:0:
456,180,145083,6,0,L|364:188,1,86.9999973449708,2|0,0:0|0:0,0:0:0:0:
128,168,145483,2,0,L|264:160,1,130.499996017456
261,241,145883,2,0,P|249:289|241:329,1,86.9999973449708,8|0,0:0|0:0,0:0:0:0:
448,172,146283,2,0,P|384:164|348:164,1,86.9999973449708,2|0,0:0|0:0,0:0:0:0:
120,144,146683,6,0,L|140:60,1,86.9999973449708,2|0,0:0|0:0,0:0:0:0:
284,208,147083,2,0,P|296:268|300:352,1,130.499996017456
376,304,147483,2,0,L|380:204,1,86.9999973449708,10|0,0:0|0:0,0:0:0:0:
192,56,147883,2,0,L|188:156,1,86.9999973449708,2|0,0:0|0:0,0:0:0:0:
284,336,148283,6,0,L|276:292,1,43.4999986724854,2|0,0:0|0:0,0:0:0:0:
200,312,148483,2,0,L|192:260,1,43.4999986724854
116,292,148683,2,0,L|108:240,1,43.4999986724854,2|0,0:0|0:0,0:0:0:0:
32,272,148883,2,0,L|24:220,1,43.4999986724854
64,145,149083,1,10,0:0:0:0:
56,356,149283,1,0,0:0:0:0:
239,190,149483,2,0,L|143:166,1,86.9999973449708,2|0,0:0|0:0,0:0:0:0:
286,358,149883,6,0,P|341:357|419:335,1,130.499996017456,8|0,0:3|0:0,0:0:0:0:
444,264,150283,2,0,P|446:211|440:167,1,86.9999973449708
244,143,150683,2,0,P|278:166|321:180,1,86.9999973449708,8|0,0:0|0:0,0:0:0:0:
452,40,151083,2,0,P|410:56|363:81,1,86.9999973449708
160,224,151483,6,0,P|156:150|131:54,1,173.999994689942,2|0,0:0|0:0,0:0:0:0:
256,304,152083,1,0,0:0:0:0:
352,224,152283,2,0,P|356:150|381:54,1,173.999994689942,8|0,0:0|0:0,0:0:0:0:
122,236,153083,6,0,P|80:249|38:260,1,86.9999973449708,2|0,0:0|0:0,0:0:0:0:
124,348,153483,2,0,P|186:326|251:294,1,130.499996017456
340,344,153883,2,0,P|296:340|252:332,1,86.9999973449708,8|0,0:0|0:0,0:0:0:0:
153,177,154283,1,0,0:0:0:0:
312,124,154483,1,0,0:0:0:0:
153,177,154683,6,0,P|90:161|39:54,1,173.999994689942,2|0,0:0|0:0,0:0:0:0:
280,40,155283,1,0,0:0:0:0:
256,228,155483,2,0,P|249:282|240:324,1,86.9999973449708,8|0,0:0|0:0,0:0:0:0:
212,135,155883,1,0,0:0:0:0:
348,239,156083,1,0,0:0:0:0:
38,332,156283,6,0,P|93:264|178:256,1,173.999994689942,8|0,0:3|0:0,0:0:0:0:
145,366,156883,1,0,0:0:0:0:
352,211,157083,2,0,L|346:309,1,86.9999973449708,8|0,0:0|0:0,0:0:0:0:
124,128,157483,2,0,L|115:36,1,86.9999973449708
444,142,157883,6,0,P|456:222|458:289,1,130.499996017456,2|0,0:0|0:0,0:0:0:0:
405,344,158283,2,0,P|357:341|312:338,1,86.9999973449708
110,175,158683,2,0,L|101:87,1,86.9999973449708,8|0,0:0|0:0,0:0:0:0:
460,123,159083,2,0,P|415:138|367:143,1,86.9999973449708
197,54,159483,6,0,B|320:161|320:225|256:261|256:261|192:225|192:161|316:53,1,521.999984069825,8|0,0:3|0:0,0:0:0:0:
379,337,161083,6,0,B|352:348|316:344|316:344|256:388|196:344|196:344|160:348|130:336,1,260.999992034912,2|0,0:0|0:0,0:0:0:0:
113,316,161783,1,0,0:0:0:0:
96,295,161883,1,2,0:0:0:0:
148,128,162083,1,0,0:0:0:0:
175,161,162183,1,0,0:0:0:0:
212,183,162283,1,2,0:0:0:0:
254,191,162383,1,0,0:0:0:0:
297,184,162483,1,0,0:0:0:0:
334,163,162583,1,0,0:0:0:0:
362,130,162683,1,4,0:3:0:0:
440,300,163283,5,0,0:0:0:0:
440,300,163483,2,0,P|368:292|288:296,1,145,2|0,0:0|0:0,0:0:0:0:
208,216,164083,1,0,0:0:0:0:
300,140,164283,6,0,P|348:132|440:96,1,145,2|0,0:0|0:0,0:0:0:0:
437,97,164883,1,0,0:0:0:0:
276,52,165083,2,0,L|196:44,1,72.5,2|0,0:0|0:0,0:0:0:0:
152,164,165483,2,0,L|140:244,1,72.5
352,296,165883,5,2,0:0:0:0:
348,204,166083,1,0,0:0:0:0:
436,248,166283,1,0,0:0:0:0:
436,248,166683,2,0,L|416:100,1,145,2|0,0:0|0:0,0:0:0:0:
121,80,167283,1,0,0:0:0:0:
222,109,167483,6,0,P|202:145|178:174,1,72.5,2|0,0:0|0:0,0:0:0:0:
322,342,167883,2,0,P|311:282|307:218,1,108.75
232,251,168283,2,0,L|221:336,1,72.5
320,119,168683,2,0,L|310:36,1,72.5,2|0,0:0|0:0,0:0:0:0:
48,140,169083,6,0,B|72:140|96:128|96:128|144:140|184:116,1,130.499996017456,8|0,0:3|0:0,0:0:0:0:
256,64,169483,2,0,P|312:68|352:68,1,86.9999973449708,6|0,0:0|0:0,0:0:0:0:
120,308,169883,2,0,B|140:280|140:280|200:272|224:204,1,141.374993528366,8|2,0:3|0:0,0:0:0:0:
304,264,170283,2,0,P|312:312|314:368,1,94.2499956855776,6|0,0:0|0:0,0:0:0:0:
444,48,170683,6,0,B|408:52|376:72|376:72|336:64|292:76,1,152.249995353699,8|2,0:3|0:0,0:0:0:0:
196,88,171083,2,0,P|148:80|88:56,1,101.499996902466,6|0,0:0|0:0,0:0:0:0:
376,232,171483,2,0,B|336:224|296:232|296:232|264:208|212:208,1,163.125006222725,8|2,0:3|0:0,0:0:0:0:
112,204,171883,2,0,P|52:184|0:174,1,108.750004148483,6|0,0:0|0:0,0:0:0:0:
312,328,172283,6,0,P|380:332|364:136,1,329.874984899522,8|0,0:3|0:0,0:0:0:0:
297,149,173083,6,0,B|246:185|251:246|251:246|154:242|171:312|110:331|54:315,1,329.874984899522
92,237,173883,6,0,B|131:192|176:177|176:177|124:103|169:31|169:31|185:67|178:98,1,329.874984899522,2|0,0:0|0:0,0:0:0:0:
248,139,174683,6,0,B|341:138|370:30|370:30|413:60|431:114,1,282.749987056733,8|0,0:1|0:0,0:0:0:0:
368,224,175483,6,0,B|368:96|264:56|264:56|264:340|264:340|160:352|104:284|120:248|168:208|204:240|188:280,1,739.500014104843,2|0,0:0|0:0,0:0:0:0:
191,263,178683,6,0,P|187:232|192:183,1,72.5,2|0,0:0|0:0,0:0:0:0:
78,118,179083,2,0,P|82:149|77:198,1,72.5
260,139,179483,2,0,P|291:131|351:135,1,72.5,8|0,0:1|0:0,0:0:0:0:
395,283,179883,1,0,0:0:0:0:
303,243,180083,1,0,0:0:0:0:
367,59,180283,6,0,P|403:119|379:195,1,145,2|0,0:0|0:0,0:0:0:0:
384,187,180883,1,0,0:0:0:0:
241,78,181083,2,0,P|222:146|259:206,1,145,8|0,0:1|0:0,0:0:0:0:
60,272,181883,6,0,P|104:276|136:276,1,72.5,2|0,0:0|0:0,0:0:0:0:
248,336,182283,2,0,P|320:304|372:300,1,108.75
372,308,182683,2,0,L|384:237,1,72.5,8|0,0:1|0:0,0:0:0:0:
280,140,183083,2,0,L|268:211,1,72.5,0|0,0:1|0:0,0:0:0:0:
372,108,183483,6,0,P|324:56|248:48,1,145,2|0,0:0|0:0,0:0:0:0:
253,46,184083,1,0,0:0:0:0:
204,168,184283,2,0,P|256:208|344:204,1,145,8|0,0:1|0:0,0:0:0:0:
109,323,185083,6,0,P|93:279|77:251,1,72.5,2|0,0:0|0:0,0:0:0:0:
204,168,185483,2,0,P|186:200|177:235,1,72.5
97,143,185883,2,0,P|73:111|33:83,1,72.5,8|0,0:1|0:0,0:0:0:0:
209,27,186283,2,0,P|185:55|165:91,1,72.5
288,320,186683,5,2,0:0:0:0:
380,300,187083,1,2,0:0:0:0:
476,300,187483,2,0,P|480:248|460:192,1,108.75,8|0,0:1|0:0,0:0:0:0:
444,172,187883,2,0,L|444:100,1,72.5,2|0,0:0|0:0,0:0:0:0:
312,212,188283,6,0,P|316:172|316:132,1,72.5,2|0,0:0|0:0,0:0:0:0:
192,36,188683,2,0,P|176:92|176:152,1,108.75
184,176,189083,5,6,0:0:0:0:
436,332,189483,1,6,0:0:0:0:
92,80,189883,5,4,0:0:0:0:
8,240,190083,1,0,0:0:0:0:
180,156,190283,5,2,0:0:0:0:
148,308,190483,1,0,0:0:0:0:
280,236,190683,5,8,0:0:0:0:
292,360,190883,1,0,0:0:0:0:
432,204,191083,6,0,L|444:128,1,72.5,2|0,0:0|0:0,0:0:0:0:
248,32,191483,6,0,P|252:76|252:120,1,86.9999973449708,8|0,0:3|0:0,0:0:0:0:
160,328,191883,2,0,P|176:284|232:220,1,130.499996017456
160,171,192283,2,0,P|108:175|64:171,1,86.9999973449708,8|0,0:0|0:0,0:0:0:0:
292,40,192683,2,0,P|344:36|388:40,1,86.9999973449708
449,240,193083,6,0,P|369:200|277:200,1,173.999994689942,2|0,0:0|0:0,0:0:0:0:
120,302,193683,1,0,0:0:0:0:
166,150,193883,2,0,P|204:97|293:26,1,173.999994689942,8|0,0:0|0:0,0:0:0:0:
416,316,194683,6,0,P|371:322|327:319,1,86.9999973449708,2|0,0:0|0:0,0:0:0:0:
225,211,195083,2,0,P|275:225|358:230,1,130.499996017456
434,213,195483,2,0,P|423:166|406:120,1,86.9999973449708,8|0,0:0|0:0,0:0:0:0:
192,136,195883,1,0,0:0:0:0:
300,40,196083,1,0,0:0:0:0:
195,249,196283,6,0,P|115:222|83:141,1,173.999994689942,2|0,0:0|0:0,0:0:0:0:
240,40,196883,1,0,0:0:0:0:
320,144,197083,2,0,L|416:136,1,86.9999973449708,8|0,0:0|0:0,0:0:0:0:
240,40,197483,1,0,0:0:0:0:
216,212,197683,1,0,0:0:0:0:
320,328,197883,6,0,B|368:340|424:308|424:308|456:328|492:328,1,173.999994689942,2|2,0:0|0:0,0:0:0:0:
496,304,198683,2,0,P|488:256|488:212,1,86.9999973449708,2|0,0:0|0:0,0:0:0:0:
376,212,199083,2,0,P|388:160|408:116,1,86.9999973449708
248,40,199483,6,0,P|268:96|272:180,1,130.499996017456,2|0,0:0|0:0,0:0:0:0:
192,188,199883,2,0,B|164:168|136:160|136:160|116:184|76:192,1,130.499996017456
56,280,200283,2,0,P|96:276|144:256,1,86.9999973449708,2|0,0:0|0:0,0:0:0:0:
456,280,200683,2,0,P|416:276|368:256,1,86.9999973449708
193,76,201083,6,0,B|256:88|376:200|336:280|256:320|176:280|136:200|256:88|320:76,1,521.999984069825,2|0,0:0|0:0,0:0:0:0:
128,248,202683,6,0,P|256:348|384:248,1,347.999989379883,2|8,0:0|0:0,0:0:0:0:
146,82,203683,2,0,L|133:130,1,43.4999986724854
273,208,203883,2,0,L|260:150,1,43.4999986724854
383,62,204083,2,0,L|375:116,1,43.4999986724854
362,201,204283,5,8,0:3:0:0:
275,71,204483,1,0,0:3:0:0:
184,160,204683,2,0,P|116:136|40:132,1,130.499996017456,2|0,0:0|0:0,0:0:0:0:
16,200,205083,2,0,L|8:288,1,86.9999973449708,8|0,0:0|0:0,0:0:0:0:
208,68,205483,2,0,P|160:56|108:44,1,86.9999973449708
144,236,205883,5,2,0:0:0:0:
288,140,206083,1,0,0:0:0:0:
288,140,206183,1,0,0:0:0:0:
288,140,206283,1,0,0:0:0:0:
424,260,206483,2,0,L|420:308,1,43.4999986724854
364,212,206683,2,0,P|380:144|392:116,1,86.9999973449708,8|0,0:0|0:0,0:0:0:0:
232,56,207083,2,0,P|244:116|252:156,1,86.9999973449708
172,328,207483,6,0,L|148:184,1,130.499996017456,2|0,0:0|0:0,0:0:0:0:
172,120,207883,2,0,P|140:168|60:180,1,130.499996017456
92,104,208283,1,8,0:0:0:0:
72,272,208483,1,0,0:0:0:0:
244,172,208683,1,2,0:0:0:0:
184,344,208883,1,0,0:0:0:0:
352,292,209083,6,0,P|412:268|488:280,1,130.499996017456,2|0,0:0|0:0,0:0:0:0:
451,167,209483,2,0,B|439:139|417:111|417:111|435:80|439:43,1,130.499996017456
319,38,209883,2,0,P|291:70|191:74,1,130.499996017456,8|0,0:0|0:0,0:0:0:0:
135,38,210283,1,2,0:0:0:0:
163,262,210483,1,0,0:3:0:0:
339,138,210683,1,8,0:3:0:0:
256,192,210783,12,2,213883,0:0:0:0:
