osu file format v14

[General]
AudioFilename: rirodedo.mp3
AudioLeadIn: 0
PreviewTime: 108818
Countdown: 0
SampleSet: Soft
StackLeniency: 0.3
Mode: 0
LetterboxInBreaks: 0
WidescreenStoryboard: 1

[Editor]
DistanceSpacing: 1.5
BeatDivisor: 8
GridSize: 32
TimelineZoom: 3.399999

[Metadata]
Title:RELOADED
TitleUnicode:リローデッド
Artist:EGOIST
ArtistUnicode:EGOIST
Creator:handsome
Version:RECOIL
Source:GENOCIDAL ORGAN
Tags:supercell chelly ryo project itoh enjoe satoshi harmony empire of corpses gyakusatsu kikan 屍者の帝国 ハーモニー 聡 円城 塔 伊藤 計劃 虐殺器官
BeatmapID:831868
BeatmapSetID:380143

[Difficulty]
HPDrainRate:6
CircleSize:4
OverallDifficulty:9
ApproachRate:9
SliderMultiplier:1.4
SliderTickRate:2

[Events]
//Background and Video events
0,0,"rirodedo.jpg",0,0
//Break Periods
//Storyboard Layer 0 (Background)
//Storyboard Layer 1 (Fail)
//Storyboard Layer 2 (Pass)
//Storyboard Layer 3 (Foreground)
//Storyboard Sound Samples

[TimingPoints]
1336,337.078651685393,4,2,1,35,1,0
1336,-166.666666666667,4,2,1,35,0,0
9425,-166.666666666667,4,2,1,45,0,0
14819,336.077970089061,4,2,1,45,1,0
14819,-166.666666666667,4,2,1,45,0,0
22884,346.820809248555,4,2,1,40,1,0
31207,-100,4,2,1,50,0,0
33982,-100,4,2,1,60,0,0
36756,-83.3333333333333,4,2,1,70,0,1
36930,-83.3333333333333,4,2,1,70,0,0
42305,-83.3333333333333,4,2,1,70,0,1
42479,-83.3333333333333,4,2,1,70,0,0
46467,-100,4,2,1,70,0,0
47855,-166.666666666667,4,2,1,40,0,0
86699,-166.666666666667,4,2,1,50,0,0
106120,-1000,4,2,1,40,0,0
107508,-500,4,2,3,30,0,0
108895,-71.4285714285715,4,1,1,70,0,0
111323,-55.5555555555556,4,1,1,80,0,0
112016,-71.4285714285714,4,1,1,70,0,0
122421,-55.5555555555556,4,1,1,80,0,0
123115,-71.4285714285714,4,1,1,70,0,0
132479,-83.3333333333333,4,2,1,70,0,1
132652,-83.3333333333333,4,2,1,70,0,0
138028,-83.3333333333333,4,2,1,70,0,1
138201,-83.3333333333333,4,2,1,70,0,0
142190,-100,4,2,1,70,0,0
143577,-100,4,2,1,60,0,0
165774,-166.666666666667,4,2,1,50,0,0
185196,-1000,4,2,1,40,0,0
185282,-1000,4,2,3,40,0,0
186583,-500,4,2,3,30,0,0
187970,-71.4285714285714,4,1,1,70,0,0
190398,-55.5555555555556,4,1,1,80,0,0
191092,-71.4285714285714,4,1,1,70,0,0
201496,-55.5555555555556,4,1,1,80,0,0
202190,-71.4285714285714,4,1,1,70,0,0
210167,-100,4,2,1,40,0,0
215542,-100,4,2,1,55,0,0
215889,-100,4,2,1,40,0,0
219011,-83.3333333333333,4,2,1,55,0,0
226814,-100,4,2,1,55,0,0
232363,-62.5,4,1,1,75,0,1
249011,-62.5,4,1,1,80,0,1
253173,-71.4285714285714,4,1,1,80,0,1
254560,-125,4,2,1,40,0,0
271207,-125,4,2,1,50,0,0
275369,-375,4,2,1,40,0,0
275456,-303.030303030303,4,2,3,40,0,0
276756,-62.5,4,1,1,70,0,0
279184,-50,4,1,1,80,0,0
279878,-62.5,4,1,1,70,0,0
290282,-50,4,1,1,80,0,0
290976,-62.5,4,1,1,70,0,0
298953,-250,4,2,1,40,0,0
299040,-250,4,2,3,20,0,0
301727,-250,4,2,3,10,0,0

[Colours]
Combo1 : 236,100,103
Combo2 : 138,217,209
Combo3 : 99,228,145
Combo4 : 184,149,255
Combo5 : 103,147,218
Combo6 : 239,163,241

[HitObjects]
133,292,1336,6,0,L|116:197,1,83.9999974365235,4|0,3:1|3:0,0:0:0:0:
147,374,2010,5,0,0:0:0:0:
133,292,2178,1,0,0:0:0:0:
118,209,2347,1,0,0:0:0:0:
103,126,2515,1,0,0:0:0:0:
379,292,2684,70,0,L|396:197,1,83.9999974365235,0|0,3:0|3:0,0:0:0:0:
365,374,3358,5,0,0:0:0:0:
379,292,3527,1,0,0:0:0:0:
394,209,3695,1,0,0:0:0:0:
409,126,3864,1,0,0:0:0:0:
365,374,4032,70,0,L|381:279,1,83.9999974365235,0|0,3:0|3:0,0:0:0:0:
147,374,4706,6,0,L|140:338,2,20.9999993591309,0|0|0,3:0|3:0|3:0,0:0:0:0:
128,270,5043,1,0,0:0:0:0:
113,187,5212,1,0,0:0:0:0:
364,375,5380,70,0,L|367:354,4,20.9999993591309,0|0|0|0|0,3:0|3:0|3:0|3:0|3:0,0:0:0:0:
381,272,5886,1,0,0:0:0:0:
397,189,6055,1,0,0:0:0:0:
413,106,6223,1,0,0:0:0:0:
256,196,6392,5,0,0:0:0:0:
256,175,6476,1,0,0:0:0:0:
256,154,6560,1,0,0:0:0:0:
256,133,6644,1,0,0:0:0:0:
256,112,6729,2,0,L|256:60,2,41.9999987182618,4|0|0,3:2|3:0|3:0,0:0:0:0:
147,374,7403,69,0,0:0:0:0:
133,292,7571,1,0,0:0:0:0:
119,209,7740,1,0,0:0:0:0:
103,126,7909,1,0,0:0:0:0:
256,364,8077,5,0,3:0:0:0:
256,196,8246,1,0,3:0:0:0:
256,28,8414,1,0,3:0:0:0:
364,375,8751,69,0,0:0:0:0:
379,292,8920,1,0,0:0:0:0:
394,209,9088,1,0,0:0:0:0:
409,126,9257,1,0,0:0:0:0:
133,292,9425,5,0,3:0:0:0:
118,209,9594,1,0,3:0:0:0:
103,126,9762,2,0,L|94:77,1,41.9999987182618,0|0,3:0|0:0,0:0:0:0:
256,238,10100,69,0,3:0:0:0:
256,217,10184,1,0,3:0:0:0:
256,196,10268,2,0,L|256:148,1,41.9999987182618,0|0,3:0|0:0,0:0:0:0:
256,68,10605,1,0,0:0:0:0:
379,292,10774,5,0,3:0:0:0:
382,271,10858,1,0,3:0:0:0:
386,250,10942,1,0,3:0:0:0:
389,229,11027,1,0,3:0:0:0:
393,209,11111,1,0,3:0:0:0:
407,126,11279,1,0,0:0:0:0:
256,365,11448,69,0,0:0:0:0:
256,281,11616,1,0,0:0:0:0:
256,196,11785,1,0,0:0:0:0:
256,175,11869,1,0,0:0:0:0:
256,154,11953,1,0,0:0:0:0:
256,133,12038,1,0,0:0:0:0:
256,112,12122,2,0,L|256:56,2,41.9999987182618,4|0|0,3:1|3:0|3:0,0:0:0:0:
147,374,12796,5,0,0:0:0:0:
133,292,12965,1,0,0:0:0:0:
119,209,13133,1,0,0:0:0:0:
103,126,13302,1,0,0:0:0:0:
87,43,13470,2,0,L|77:-13,2,41.9999987182618,0|0|0,3:0|3:0|3:0,0:0:0:0:
365,374,14144,69,0,0:0:0:0:
379,292,14313,1,0,0:0:0:0:
393,209,14482,1,0,0:0:0:0:
401,167,14566,1,0,0:0:0:0:
409,125,14650,1,0,0:0:0:0:
417,83,14734,1,0,0:0:0:0:
425,43,14819,2,0,L|434:-13,2,41.9999987182618,0|0|0,3:0|3:0|3:0,0:0:0:0:
147,374,15491,5,0,0:0:0:0:
133,292,15659,1,0,0:0:0:0:
119,209,15827,1,0,0:0:0:0:
103,126,15995,1,0,0:0:0:0:
87,43,16163,2,0,L|77:-13,2,41.9999987182618,0|0|0,3:0|3:0|3:0,0:0:0:0:
365,374,16835,69,0,0:0:0:0:
379,292,17003,1,0,0:0:0:0:
393,209,17171,1,0,0:0:0:0:
401,167,17255,1,0,0:0:0:0:
409,125,17339,1,0,0:0:0:0:
417,83,17423,1,0,0:0:0:0:
425,43,17507,2,0,L|434:-13,2,41.9999987182618,4|0|0,3:2|3:0|3:0,0:0:0:0:
147,374,18179,5,0,0:0:0:0:
133,292,18347,1,0,0:0:0:0:
119,209,18515,1,0,0:0:0:0:
103,126,18683,1,0,0:0:0:0:
87,43,18851,2,0,L|77:-13,2,41.9999987182618,0|0|0,3:0|3:0|3:0,0:0:0:0:
365,374,19524,69,0,0:0:0:0:
379,292,19692,1,0,0:0:0:0:
393,209,19860,1,0,0:0:0:0:
401,167,19944,1,0,0:0:0:0:
409,125,20028,1,0,0:0:0:0:
417,83,20112,1,0,0:0:0:0:
425,43,20196,2,0,L|434:-13,2,41.9999987182618,0|0|0,3:0|3:0|3:0,0:0:0:0:
256,192,20700,5,0,0:0:0:0:
256,108,20868,1,0,3:0:0:0:
256,87,20952,1,0,3:0:0:0:
256,66,21036,2,0,L|256:18,2,41.9999987182618,0|0|0,3:0|0:0|0:0,0:0:0:0:
147,374,21540,69,0,3:0:0:0:
143,353,21624,1,0,3:0:0:0:
140,332,21708,1,0,3:0:0:0:
136,311,21792,1,0,3:0:0:0:
132,291,21876,5,0,3:0:0:0:
103,126,22044,1,0,3:0:0:0:
380,291,22212,69,0,3:0:0:0:
409,126,22380,1,0,3:0:0:0:
256,336,22548,37,0,3:0:0:0:
256,48,22716,1,0,3:0:0:0:
256,192,22884,21,4,3:1:0:0:
256,314,25658,22,0,L|256:209,1,105,4|0,3:2|0:0,0:0:0:0:
256,192,26005,1,0,3:0:0:0:
256,192,26352,1,0,3:0:0:0:
256,192,26699,1,0,3:0:0:0:
256,192,27045,1,0,3:0:0:0:
256,192,27392,1,0,3:0:0:0:
256,192,27739,1,0,3:0:0:0:
256,192,28086,1,0,3:0:0:0:
147,374,28433,69,0,3:0:0:0:
133,291,28606,1,0,0:0:0:0:
119,209,28779,1,0,3:0:0:0:
103,126,28953,5,0,0:0:0:0:
96,91,29040,1,0,0:0:0:0:
90,57,29126,1,0,3:0:0:0:
90,57,29473,1,0,3:0:0:0:
365,374,29820,70,0,L|381:279,1,70,0|0,3:0|0:0,0:0:0:0:
458,265,30167,1,0,3:0:0:0:
316,235,30340,2,0,L|332:140,1,70,0|0,0:0|3:0,0:0:0:0:
409,126,30687,1,0,0:0:0:0:
256,107,30860,2,0,L|272:12,1,70,0|0,3:0|0:0,0:0:0:0:
147,374,31207,5,0,3:0:0:0:
133,291,31381,1,0,0:0:0:0:
119,209,31554,1,0,3:0:0:0:
316,235,31727,69,0,0:0:0:0:
322,200,31814,1,0,0:0:0:0:
328,166,31901,1,0,3:0:0:0:
409,126,32074,1,0,0:0:0:0:
256,107,32248,2,0,L|272:12,1,70,0|0,3:0|0:0,0:0:0:0:
147,374,32594,6,0,L|130:279,1,70,0|0,3:0|0:0,0:0:0:0:
57,267,32941,1,0,3:0:0:0:
196,235,33115,2,0,L|179:140,1,70,0|0,0:0|3:0,0:0:0:0:
106,128,33462,1,0,0:0:0:0:
256,107,33635,2,0,L|239:12,1,70,0|0,3:0|0:0,0:0:0:0:
379,291,33982,69,0,3:0:0:0:
393,209,34155,1,0,3:0:0:0:
409,126,34329,1,0,3:0:0:0:
256,192,34502,5,0,3:0:0:0:
256,150,34589,1,0,0:0:0:0:
256,108,34675,1,0,3:0:0:0:
133,291,34849,69,0,3:0:0:0:
119,209,35022,1,0,3:0:0:0:
103,126,35196,1,0,3:0:0:0:
256,275,35369,5,0,0:0:0:0:
147,374,36756,6,0,L|131:285,1,83.9999974365235,4|0,3:1|0:0,0:0:0:0:
194,97,37103,2,0,L|179:14,1,83.9999974365235,0|0,0:0|3:0,0:0:0:0:
47,301,37450,5,8,0:0:0:0:
78,204,37623,1,0,3:0:0:0:
109,107,37797,2,0,L|94:24,1,83.9999974365235,0|0,0:0|0:0,0:0:0:0:
365,374,38144,70,0,L|391:229,1,125.999996154785,0|0,3:0|0:0,0:0:0:0:
391,229,38490,1,0,0:0:0:0:
313,134,38664,1,0,3:0:0:0:
469,324,38837,5,8,0:0:0:0:
469,324,39184,2,0,L|488:214,1,83.9999974365235,0|0,3:0|0:0,0:0:0:0:
443,134,39531,70,0,L|455:61,1,41.9999987182618,2|0,3:1|0:0,0:0:0:0:
352,88,39704,6,0,L|364:15,1,41.9999987182618,2|0,0:1|0:0,0:0:0:0:
256,65,39878,70,0,L|256:23,1,41.9999987182618,2|0,0:1|0:0,0:0:0:0:
160,88,40051,6,0,L|152:46,1,41.9999987182618,2|0,0:1|0:0,0:0:0:0:
69,134,40225,70,0,L|61:92,1,41.9999987182618,10|0,3:1|0:0,0:0:0:0:
43,324,40398,6,0,L|23:215,1,83.9999974365235,0|0,3:0|0:0,0:0:0:0:
256,235,40745,69,0,3:0:0:0:
256,214,40831,1,0,3:0:0:0:
256,192,40918,1,8,0:0:0:0:
256,107,41092,2,0,L|256:10,1,83.9999974365235,0|0,3:0|0:0,0:0:0:0:
380,291,41438,5,0,3:0:0:0:
383,270,41525,1,0,3:0:0:0:
388,249,41612,1,8,0:0:0:0:
410,124,41785,1,0,3:0:0:0:
124,249,41959,69,0,3:0:0:0:
101,124,42132,1,0,0:0:0:0:
365,374,42305,6,0,L|381:285,1,83.9999974365235,4|0,3:1|0:0,0:0:0:0:
318,97,42652,2,0,L|333:14,1,83.9999974365235,0|0,0:0|3:0,0:0:0:0:
465,301,42999,69,8,0:0:0:0:
434,204,43173,1,0,3:0:0:0:
403,107,43346,2,0,L|418:24,1,83.9999974365235,0|0,0:0|0:0,0:0:0:0:
147,374,43693,6,0,L|121:229,1,125.999996154785,0|0,3:0|0:0,0:0:0:0:
121,229,44040,1,0,0:0:0:0:
199,134,44213,1,0,3:0:0:0:
43,324,44386,69,8,0:0:0:0:
43,324,44733,1,0,3:0:0:0:
39,303,44820,1,0,0:0:0:0:
35,282,44907,1,0,0:0:0:0:
31,261,44993,1,0,0:0:0:0:
28,241,45080,5,8,0:0:0:0:
184,51,45253,1,0,1:0:0:0:
256,288,45427,69,0,3:0:0:0:
256,96,45600,1,0,3:0:0:0:
483,241,45774,5,8,0:0:0:0:
328,51,45947,1,0,1:0:0:0:
256,288,46120,69,0,3:0:0:0:
256,96,46294,1,0,3:0:0:0:
365,374,46467,6,0,L|381:281,1,70,0|0,3:0|0:0,0:0:0:0:
380,287,46727,1,0,3:0:0:0:
383,270,46814,1,8,0:0:0:0:
256,96,46988,1,0,3:0:0:0:
129,270,47161,69,0,3:0:0:0:
125,252,47248,1,0,3:0:0:0:
122,235,47334,1,0,3:0:0:0:
119,218,47421,1,0,3:0:0:0:
116,201,47508,1,0,3:0:0:0:
113,183,47594,1,0,3:0:0:0:
110,166,47681,1,0,3:0:0:0:
147,374,47855,69,4,3:1:0:0:
129,270,48115,1,0,0:0:0:0:
129,270,48201,1,0,3:0:0:0:
111,166,48462,1,0,0:0:0:0:
111,166,48548,1,0,3:0:0:0:
93,62,48808,1,0,0:0:0:0:
93,62,48895,1,0,3:0:0:0:
147,374,49155,69,0,0:0:0:0:
147,374,49242,1,0,3:0:0:0:
129,270,49502,1,0,0:0:0:0:
129,270,49589,1,0,3:0:0:0:
111,166,49849,1,0,0:0:0:0:
111,166,49936,1,0,3:0:0:0:
93,62,50196,1,0,0:0:0:0:
93,62,50282,1,0,3:0:0:0:
365,374,50542,5,0,0:0:0:0:
365,374,50629,1,4,3:1:0:0:
383,270,50889,1,0,0:0:0:0:
383,270,50976,1,0,3:0:0:0:
401,166,51236,1,0,0:0:0:0:
401,166,51323,1,0,3:0:0:0:
419,62,51583,1,0,0:0:0:0:
419,62,51670,1,0,3:0:0:0:
365,374,51930,69,0,0:0:0:0:
365,374,52016,1,0,3:0:0:0:
383,270,52277,1,0,0:0:0:0:
383,270,52363,1,0,3:0:0:0:
401,166,52623,1,0,0:0:0:0:
401,166,52710,1,0,3:0:0:0:
419,62,52970,1,0,0:0:0:0:
419,62,53057,1,0,3:0:0:0:
147,374,53317,5,0,0:0:0:0:
147,374,53404,1,4,3:1:0:0:
111,166,53664,1,0,0:0:0:0:
111,166,53751,1,0,3:0:0:0:
147,374,54011,69,0,0:0:0:0:
147,374,54097,1,0,3:0:0:0:
111,166,54357,1,0,0:0:0:0:
111,166,54444,1,0,3:0:0:0:
147,374,54704,5,0,0:0:0:0:
147,374,54791,1,0,3:0:0:0:
111,166,55051,1,0,0:0:0:0:
111,166,55138,1,0,3:0:0:0:
147,374,55398,69,0,0:0:0:0:
147,374,55485,1,0,3:0:0:0:
111,166,55745,1,0,0:0:0:0:
111,166,55831,1,0,3:0:0:0:
365,374,56092,5,0,0:0:0:0:
365,374,56178,1,4,3:1:0:0:
401,166,56438,1,0,0:0:0:0:
401,166,56525,1,0,3:0:0:0:
365,374,56785,69,0,0:0:0:0:
365,374,56872,1,0,3:0:0:0:
401,166,57132,1,0,0:0:0:0:
401,166,57219,1,0,3:0:0:0:
365,374,57479,5,0,0:0:0:0:
365,374,57566,1,0,3:0:0:0:
401,166,57826,1,0,0:0:0:0:
401,166,57912,1,0,3:0:0:0:
365,374,58173,69,0,0:0:0:0:
365,374,58259,1,0,3:0:0:0:
401,166,58519,1,0,0:0:0:0:
401,166,58606,1,0,3:0:0:0:
147,374,58866,5,0,0:0:0:0:
147,374,58953,1,4,3:1:0:0:
147,374,59213,1,0,0:0:0:0:
147,374,59300,1,0,3:0:0:0:
147,374,59560,1,0,0:0:0:0:
147,374,59647,1,0,3:0:0:0:
147,374,59907,1,0,0:0:0:0:
147,374,59993,1,0,3:0:0:0:
147,374,60253,69,0,0:0:0:0:
147,374,60340,1,0,3:0:0:0:
147,374,60600,1,0,0:0:0:0:
147,374,60687,1,0,3:0:0:0:
147,374,60947,1,0,0:0:0:0:
147,374,61034,1,0,3:0:0:0:
147,374,61294,1,0,0:0:0:0:
147,374,61381,1,0,3:0:0:0:
365,374,61641,5,0,0:0:0:0:
365,374,61727,1,4,3:1:0:0:
365,374,61988,1,0,0:0:0:0:
365,374,62074,1,0,3:0:0:0:
365,374,62334,1,0,0:0:0:0:
365,374,62421,1,0,3:0:0:0:
365,374,62681,1,0,0:0:0:0:
365,374,62768,1,0,3:0:0:0:
365,374,63028,69,0,0:0:0:0:
365,374,63115,1,0,3:0:0:0:
365,374,63375,1,0,0:0:0:0:
365,374,63462,1,0,3:0:0:0:
365,374,63722,1,0,0:0:0:0:
365,374,63808,1,0,3:0:0:0:
365,374,64068,1,0,0:0:0:0:
365,374,64155,1,0,3:0:0:0:
147,374,64415,5,0,0:0:0:0:
147,374,64502,1,4,3:1:0:0:
129,270,64762,1,0,0:0:0:0:
129,270,64849,1,0,3:0:0:0:
147,374,65109,69,0,0:0:0:0:
147,374,65196,1,0,3:0:0:0:
129,270,65456,1,0,0:0:0:0:
129,270,65542,1,0,3:0:0:0:
365,374,65803,5,0,0:0:0:0:
365,374,65889,1,0,3:0:0:0:
383,270,66149,1,0,0:0:0:0:
383,270,66236,1,0,3:0:0:0:
365,374,66496,69,0,0:0:0:0:
365,374,66583,1,0,3:0:0:0:
383,270,66843,1,0,0:0:0:0:
383,270,66930,1,0,3:0:0:0:
256,288,67190,5,0,0:0:0:0:
256,288,67277,1,4,3:1:0:0:
256,96,67537,1,0,0:0:0:0:
256,96,67623,1,0,3:0:0:0:
256,288,67884,69,0,0:0:0:0:
256,288,67970,1,0,3:0:0:0:
256,96,68230,1,0,0:0:0:0:
256,96,68317,1,0,3:0:0:0:
256,192,68577,5,0,0:0:0:0:
256,192,68664,1,4,3:1:0:0:
256,288,69357,69,8,0:0:0:0:
256,192,69618,1,8,0:0:0:0:
256,96,69878,1,8,0:0:0:0:
147,374,70051,5,4,3:2:0:0:
143,353,70138,1,0,1:0:0:0:
139,332,70225,1,0,1:0:0:0:
136,311,70311,1,0,1:0:0:0:
132,291,70398,1,0,3:0:0:0:
365,374,70658,69,0,0:0:0:0:
365,374,70745,1,0,3:0:0:0:
383,270,71005,1,0,0:0:0:0:
383,270,71092,1,0,3:0:0:0:
147,374,71352,5,0,0:0:0:0:
147,374,71438,1,0,3:0:0:0:
129,270,71699,1,0,0:0:0:0:
129,270,71785,1,0,3:0:0:0:
111,166,72045,1,0,0:0:0:0:
111,166,72132,1,0,3:0:0:0:
93,62,72392,1,0,0:0:0:0:
93,62,72479,1,0,3:0:0:0:
365,374,72739,69,0,0:0:0:0:
365,374,72826,1,4,3:2:0:0:
369,353,72912,1,0,1:0:0:0:
373,332,72999,1,0,1:0:0:0:
376,311,73086,1,0,1:0:0:0:
380,291,73173,1,0,3:0:0:0:
147,374,73433,5,0,0:0:0:0:
147,374,73519,1,0,3:0:0:0:
129,270,73779,1,0,0:0:0:0:
129,270,73866,1,0,3:0:0:0:
365,374,74126,69,0,0:0:0:0:
365,374,74213,1,0,3:0:0:0:
383,270,74473,1,0,0:0:0:0:
383,270,74560,1,0,3:0:0:0:
401,166,74820,1,0,0:0:0:0:
401,166,74907,1,0,3:0:0:0:
419,62,75167,1,0,0:0:0:0:
419,62,75253,1,0,3:0:0:0:
129,270,75514,5,0,0:0:0:0:
129,270,75600,1,4,3:2:0:0:
125,249,75687,1,0,1:0:0:0:
121,228,75774,1,0,1:0:0:0:
118,207,75860,1,0,1:0:0:0:
114,187,75947,1,0,3:0:0:0:
365,374,76207,69,0,0:0:0:0:
365,374,76294,1,0,3:0:0:0:
398,187,76554,1,0,0:0:0:0:
398,187,76641,1,0,3:0:0:0:
147,374,76901,5,0,0:0:0:0:
147,374,76988,1,0,3:0:0:0:
129,270,77248,1,0,0:0:0:0:
129,270,77334,1,0,3:0:0:0:
111,166,77594,1,0,0:0:0:0:
111,166,77681,1,0,3:0:0:0:
93,62,77941,1,0,0:0:0:0:
93,62,78028,1,0,3:0:0:0:
383,270,78288,69,0,0:0:0:0:
383,270,78375,1,4,3:2:0:0:
387,249,78462,1,0,1:0:0:0:
391,228,78548,1,0,1:0:0:0:
394,207,78635,1,0,1:0:0:0:
398,187,78722,1,0,3:0:0:0:
147,374,78982,5,0,0:0:0:0:
147,374,79068,1,0,3:0:0:0:
114,187,79329,1,0,0:0:0:0:
114,187,79415,1,0,3:0:0:0:
365,374,79675,69,0,0:0:0:0:
365,374,79762,1,0,3:0:0:0:
383,270,80022,1,0,0:0:0:0:
383,270,80109,1,0,3:0:0:0:
401,166,80369,1,0,0:0:0:0:
401,166,80456,1,0,3:0:0:0:
419,62,80716,1,0,0:0:0:0:
419,62,80803,1,0,3:0:0:0:
114,187,81063,5,0,0:0:0:0:
114,187,81149,1,4,3:2:0:0:
110,166,81236,1,0,1:0:0:0:
106,145,81323,1,0,1:0:0:0:
103,124,81410,1,0,1:0:0:0:
99,104,81496,1,0,3:0:0:0:
147,374,81756,69,0,0:0:0:0:
147,374,81843,1,0,3:0:0:0:
129,270,82103,1,0,0:0:0:0:
129,270,82190,1,0,3:0:0:0:
365,374,82450,5,0,0:0:0:0:
365,374,82537,1,0,3:0:0:0:
383,270,82797,1,0,0:0:0:0:
383,270,82884,1,0,3:0:0:0:
147,374,83144,69,0,0:0:0:0:
147,374,83230,1,0,3:0:0:0:
111,166,83490,1,0,0:0:0:0:
111,166,83577,1,0,3:0:0:0:
365,374,83837,5,0,0:0:0:0:
365,374,83924,1,4,3:2:0:0:
401,166,84184,1,0,1:0:0:0:
401,166,84271,1,0,3:0:0:0:
147,374,84531,69,0,0:0:0:0:
147,374,84618,1,0,3:0:0:0:
93,62,84878,1,0,0:0:0:0:
93,62,84964,1,0,3:0:0:0:
365,374,85225,5,0,0:0:0:0:
365,374,85311,1,0,3:0:0:0:
419,62,85571,1,0,0:0:0:0:
419,62,85658,1,0,0:0:0:0:
256,192,85918,69,0,0:0:0:0:
256,192,86005,2,0,L|256:88,1,83.9999974365235,0|0,0:0|0:0,0:0:0:0:
147,374,86699,38,0,L|137:320,1,41.9999987182618,4|0,3:1|0:0,0:0:0:0:
256,192,87045,2,0,L|256:128,1,41.9999987182618,0|0,3:0|0:0,0:0:0:0:
84,273,87392,70,0,L|74:219,1,41.9999987182618,0|0,3:0|0:0,0:0:0:0:
256,74,87739,2,0,L|256:10,1,41.9999987182618,0|0,3:0|0:0,0:0:0:0:
365,374,88086,6,0,L|374:320,1,41.9999987182618,0|0,3:0|0:0,0:0:0:0:
256,192,88433,2,0,L|256:128,1,41.9999987182618,0|0,3:0|0:0,0:0:0:0:
428,273,88779,70,0,L|437:219,1,41.9999987182618,0|0,3:0|0:0,0:0:0:0:
256,74,89126,2,0,L|256:10,1,41.9999987182618,0|0,3:0|0:0,0:0:0:0:
84,273,89473,6,0,L|74:219,1,41.9999987182618,0|0,3:0|0:0,0:0:0:0:
256,192,89820,2,0,L|256:128,1,41.9999987182618,0|0,3:0|0:0,0:0:0:0:
21,172,90167,70,0,L|11:118,1,41.9999987182618,0|0,3:0|0:0,0:0:0:0:
256,74,90514,2,0,L|256:10,1,41.9999987182618,0|0,3:0|0:0,0:0:0:0:
428,273,90860,6,0,L|437:219,1,41.9999987182618,0|0,3:0|0:0,0:0:0:0:
256,192,91207,2,0,L|256:128,1,41.9999987182618,0|0,3:0|0:0,0:0:0:0:
491,172,91554,70,0,L|500:118,1,41.9999987182618,0|0,3:0|0:0,0:0:0:0:
256,74,91901,2,0,L|256:10,1,41.9999987182618,0|0,3:0|0:0,0:0:0:0:
256,192,92248,6,0,L|256:128,1,41.9999987182618,0|0,3:0|0:0,0:0:0:0:
256,74,92594,2,0,L|256:10,1,41.9999987182618,0|0,3:0|0:0,0:0:0:0:
256,192,92941,70,0,L|256:128,1,41.9999987182618,0|0,3:0|0:0,0:0:0:0:
256,74,93288,2,0,L|256:10,1,41.9999987182618,0|0,3:0|0:0,0:0:0:0:
256,192,93635,6,0,L|256:128,1,41.9999987182618,0|0,3:0|0:0,0:0:0:0:
256,74,93982,2,0,L|256:10,1,41.9999987182618,0|0,3:0|0:0,0:0:0:0:
256,192,94329,70,0,L|256:128,1,41.9999987182618,0|0,3:0|0:0,0:0:0:0:
256,74,94675,2,0,L|256:10,1,41.9999987182618,0|0,3:0|0:0,0:0:0:0:
176,238,95022,6,0,L|166:184,1,41.9999987182618,0|0,3:0|0:0,0:0:0:0:
336,120,95369,2,0,L|345:66,1,41.9999987182618,0|0,3:0|0:0,0:0:0:0:
176,238,95716,70,0,L|166:184,1,41.9999987182618,0|0,3:0|0:0,0:0:0:0:
336,120,96063,2,0,L|345:66,1,41.9999987182618,0|0,3:0|0:0,0:0:0:0:
96,254,96410,6,0,L|86:200,1,41.9999987182618,0|0,3:0|0:0,0:0:0:0:
416,136,96756,2,0,L|425:82,1,41.9999987182618,0|0,3:0|0:0,0:0:0:0:
16,270,97103,70,0,L|6:216,1,41.9999987182618,0|0,3:0|0:0,0:0:0:0:
496,152,97450,2,0,L|505:98,1,41.9999987182618,0|0,3:0|0:0,0:0:0:0:
147,374,97797,6,0,L|137:320,1,41.9999987182618,4|0,3:1|0:0,0:0:0:0:
256,192,98144,2,0,L|256:128,1,41.9999987182618,0|0,3:0|0:0,0:0:0:0:
84,273,98490,70,0,L|74:219,1,41.9999987182618,0|0,3:0|0:0,0:0:0:0:
256,74,98837,2,0,L|256:10,1,41.9999987182618,0|0,3:0|0:0,0:0:0:0:
365,374,99184,6,0,L|374:320,1,41.9999987182618,0|0,3:0|0:0,0:0:0:0:
256,192,99531,2,0,L|256:128,1,41.9999987182618,0|0,3:0|0:0,0:0:0:0:
428,273,99878,70,0,L|437:219,1,41.9999987182618,0|0,3:0|0:0,0:0:0:0:
256,74,100225,2,0,L|256:10,1,41.9999987182618,0|0,3:0|0:0,0:0:0:0:
84,273,100571,6,0,L|74:219,1,41.9999987182618,0|0,3:0|0:0,0:0:0:0:
256,192,100918,2,0,L|256:128,1,41.9999987182618,0|0,3:0|0:0,0:0:0:0:
21,172,101265,70,0,L|11:118,1,41.9999987182618,0|0,3:0|0:0,0:0:0:0:
256,74,101612,2,0,L|256:10,1,41.9999987182618,0|0,3:0|0:0,0:0:0:0:
428,273,101959,6,0,L|437:219,1,41.9999987182618,0|0,3:0|0:0,0:0:0:0:
256,192,102305,2,0,L|256:128,1,41.9999987182618,0|0,3:0|0:0,0:0:0:0:
491,172,102652,70,0,L|500:118,1,41.9999987182618,0|0,3:0|0:0,0:0:0:0:
256,74,102999,2,0,L|256:10,1,41.9999987182618,0|0,3:0|0:0,0:0:0:0:
256,192,103346,6,0,L|256:128,1,41.9999987182618,0|0,3:0|0:0,0:0:0:0:
256,74,103693,2,0,L|256:10,1,41.9999987182618,0|0,3:0|0:0,0:0:0:0:
256,192,104040,70,0,L|256:128,1,41.9999987182618,0|0,3:0|0:0,0:0:0:0:
256,74,104386,2,0,L|256:10,1,41.9999987182618,0|0,3:0|0:0,0:0:0:0:
256,192,104733,6,0,L|256:128,1,41.9999987182618,0|0,3:0|0:0,0:0:0:0:
256,74,105080,2,0,L|256:10,1,41.9999987182618,0|0,3:0|0:0,0:0:0:0:
256,192,105427,70,0,L|256:128,1,41.9999987182618,0|0,3:0|0:0,0:0:0:0:
256,74,105774,2,0,L|256:10,1,41.9999987182618,0|0,3:0|0:0,0:0:0:0:
256,310,106120,6,0,L|256:246,1,41.9999987182618,4|0,3:1|0:0,0:0:0:0:
256,192,107508,2,0,L|256:128,1,41.9999987182618,4|0,3:1|0:0,0:0:0:0:
256,74,108201,85,0,0:0:0:0:
365,374,108895,21,4,3:1:0:0:
365,374,109068,1,0,0:0:0:0:
256,192,109242,69,8,0:0:0:0:
256,192,109415,1,0,0:0:0:0:
147,374,109589,5,0,3:0:0:0:
147,374,109762,1,0,0:0:0:0:
365,374,109936,70,0,L|394:216,1,146.999995513916,8|0,0:0|0:0,0:0:0:0:
406,151,110282,1,4,3:2:0:0:
330,107,110456,1,0,0:0:0:0:
256,64,110629,1,8,0:2:0:0:
105,151,110803,5,4,0:2:0:0:
182,107,110976,1,0,3:0:0:0:
256,64,111149,1,0,0:0:0:0:
458,325,111323,70,0,L|486:173,1,125.999996154785,12|0,0:0|0:0,0:0:0:0:
54,325,111670,6,0,L|25:173,1,125.999996154785,4|0,3:1|0:0,0:0:0:0:
407,151,112016,69,8,0:0:0:0:
407,151,112190,1,0,0:0:0:0:
256,64,112363,5,0,3:0:0:0:
256,64,112537,1,0,0:0:0:0:
106,151,112710,69,8,0:0:0:0:
106,151,112884,1,0,0:0:0:0:
147,374,113057,5,4,3:2:0:0:
105,151,113230,1,0,0:0:0:0:
256,320,113404,69,12,0:2:0:0:
256,64,113577,1,0,0:0:0:0:
365,374,113751,5,4,3:2:0:0:
406,151,113924,1,0,0:0:0:0:
256,320,114097,70,0,L|256:192,1,97.9999970092774,8|0,0:0|0:0,0:0:0:0:
147,374,114444,5,4,3:1:0:0:
147,374,114618,1,0,0:0:0:0:
256,192,114791,69,8,0:0:0:0:
256,192,114964,1,0,0:0:0:0:
365,374,115138,5,0,3:0:0:0:
365,374,115311,1,0,0:0:0:0:
147,374,115485,70,0,L|118:216,1,146.999995513916,8|0,0:0|0:0,0:0:0:0:
106,151,115831,1,4,3:2:0:0:
182,107,116005,1,0,0:0:0:0:
256,64,116178,1,8,0:2:0:0:
407,151,116352,5,4,0:2:0:0:
330,107,116525,1,0,3:0:0:0:
256,64,116699,1,0,0:0:0:0:
365,374,116872,70,0,L|394:216,1,146.999995513916,8|0,0:0|0:0,0:0:0:0:
407,151,117219,2,0,L|425:54,1,97.9999970092774,4|0,3:1|0:0,0:0:0:0:
256,320,117566,5,8,0:0:0:0:
256,162,117739,1,0,0:0:0:0:
256,162,117826,1,0,0:0:0:0:
256,162,117912,2,0,L|256:34,1,97.9999970092774,0|0,3:0|0:0,0:0:0:0:
106,152,118259,70,0,L|88:55,1,97.9999970092774,8|0,0:0|0:0,0:0:0:0:
365,374,118606,5,8,0:0:0:0:
120,229,118779,1,0,3:0:0:0:
424,55,118953,1,0,3:0:0:0:
147,374,119126,69,8,0:0:0:0:
392,229,119300,1,0,3:0:0:0:
88,55,119473,1,0,3:0:0:0:
256,320,119647,5,8,3:0:0:0:
256,303,119733,1,0,3:0:0:0:
256,287,119820,1,0,3:0:0:0:
256,271,119907,1,0,3:0:0:0:
365,374,119993,70,0,L|389:244,1,97.9999970092774,4|0,3:1|0:0,0:0:0:0:
424,55,120340,5,8,0:0:0:0:
424,55,120514,1,0,0:0:0:0:
256,192,120687,69,0,3:0:0:0:
256,192,120860,1,0,0:0:0:0:
88,55,121034,5,8,0:0:0:0:
88,55,121207,1,0,0:0:0:0:
147,374,121381,69,4,3:2:0:0:
129,277,121554,1,0,0:0:0:0:
111,181,121727,1,8,0:2:0:0:
365,374,121901,5,4,0:2:0:0:
382,277,122074,1,0,3:0:0:0:
400,181,122248,1,0,0:0:0:0:
54,325,122421,70,0,L|26:173,1,125.999996154785,12|0,0:0|0:0,0:0:0:0:
458,325,122768,6,0,L|487:173,1,125.999996154785,4|0,3:1|0:0,0:0:0:0:
88,55,123115,69,8,0:0:0:0:
88,55,123288,1,0,0:0:0:0:
256,192,123462,5,0,3:0:0:0:
256,192,123635,1,0,0:0:0:0:
424,55,123808,69,8,0:0:0:0:
424,55,123982,1,0,0:0:0:0:
365,374,124155,5,4,3:2:0:0:
406,151,124329,1,0,0:0:0:0:
256,320,124502,69,12,0:2:0:0:
256,64,124675,1,0,0:0:0:0:
147,374,124849,5,4,3:2:0:0:
105,151,125022,1,0,0:0:0:0:
256,320,125196,70,0,L|256:160,1,146.999995513916,10|0,0:0|0:0,0:0:0:0:
256,64,125542,1,4,3:1:0:0:
256,64,125889,1,8,0:0:0:0:
256,64,126236,1,0,3:0:0:0:
256,64,126583,1,8,0:0:0:0:
147,374,126930,6,0,L|124:247,1,97.9999970092774,4|0,3:2|0:0,0:0:0:0:
188,141,127277,2,0,L|165:14,1,97.9999970092774,12|0,0:2|0:0,0:0:0:0:
365,374,127623,70,0,L|382:277,1,97.9999970092774,4|0,3:2|0:0,0:0:0:0:
324,141,127970,2,0,L|341:44,1,97.9999970092774,8|0,0:0|0:0,0:0:0:0:
147,374,128317,5,8,0:0:0:0:
382,277,128490,1,0,3:0:0:0:
188,141,128664,1,0,3:0:0:0:
365,374,128837,69,8,0:0:0:0:
130,277,129011,1,0,3:0:0:0:
324,141,129184,1,0,3:0:0:0:
256,384,129357,5,0,3:0:0:0:
256,281,129531,1,0,3:0:0:0:
256,271,129618,1,0,3:0:0:0:
256,261,129704,1,0,3:0:0:0:
256,251,129791,1,0,3:0:0:0:
256,241,129878,1,0,3:0:0:0:
256,232,129964,1,0,3:0:0:0:
256,222,130051,1,0,3:0:0:0:
256,212,130138,1,0,3:0:0:0:
256,202,130225,1,0,3:0:0:0:
256,192,130311,1,0,3:0:0:0:
256,160,130398,70,0,L|256:135,7,24.4999992523194,0|0|0|0|0|0|0|0,3:0|3:0|3:0|0:0|3:0|3:0|3:0|0:0,0:0:0:0:
256,192,130745,1,2,0:0:0:0:
256,32,130918,1,2,0:0:0:0:
256,192,131092,5,4,0:0:0:0:
365,374,132479,38,0,L|381:285,1,83.9999974365235,4|0,3:1|0:0,0:0:0:0:
318,97,132826,2,0,L|333:14,1,83.9999974365235,0|0,0:0|3:0,0:0:0:0:
465,301,133173,5,8,0:0:0:0:
434,204,133346,1,0,3:0:0:0:
403,107,133519,2,0,L|418:24,1,83.9999974365235,0|0,0:0|0:0,0:0:0:0:
147,374,133866,70,0,L|121:229,1,125.999996154785,0|0,3:0|0:0,0:0:0:0:
121,229,134213,1,0,0:0:0:0:
199,134,134386,1,0,3:0:0:0:
43,324,134560,5,8,0:0:0:0:
43,324,134907,2,0,L|24:214,1,83.9999974365235,0|0,0:0|0:0,0:0:0:0:
69,134,135253,70,0,L|57:61,1,41.9999987182618,2|0,3:1|0:0,0:0:0:0:
160,88,135427,6,0,L|148:15,1,41.9999987182618,2|0,0:1|0:0,0:0:0:0:
256,65,135600,70,0,L|256:23,1,41.9999987182618,2|0,0:1|0:0,0:0:0:0:
352,88,135774,6,0,L|360:46,1,41.9999987182618,2|0,3:1|0:0,0:0:0:0:
443,134,135947,70,0,L|451:92,1,41.9999987182618,10|0,0:1|0:0,0:0:0:0:
469,324,136120,6,0,L|489:215,1,83.9999974365235,0|0,3:0|0:0,0:0:0:0:
256,235,136467,69,0,3:0:0:0:
256,214,136554,1,0,3:0:0:0:
256,192,136641,1,8,0:0:0:0:
256,107,136814,2,0,L|256:10,1,83.9999974365235,0|0,0:0|0:0,0:0:0:0:
132,291,137161,5,0,3:0:0:0:
129,270,137248,1,0,3:0:0:0:
124,249,137334,1,8,0:0:0:0:
102,124,137508,1,0,3:0:0:0:
388,249,137681,69,0,3:0:0:0:
411,124,137855,1,0,0:0:0:0:
147,374,138028,6,0,L|131:285,1,83.9999974365235,4|0,3:1|0:0,0:0:0:0:
194,97,138375,2,0,L|179:14,1,83.9999974365235,0|0,0:0|3:0,0:0:0:0:
47,301,138722,69,8,0:0:0:0:
78,204,138895,1,0,3:0:0:0:
109,107,139068,2,0,L|94:24,1,83.9999974365235,0|0,0:0|0:0,0:0:0:0:
365,374,139415,6,0,L|391:229,1,125.999996154785,0|0,3:0|0:0,0:0:0:0:
391,229,139762,1,0,0:0:0:0:
313,134,139936,1,0,3:0:0:0:
469,324,140109,69,8,0:0:0:0:
469,324,140456,1,0,3:0:0:0:
473,303,140542,1,0,0:0:0:0:
477,282,140629,1,0,0:0:0:0:
481,261,140716,1,0,0:0:0:0:
484,241,140803,5,8,0:0:0:0:
328,51,140976,1,0,1:0:0:0:
256,288,141149,69,0,3:0:0:0:
256,96,141323,1,0,3:0:0:0:
29,241,141496,5,8,0:0:0:0:
184,51,141670,1,0,0:0:0:0:
256,288,141843,69,0,3:0:0:0:
256,96,142016,1,0,3:0:0:0:
147,374,142190,6,0,L|131:281,1,70,0|0,3:0|0:0,0:0:0:0:
132,287,142450,1,0,3:0:0:0:
129,270,142537,1,8,0:0:0:0:
256,96,142710,1,0,3:0:0:0:
383,270,142884,69,0,3:0:0:0:
387,252,142970,1,0,3:0:0:0:
390,235,143057,1,0,3:0:0:0:
393,218,143144,1,0,3:0:0:0:
396,201,143230,1,0,3:0:0:0:
399,183,143317,1,0,3:0:0:0:
402,166,143404,1,0,3:0:0:0:
365,374,143577,22,0,L|381:281,1,70,4|0,3:1|0:0,0:0:0:0:
319,196,143924,2,0,L|335:103,1,70,0|0,0:0|3:0,0:0:0:0:
365,374,144271,53,8,0:0:0:0:
319,196,144444,2,0,L|344:48,1,140,0|0,3:0|0:0,0:0:0:0:
448,344,144964,21,0,3:0:0:0:
402,166,145138,2,0,L|415:89,1,70,0|0,0:0|0:0,0:0:0:0:
365,374,145485,53,0,3:0:0:0:
319,196,145658,2,0,L|332:119,1,70,8|0,0:0|0:0,0:0:0:0:
485,136,146005,2,0,L|498:59,1,70,0|0,3:0|0:0,0:0:0:0:
147,374,146352,22,0,L|131:281,1,70,0|0,3:0|0:0,0:0:0:0:
193,196,146699,2,0,L|177:103,1,70,0|0,0:0|3:0,0:0:0:0:
147,374,147045,53,8,0:0:0:0:
193,196,147219,2,0,L|167:48,1,140,0|0,3:0|0:0,0:0:0:0:
64,344,147739,21,0,3:0:0:0:
110,166,147912,2,0,L|96:89,1,70,0|0,0:0|0:0,0:0:0:0:
147,374,148259,53,0,3:0:0:0:
193,196,148433,2,0,L|179:119,1,70,8|0,0:0|0:0,0:0:0:0:
27,136,148779,2,0,L|13:59,1,70,0|0,3:0|0:0,0:0:0:0:
256,364,149126,22,0,L|256:268,1,70,0|0,3:0|0:0,0:0:0:0:
256,192,149473,2,0,L|256:96,1,70,0|0,0:0|3:0,0:0:0:0:
256,364,149820,53,8,0:0:0:0:
256,192,149993,2,0,L|256:42,1,140,0|0,3:0|0:0,0:0:0:0:
321,299,150514,21,0,3:0:0:0:
345,161,150687,2,0,L|357:87,1,70,0|0,0:0|0:0,0:0:0:0:
191,299,151034,53,0,3:0:0:0:
167,161,151207,2,0,L|154:87,1,70,8|0,0:0|0:0,0:0:0:0:
345,161,151554,1,0,0:0:0:0:
348,143,151641,1,0,0:0:0:0:
351,126,151727,1,0,0:0:0:0:
354,109,151814,1,0,0:0:0:0:
357,92,151901,21,8,0:0:0:0:
310,0,152074,1,0,1:0:0:0:
256,192,152248,53,0,3:0:0:0:
256,85,152421,1,0,3:0:0:0:
154,92,152594,21,8,0:0:0:0:
202,0,152768,1,0,1:0:0:0:
256,192,152941,53,0,3:0:0:0:
256,85,153115,1,0,3:0:0:0:
321,299,153288,22,0,L|338:204,1,70,0|0,3:0|0:0,0:0:0:0:
336,212,153548,1,0,3:0:0:0:
339,195,153635,1,8,0:0:0:0:
256,85,153808,1,0,3:0:0:0:
191,299,153982,53,0,3:0:0:0:
187,281,154068,1,0,3:0:0:0:
184,264,154155,1,0,3:0:0:0:
181,247,154242,1,0,3:0:0:0:
178,230,154329,1,0,3:0:0:0:
175,212,154415,1,0,3:0:0:0:
172,195,154502,1,0,3:0:0:0:
147,374,154675,21,4,3:1:0:0:
52,277,154849,1,0,0:0:0:0:
172,195,155022,1,0,0:0:0:0:
77,98,155196,1,0,3:0:0:0:
147,374,155369,53,8,0:0:0:0:
172,195,155542,2,0,L|146:47,1,140,0|0,3:0|3:0,0:0:0:0:
147,374,156063,21,0,3:0:0:0:
52,277,156236,2,0,L|39:203,1,70,0|0,0:0|0:0,0:0:0:0:
147,374,156583,53,0,3:0:0:0:
172,195,156756,2,0,L|159:121,1,70,8|0,0:0|0:0,0:0:0:0:
77,98,157103,2,0,L|64:24,1,70,0|0,3:0|0:0,0:0:0:0:
365,374,157450,22,0,L|378:300,1,70,0|0,3:0|0:0,0:0:0:0:
460,277,157797,2,0,L|473:203,1,70,0|0,0:0|3:0,0:0:0:0:
365,374,158144,53,8,0:0:0:0:
340,195,158317,2,0,L|366:47,1,140,0|0,3:0|0:0,0:0:0:0:
365,374,158837,21,0,3:0:0:0:
460,277,159011,2,0,L|473:203,1,70,0|0,0:0|0:0,0:0:0:0:
365,374,159357,53,0,3:0:0:0:
340,195,159531,2,0,L|353:121,1,70,8|0,0:0|0:0,0:0:0:0:
435,98,159878,2,0,L|448:24,1,70,0|0,3:0|0:0,0:0:0:0:
256,364,160225,21,0,3:0:0:0:
256,192,160398,1,0,0:0:0:0:
256,278,160571,53,0,0:0:0:0:
256,106,160745,1,0,3:0:0:0:
256,364,160918,21,8,0:0:0:0:
256,192,161092,2,0,L|256:32,1,140,0|0,3:0|0:0,0:0:0:0:
191,299,161612,53,0,3:0:0:0:
167,161,161785,2,0,L|155:87,1,70,0|0,0:0|0:0,0:0:0:0:
321,299,162132,21,0,3:0:0:0:
345,161,162305,2,0,L|358:87,1,70,8|0,0:0|0:0,0:0:0:0:
167,161,162652,1,0,3:0:0:0:
164,143,162739,1,0,0:0:0:0:
161,126,162826,1,0,0:0:0:0:
158,109,162912,1,0,0:0:0:0:
155,92,162999,53,8,0:0:0:0:
310,0,163173,1,0,1:0:0:0:
256,192,163346,21,0,3:0:0:0:
256,85,163519,1,0,3:0:0:0:
154,92,163693,53,8,0:0:0:0:
202,0,163866,1,0,1:0:0:0:
256,192,164040,21,0,3:0:0:0:
256,85,164213,1,0,3:0:0:0:
147,374,164386,54,0,L|131:281,1,70,0|0,3:0|0:0,0:0:0:0:
132,287,164647,1,0,3:0:0:0:
129,270,164733,1,8,0:0:0:0:
256,85,164907,1,0,3:0:0:0:
383,270,165080,21,0,3:0:0:0:
387,252,165167,1,0,3:0:0:0:
390,235,165253,1,0,3:0:0:0:
393,218,165340,1,0,3:0:0:0:
396,201,165427,1,0,3:0:0:0:
399,183,165514,1,0,3:0:0:0:
402,166,165600,1,0,3:0:0:0:
256,352,165774,54,0,L|256:310,1,41.9999987182618,4|0,3:1|0:0,0:0:0:0:
147,256,166120,2,0,L|137:202,1,41.9999987182618,0|0,3:0|0:0,0:0:0:0:
256,234,166467,6,0,L|256:192,1,41.9999987182618,0|0,3:0|0:0,0:0:0:0:
84,155,166814,2,0,L|74:101,1,41.9999987182618,0|0,3:0|0:0,0:0:0:0:
256,352,167161,70,0,L|256:310,1,41.9999987182618,0|0,3:0|0:0,0:0:0:0:
365,256,167508,2,0,L|375:202,1,41.9999987182618,0|0,3:0|0:0,0:0:0:0:
256,234,167855,6,0,L|256:192,1,41.9999987182618,0|0,3:0|0:0,0:0:0:0:
428,155,168201,2,0,L|438:101,1,41.9999987182618,0|0,3:0|0:0,0:0:0:0:
256,352,168548,70,0,L|256:310,1,41.9999987182618,0|0,3:0|0:0,0:0:0:0:
84,155,168895,2,0,L|74:101,1,41.9999987182618,0|0,3:0|0:0,0:0:0:0:
256,234,169242,6,0,L|256:192,1,41.9999987182618,0|0,3:0|0:0,0:0:0:0:
21,54,169589,2,0,L|11:0,1,41.9999987182618,0|0,3:0|0:0,0:0:0:0:
256,352,169936,70,0,L|256:310,1,41.9999987182618,0|0,3:0|0:0,0:0:0:0:
428,155,170282,2,0,L|438:101,1,41.9999987182618,0|0,3:0|0:0,0:0:0:0:
256,234,170629,6,0,L|256:192,1,41.9999987182618,0|0,3:0|0:0,0:0:0:0:
491,54,170976,2,0,L|501:0,1,41.9999987182618,0|0,3:0|0:0,0:0:0:0:
256,352,171323,70,0,L|256:310,1,41.9999987182618,0|0,3:0|0:0,0:0:0:0:
256,234,171670,2,0,L|256:192,1,41.9999987182618,0|0,3:0|0:0,0:0:0:0:
256,352,172016,6,0,L|256:310,1,41.9999987182618,0|0,3:0|0:0,0:0:0:0:
256,234,172363,2,0,L|256:192,1,41.9999987182618,0|0,3:0|0:0,0:0:0:0:
256,352,172710,70,0,L|256:310,1,41.9999987182618,0|0,3:0|0:0,0:0:0:0:
256,234,173057,2,0,L|256:192,1,41.9999987182618,0|0,3:0|0:0,0:0:0:0:
256,352,173404,6,0,L|256:310,1,41.9999987182618,0|0,3:0|0:0,0:0:0:0:
256,234,173751,2,0,L|256:192,1,41.9999987182618,0|0,3:0|0:0,0:0:0:0:
365,374,174097,70,0,L|374:315,1,41.9999987182618,0|0,3:0|0:0,0:0:0:0:
147,256,174444,2,0,L|137:197,1,41.9999987182618,0|0,3:0|0:0,0:0:0:0:
365,374,174791,6,0,L|374:315,1,41.9999987182618,0|0,3:0|0:0,0:0:0:0:
147,256,175138,2,0,L|137:197,1,41.9999987182618,0|0,3:0|0:0,0:0:0:0:
428,273,175485,70,0,L|437:219,1,41.9999987182618,0|0,3:0|0:0,0:0:0:0:
84,155,175831,2,0,L|75:101,1,41.9999987182618,0|0,3:0|0:0,0:0:0:0:
491,172,176178,6,0,L|500:118,1,41.9999987182618,0|0,3:0|0:0,0:0:0:0:
21,54,176525,2,0,L|12:0,1,41.9999987182618,0|0,3:0|0:0,0:0:0:0:
256,352,176872,70,0,L|256:310,1,41.9999987182618,4|0,3:1|0:0,0:0:0:0:
365,256,177219,2,0,L|375:202,1,41.9999987182618,0|0,3:0|0:0,0:0:0:0:
256,234,177566,6,0,L|256:192,1,41.9999987182618,0|0,3:0|0:0,0:0:0:0:
428,155,177912,2,0,L|438:101,1,41.9999987182618,0|0,3:0|0:0,0:0:0:0:
256,352,178259,70,0,L|256:310,1,41.9999987182618,0|0,3:0|0:0,0:0:0:0:
147,256,178606,2,0,L|137:202,1,41.9999987182618,0|0,3:0|0:0,0:0:0:0:
256,234,178953,6,0,L|256:192,1,41.9999987182618,0|0,3:0|0:0,0:0:0:0:
84,155,179300,2,0,L|74:101,1,41.9999987182618,0|0,3:0|0:0,0:0:0:0:
256,352,179647,70,0,L|256:310,1,41.9999987182618,0|0,3:0|0:0,0:0:0:0:
428,155,179993,2,0,L|438:101,1,41.9999987182618,0|0,3:0|0:0,0:0:0:0:
256,234,180340,6,0,L|256:192,1,41.9999987182618,0|0,3:0|0:0,0:0:0:0:
491,54,180687,2,0,L|501:0,1,41.9999987182618,0|0,3:0|0:0,0:0:0:0:
256,352,181034,70,0,L|256:310,1,41.9999987182618,0|0,3:0|0:0,0:0:0:0:
84,155,181381,2,0,L|74:101,1,41.9999987182618,0|0,3:0|0:0,0:0:0:0:
256,234,181727,6,0,L|256:192,1,41.9999987182618,0|0,3:0|0:0,0:0:0:0:
21,54,182074,2,0,L|11:0,1,41.9999987182618,0|0,3:0|0:0,0:0:0:0:
256,352,182421,70,0,L|256:310,1,41.9999987182618,0|0,3:0|0:0,0:0:0:0:
256,234,182768,2,0,L|256:192,1,41.9999987182618,0|0,3:0|0:0,0:0:0:0:
256,352,183115,6,0,L|256:310,1,41.9999987182618,0|0,3:0|0:0,0:0:0:0:
256,234,183462,2,0,L|256:192,1,41.9999987182618,0|0,3:0|0:0,0:0:0:0:
256,352,183808,70,0,L|256:310,1,41.9999987182618,0|0,3:0|0:0,0:0:0:0:
256,234,184155,2,0,L|256:192,1,41.9999987182618,0|0,3:0|0:0,0:0:0:0:
256,352,184502,6,0,L|256:310,1,41.9999987182618,0|0,3:0|0:0,0:0:0:0:
256,234,184849,2,0,L|256:192,1,41.9999987182618,0|0,3:0|0:0,0:0:0:0:
256,352,185196,70,0,L|256:310,1,41.9999987182618,4|0,3:1|0:0,0:0:0:0:
256,234,186583,2,0,L|256:192,1,41.9999987182618,0|0,0:0|0:0,0:0:0:0:
256,116,187277,5,0,0:0:0:0:
365,374,187970,5,4,3:1:0:0:
391,229,188144,1,0,0:0:0:0:
256,320,188317,5,8,0:0:0:0:
256,128,188490,1,0,0:0:0:0:
147,374,188664,69,0,3:0:0:0:
121,229,188837,1,0,0:0:0:0:
365,374,189011,6,0,L|394:216,1,146.999995513916,8|0,0:0|0:0,0:0:0:0:
406,151,189357,1,4,3:2:0:0:
256,128,189531,1,0,0:0:0:0:
350,9,189704,1,8,0:2:0:0:
106,151,189878,69,4,0:2:0:0:
256,128,190051,1,0,3:0:0:0:
162,9,190225,1,0,0:0:0:0:
458,325,190398,6,0,L|486:173,1,125.999996154785,12|0,0:0|0:0,0:0:0:0:
54,325,190745,70,0,L|25:173,1,125.999996154785,4|0,3:1|0:0,0:0:0:0:
407,151,191092,5,8,0:0:0:0:
350,9,191265,1,0,0:0:0:0:
256,192,191438,69,0,3:0:0:0:
256,64,191612,1,0,0:0:0:0:
106,151,191785,5,8,0:0:0:0:
162,9,191959,1,0,0:0:0:0:
365,374,192132,69,4,3:2:0:0:
106,151,192305,1,0,0:0:0:0:
256,320,192479,5,12,0:2:0:0:
256,64,192652,1,0,0:0:0:0:
147,374,192826,69,4,3:2:0:0:
407,151,192999,1,0,0:0:0:0:
256,320,193173,6,0,L|256:192,1,97.9999970092774,8|0,0:0|0:0,0:0:0:0:
147,374,193519,69,4,3:1:0:0:
121,229,193693,1,0,0:0:0:0:
256,320,193866,5,8,0:0:0:0:
256,128,194040,1,0,0:0:0:0:
365,374,194213,69,0,3:0:0:0:
391,229,194386,1,0,0:0:0:0:
147,374,194560,6,0,L|118:216,1,146.999995513916,8|0,0:0|0:0,0:0:0:0:
106,151,194907,1,4,3:2:0:0:
256,128,195080,1,0,0:0:0:0:
162,9,195253,1,8,0:2:0:0:
406,151,195427,69,4,0:2:0:0:
256,128,195600,1,0,3:0:0:0:
350,9,195774,1,0,0:0:0:0:
147,374,195947,6,0,L|118:216,1,146.999995513916,8|0,0:0|0:0,0:0:0:0:
106,151,196294,2,0,L|88:54,1,97.9999970092774,4|0,3:1|0:0,0:0:0:0:
256,320,196641,69,8,0:0:0:0:
256,162,196814,1,0,0:0:0:0:
256,162,196901,1,0,0:0:0:0:
256,162,196988,2,0,L|256:34,1,97.9999970092774,0|0,3:0|0:0,0:0:0:0:
406,152,197334,6,0,L|424:55,1,97.9999970092774,8|0,0:0|0:0,0:0:0:0:
147,374,197681,69,8,0:0:0:0:
392,229,197855,1,0,3:0:0:0:
88,55,198028,1,0,3:0:0:0:
365,374,198201,5,8,0:0:0:0:
120,229,198375,1,0,3:0:0:0:
424,55,198548,1,0,3:0:0:0:
256,320,198722,69,0,3:0:0:0:
256,303,198808,1,0,3:0:0:0:
256,287,198895,1,0,3:0:0:0:
256,271,198982,1,0,3:0:0:0:
147,374,199068,6,0,L|123:244,1,97.9999970092774,4|0,3:1|0:0,0:0:0:0:
32,192,199415,69,8,0:0:0:0:
88,55,199589,1,0,0:0:0:0:
256,271,199762,5,0,3:0:0:0:
256,32,199936,1,0,0:0:0:0:
480,192,200109,69,8,0:0:0:0:
424,55,200282,1,0,0:0:0:0:
365,374,200456,5,4,3:2:0:0:
256,271,200629,1,0,0:0:0:0:
365,168,200803,1,8,0:0:0:0:
147,374,200976,69,4,0:2:0:0:
256,271,201149,1,0,3:0:0:0:
147,168,201323,1,0,0:0:0:0:
458,325,201496,6,2,L|486:173,1,125.999996154785,14|2,0:0|0:0,0:0:0:0:
54,325,201843,70,0,L|25:173,1,125.999996154785,4|0,3:1|0:0,0:0:0:0:
406,151,202190,5,8,0:0:0:0:
424,55,202363,1,0,0:0:0:0:
256,192,202537,69,0,3:0:0:0:
256,64,202710,1,0,0:0:0:0:
105,151,202884,5,8,0:0:0:0:
88,55,203057,1,0,0:0:0:0:
147,374,203230,69,4,3:2:0:0:
406,151,203404,1,0,0:0:0:0:
256,320,203577,5,12,0:2:0:0:
256,64,203751,1,0,0:0:0:0:
365,374,203924,69,4,3:2:0:0:
105,151,204097,1,0,0:0:0:0:
256,320,204271,6,0,L|256:160,1,146.999995513916,10|0,0:0|0:0,0:0:0:0:
256,64,204618,1,0,3:0:0:0:
256,64,204964,1,8,0:0:0:0:
256,64,205311,1,0,3:0:0:0:
256,64,205658,1,8,0:0:0:0:
365,374,206005,70,0,L|388:247,1,97.9999970092774,4|0,3:2|0:0,0:0:0:0:
324,141,206352,2,0,L|347:14,1,97.9999970092774,12|0,0:2|0:0,0:0:0:0:
147,374,206699,6,0,L|130:277,1,97.9999970092774,4|0,3:2|0:0,0:0:0:0:
188,141,207045,2,0,L|171:44,1,97.9999970092774,8|0,0:0|0:0,0:0:0:0:
365,374,207392,69,8,0:0:0:0:
130,277,207566,1,0,3:0:0:0:
324,141,207739,1,0,3:0:0:0:
147,374,207912,5,8,0:0:0:0:
382,277,208086,1,0,3:0:0:0:
188,141,208259,1,0,3:0:0:0:
256,384,208433,69,0,3:0:0:0:
256,281,208606,1,0,3:0:0:0:
256,271,208693,1,0,3:0:0:0:
256,261,208779,1,0,3:0:0:0:
256,251,208866,1,0,3:0:0:0:
256,241,208953,1,0,3:0:0:0:
256,232,209040,1,0,3:0:0:0:
256,222,209126,1,0,3:0:0:0:
256,212,209213,1,0,3:0:0:0:
256,202,209300,1,0,3:0:0:0:
256,192,209386,1,0,3:0:0:0:
256,160,209473,6,0,L|256:135,7,24.4999992523194,0|0|0|0|0|0|0|0,3:0|3:0|3:0|0:0|3:0|3:0|3:0|0:0,0:0:0:0:
256,192,209820,69,2,0:0:0:0:
256,32,209993,1,2,0:0:0:0:
365,374,210167,21,0,0:0:0:0:
379,291,210340,1,0,0:0:0:0:
393,209,210514,1,0,0:0:0:0:
409,126,210687,5,0,0:0:0:0:
416,91,210774,1,0,0:0:0:0:
422,57,210860,1,0,0:0:0:0:
422,57,211207,1,0,0:0:0:0:
147,374,211554,70,0,L|131:279,1,70
54,265,211901,1,0,0:0:0:0:
196,235,212074,2,0,L|180:140,1,70,0|0,0:0|0:0,0:0:0:0:
103,126,212421,1,0,0:0:0:0:
256,107,212594,2,0,L|240:12,1,70,0|0,0:0|0:0,0:0:0:0:
365,374,212941,5,0,0:0:0:0:
379,291,213115,1,0,0:0:0:0:
393,209,213288,1,0,0:0:0:0:
196,235,213462,69,0,0:0:0:0:
190,200,213548,1,0,0:0:0:0:
184,166,213635,1,0,0:0:0:0:
103,126,213808,1,0,0:0:0:0:
256,107,213982,2,0,L|240:12,1,70,0|0,0:0|0:0,0:0:0:0:
365,374,214329,5,0,0:0:0:0:
379,291,214502,1,0,0:0:0:0:
393,209,214675,1,0,0:0:0:0:
441,344,214849,69,0,0:0:0:0:
455,261,215022,1,0,0:0:0:0:
469,179,215196,1,0,0:0:0:0:
317,239,215369,5,0,0:0:0:0:
331,156,215542,1,4,3:2:0:0:
147,374,215716,69,4,3:1:0:0:
133,291,215889,1,0,0:0:0:0:
119,209,216063,1,0,0:0:0:0:
103,126,216236,5,0,0:0:0:0:
96,91,216323,1,0,0:0:0:0:
90,57,216410,1,0,0:0:0:0:
90,57,216756,1,0,0:0:0:0:
365,374,217103,70,0,L|381:279,1,70
458,265,217450,1,0,0:0:0:0:
316,235,217623,2,0,L|332:140,1,70,0|0,0:0|0:0,0:0:0:0:
409,126,217970,1,0,0:0:0:0:
256,107,218144,2,0,L|272:12,1,70,0|0,0:0|0:0,0:0:0:0:
365,374,218490,5,0,0:0:0:0:
379,291,218664,1,0,0:0:0:0:
393,209,218837,1,0,0:0:0:0:
196,235,219011,69,2,3:0:0:0:
190,200,219097,1,0,0:0:0:0:
103,126,219184,1,8,0:0:0:0:
103,126,219704,5,0,3:0:0:0:
256,32,219878,1,0,3:0:0:0:
365,374,220051,69,8,0:0:0:0:
365,374,220398,2,0,L|370:345,3,20.9999993591309,0|0|0|0,3:0|3:0|3:0|3:0,0:0:0:0:
382,273,220571,5,8,0:0:0:0:
396,190,220831,69,8,0:0:0:0:
410,108,221092,5,8,0:0:0:0:
147,374,221265,6,0,L|117:207,1,167.999994873047,4|0,3:1|0:0,0:0:0:0:
97,98,221785,1,0,3:0:0:0:
256,0,221959,1,8,0:0:0:0:
147,374,222652,5,0,3:0:0:0:
132,291,222912,69,0,3:0:0:0:
117,208,223173,5,0,3:0:0:0:
256,0,223346,1,8,0:0:0:0:
365,374,224040,70,0,L|394:207,1,167.999994873047,0|0,3:0|0:0,0:0:0:0:
415,98,224560,1,0,3:0:0:0:
256,0,224733,1,8,0:0:0:0:
365,374,225427,5,0,3:0:0:0:
379,291,225687,69,0,3:0:0:0:
394,208,225947,5,0,3:0:0:0:
256,0,226120,1,8,0:0:0:0:
365,374,226814,70,0,L|379:287,1,70,0|0,3:0|0:0,0:0:0:0:
348,223,227161,2,0,L|362:136,1,70,0|0,3:0|0:0,0:0:0:0:
147,374,227508,6,0,L|132:287,1,70,0|0,3:0|0:0,0:0:0:0:
164,223,227855,2,0,L|149:136,1,70,0|0,3:0|0:0,0:0:0:0:
434,235,228201,70,0,L|448:148,1,70,0|0,3:0|0:0,0:0:0:0:
491,87,228548,2,0,L|505:0,1,70,0|0,3:0|0:0,0:0:0:0:
78,235,228895,6,0,L|63:148,1,70,0|0,3:0|0:0,0:0:0:0:
21,87,229242,2,0,L|6:0,1,70,0|0,3:0|0:0,0:0:0:0:
365,374,229589,69,0,3:0:0:0:
188,129,229762,1,0,3:0:0:0:
147,374,229936,5,0,3:0:0:0:
324,129,230109,1,0,3:0:0:0:
295,247,230282,69,0,3:0:0:0:
207,205,230369,1,0,3:0:0:0:
218,247,230456,5,0,3:0:0:0:
306,205,230542,1,0,3:0:0:0:
255,224,230629,5,0,3:0:0:0:
256,184,230716,1,0,3:0:0:0:
256,144,230803,70,0,L|256:111,4,17.5,0|0|0|0|0,1:0|1:0|1:0|1:0|0:0,0:0:0:0:
80,1,232363,54,0,L|105:150,1,112,4|0,3:1|0:0,0:0:0:0:
116,221,232623,1,0,0:0:0:0:
37,255,232710,2,0,L|59:386,1,112,8|0,0:0|0:0,0:0:0:0:
8,152,233057,53,0,3:0:0:0:
256,192,233230,1,0,0:0:0:0:
256,192,233317,1,0,0:0:0:0:
256,192,233404,2,0,L|256:318,1,112,8|0,0:0|0:0,0:0:0:0:
432,1,233751,22,0,L|407:150,1,112,0|0,3:0|0:0,0:0:0:0:
396,221,234011,1,0,0:0:0:0:
475,255,234097,2,0,L|453:386,1,112,8|0,0:0|0:0,0:0:0:0:
504,152,234444,53,0,3:0:0:0:
256,192,234618,1,0,0:0:0:0:
256,192,234704,1,0,0:0:0:0:
256,192,234791,2,0,L|256:318,1,112,8|0,0:0|0:0,0:0:0:0:
80,1,235138,22,0,L|95:91,1,56,4|0,3:1|0:0,0:0:0:0:
432,1,235311,2,0,L|417:91,1,56,2|0,0:2|0:0,0:0:0:0:
166,75,235485,54,0,L|181:165,1,56,10|0,0:2|0:0,0:0:0:0:
346,75,235658,2,0,L|331:165,1,56,2|0,0:2|0:0,0:0:0:0:
107,166,235831,22,0,L|122:256,1,56,2|0,3:2|0:0,0:0:0:0:
405,166,236005,2,0,L|390:256,1,56,2|0,0:2|0:0,0:0:0:0:
193,240,236178,54,0,L|208:330,1,56,10|0,0:2|0:0,0:0:0:0:
319,240,236352,2,0,L|304:330,1,56
256,7,236525,22,0,L|256:135,1,112,0|0,3:0|0:0,0:0:0:0:
256,192,236785,1,0,0:0:0:0:
193,240,236872,2,0,L|208:330,1,56,8|0,0:0|0:0,0:0:0:0:
319,240,237045,2,0,L|310:295,1,56,0|0,0:0|0:0,0:0:0:0:
256,7,237219,54,0,L|256:135,1,112,0|0,3:0|0:0,0:0:0:0:
256,192,237479,1,0,0:0:0:0:
107,166,237566,2,0,L|117:221,1,56,8|0,0:0|0:0,0:0:0:0:
405,166,237739,2,0,L|396:221,1,56,0|0,0:0|0:0,0:0:0:0:
80,1,237912,22,0,L|105:150,1,112,4|2,3:1|0:1,0:0:0:0:
116,221,238173,1,0,0:0:0:0:
37,255,238259,2,0,L|59:386,1,112,8|2,0:0|0:1,0:0:0:0:
8,152,238606,53,0,3:0:0:0:
256,192,238779,1,2,0:1:0:0:
116,221,238953,2,0,L|131:311,1,56,8|0,0:0|0:0,0:0:0:0:
147,374,239126,1,2,0:1:0:0:
432,1,239300,22,0,L|407:150,1,112,0|2,3:0|0:1,0:0:0:0:
396,221,239560,1,0,0:0:0:0:
475,255,239647,2,0,L|453:386,1,112,8|2,0:0|0:1,0:0:0:0:
504,152,239993,53,0,3:0:0:0:
256,192,240167,1,2,0:1:0:0:
396,221,240340,2,0,L|381:311,1,56,8|0,0:0|0:0,0:0:0:0:
365,374,240514,1,2,0:1:0:0:
80,1,240687,22,0,L|95:91,1,56,4|0,3:1|0:0,0:0:0:0:
432,1,240860,2,0,L|417:91,1,56,2|0,0:0|0:0,0:0:0:0:
166,75,241034,54,0,L|181:165,1,56,8|0,0:0|0:0,0:0:0:0:
346,75,241207,2,0,L|331:165,1,56,2|0,0:0|0:0,0:0:0:0:
107,166,241381,22,0,L|122:256,1,56,0|0,3:0|0:0,0:0:0:0:
405,166,241554,2,0,L|390:256,1,56,2|0,0:0|0:0,0:0:0:0:
193,240,241727,54,0,L|208:330,1,56,8|0,0:0|0:0,0:0:0:0:
319,240,241901,2,0,L|304:330,1,56,2|0,0:0|0:0,0:0:0:0:
346,75,242074,21,12,0:0:0:0:
256,192,242248,1,0,3:0:0:0:
166,75,242421,1,0,3:0:0:0:
432,1,242594,53,8,0:0:0:0:
256,352,242768,1,0,3:0:0:0:
80,1,242941,1,0,3:0:0:0:
256,32,243115,21,0,3:0:0:0:
256,50,243201,1,0,3:0:0:0:
256,69,243288,1,0,3:0:0:0:
256,88,243375,1,0,3:0:0:0:
432,1,243462,54,0,L|407:150,1,112,4|0,3:1|0:0,0:0:0:0:
480,184,243722,1,0,0:0:0:0:
318,198,243808,2,0,L|300:309,1,112,8|0,0:0|0:0,0:0:0:0:
508,51,244155,22,0,L|491:149,1,56,0|0,3:0|0:0,0:0:0:0:
307,58,244329,2,0,L|290:156,1,56
480,184,244502,54,0,L|463:282,1,56,8|0,0:0|0:0,0:0:0:0:
374,318,244675,2,0,L|365:374,1,56,0|0,0:0|0:0,0:0:0:0:
80,1,244849,22,0,L|105:150,1,112,0|0,3:0|0:0,0:0:0:0:
32,184,245109,1,0,0:0:0:0:
193,198,245196,2,0,L|212:309,1,112,8|0,0:0|0:0,0:0:0:0:
4,51,245542,54,0,L|20:149,1,56,0|0,3:0|0:0,0:0:0:0:
205,58,245716,2,0,L|221:156,1,56,0|0,0:0|0:0,0:0:0:0:
32,184,245889,22,0,L|48:282,1,56,8|0,0:0|0:0,0:0:0:0:
137,318,246063,2,0,L|147:374,1,56,0|0,0:0|0:0,0:0:0:0:
432,1,246236,54,0,L|417:91,1,56,4|0,3:1|0:0,0:0:0:0:
405,166,246410,2,0,L|390:256,1,56,2|0,0:2|0:0,0:0:0:0:
80,1,246583,22,0,L|95:91,1,56,10|0,0:2|0:0,0:0:0:0:
107,166,246756,2,0,L|122:256,1,56,2|0,0:2|0:0,0:0:0:0:
336,88,246930,54,0,L|327:144,1,56,2|0,3:2|0:0,0:0:0:0:
309,253,247103,2,0,L|300:309,1,56,2|0,0:2|0:0,0:0:0:0:
175,88,247277,22,0,L|185:144,1,56,8|0,0:0|0:0,0:0:0:0:
202,253,247450,2,0,L|212:309,1,56
256,7,247623,54,0,L|256:135,1,112,0|0,3:0|0:0,0:0:0:0:
256,192,247884,1,0,0:0:0:0:
310,253,247970,2,0,L|300:309,1,56,8|0,0:0|0:0,0:0:0:0:
203,253,248144,2,0,L|213:308,1,56,0|0,0:0|0:0,0:0:0:0:
256,7,248317,22,0,L|256:135,1,112,0|0,3:0|0:0,0:0:0:0:
256,192,248577,1,0,0:0:0:0:
337,88,248664,2,0,L|328:143,1,56,8|0,0:0|0:0,0:0:0:0:
176,88,248837,2,0,L|186:143,1,56,0|0,0:0|0:0,0:0:0:0:
432,1,249011,54,0,L|407:150,1,112,4|2,3:1|0:1,0:0:0:0:
480,184,249271,1,0,0:0:0:0:
319,198,249357,2,0,L|301:308,1,112,8|2,0:0|0:1,0:0:0:0:
508,51,249704,22,0,L|491:149,1,56,0|0,3:0|0:0,0:0:0:0:
307,58,249878,2,0,L|290:156,1,56,2|0,0:1|0:0,0:0:0:0:
374,318,250051,1,8,0:0:0:0:
374,318,250138,1,0,0:0:0:0:
374,318,250225,2,0,L|365:374,1,56,2|0,0:1|0:0,0:0:0:0:
80,1,250398,54,0,L|105:150,1,112,4|2,3:1|0:1,0:0:0:0:
32,184,250658,1,0,0:0:0:0:
194,198,250745,2,0,L|212:309,1,112,8|2,0:0|0:1,0:0:0:0:
4,51,251092,22,0,L|20:149,1,56,0|0,3:0|0:0,0:0:0:0:
205,58,251265,2,0,L|221:156,1,56,2|0,0:1|0:0,0:0:0:0:
137,318,251438,1,8,0:0:0:0:
137,318,251525,1,0,0:0:0:0:
137,318,251612,2,0,L|147:374,1,56,2|0,0:1|0:0,0:0:0:0:
508,51,251785,53,12,0:0:0:0:
398,201,251959,1,0,3:0:0:0:
358,18,252132,69,0,3:0:0:0:
137,318,252305,1,8,0:0:0:0:
154,18,252479,53,0,3:0:0:0:
375,318,252652,1,0,0:0:0:0:
4,51,252826,5,0,3:0:0:0:
114,201,252999,1,0,3:0:0:0:
256,123,253173,37,0,3:0:0:0:
256,133,253259,1,0,3:0:0:0:
256,143,253346,1,0,3:0:0:0:
256,152,253433,1,0,3:0:0:0:
256,162,253519,1,0,3:0:0:0:
256,172,253606,1,0,3:0:0:0:
256,182,253693,1,0,3:0:0:0:
256,192,253779,1,0,3:0:0:0:
256,224,253866,6,0,L|256:249,7,24.4999992523194,0|0|0|0|0|0|0|0,3:0|0:0|0:0|0:0|0:0|0:0|0:0|0:0,0:0:0:0:
256,192,254213,69,0,1:0:0:0:
256,32,254386,1,0,1:0:0:0:
365,374,254560,5,4,0:1:0:0:
365,374,255947,1,0,0:0:0:0:
379,292,256467,1,0,0:0:0:0:
394,209,256988,1,0,0:0:0:0:
147,374,257334,69,0,0:0:0:0:
147,374,258722,1,0,0:0:0:0:
133,292,259242,1,0,0:0:0:0:
118,209,259762,1,0,0:0:0:0:
256,192,260109,5,0,0:0:0:0:
256,192,261496,1,0,0:0:0:0:
256,108,262190,1,0,0:0:0:0:
256,360,262884,69,0,0:0:0:0:
256,276,263230,1,0,0:0:0:0:
256,192,263577,1,0,0:0:0:0:
256,108,263924,1,0,0:0:0:0:
256,24,264271,1,0,0:0:0:0:
256,192,264357,12,0,265311,0:0:0:0:
365,374,265658,22,0,L|378:296,1,56,4|0,3:1|0:0,0:0:0:0:
386,242,266005,2,0,L|399:164,1,56,0|0,3:0|0:0,0:0:0:0:
147,374,266352,6,0,L|134:296,1,56,0|0,3:0|0:0,0:0:0:0:
126,242,266699,2,0,L|113:164,1,56,0|0,3:0|0:0,0:0:0:0:
256,192,267045,70,0,L|256:128,1,56,0|0,3:0|0:0,0:0:0:0:
256,58,267392,2,0,L|256:-6,1,56,0|0,3:0|0:0,0:0:0:0:
256,192,267739,6,0,L|256:128,1,56,0|0,3:0|0:0,0:0:0:0:
256,58,268086,2,0,L|256:-6,1,56,0|0,3:0|0:0,0:0:0:0:
147,374,268433,70,0,L|134:296,1,56,0|0,3:0|0:0,0:0:0:0:
126,242,268779,2,0,L|113:164,1,56,0|0,3:0|0:0,0:0:0:0:
365,374,269126,6,0,L|378:296,1,56,0|0,3:0|0:0,0:0:0:0:
386,242,269473,2,0,L|399:164,1,56,0|0,3:0|0:0,0:0:0:0:
256,192,269820,70,0,L|256:128,1,56,0|0,3:0|0:0,0:0:0:0:
256,58,270167,2,0,L|256:-6,1,56,0|0,3:0|0:0,0:0:0:0:
256,192,270514,6,0,L|256:128,1,56,0|0,3:0|0:0,0:0:0:0:
256,58,270860,2,0,L|256:-6,1,56,0|0,3:0|0:0,0:0:0:0:
365,374,271207,70,0,L|378:296,1,56,4|0,3:2|0:0,0:0:0:0:
386,242,271554,2,0,L|399:164,1,56,0|0,3:0|0:0,0:0:0:0:
365,374,271901,6,0,L|378:296,1,56,0|0,3:0|0:0,0:0:0:0:
386,242,272248,2,0,L|399:164,1,56,0|0,3:0|0:0,0:0:0:0:
147,374,272594,70,0,L|134:296,1,56,0|0,3:0|0:0,0:0:0:0:
126,242,272941,2,0,L|113:164,1,56,0|0,3:0|0:0,0:0:0:0:
147,374,273288,6,0,L|134:296,1,56,0|0,3:0|0:0,0:0:0:0:
126,242,273635,2,0,L|113:164,1,56,0|0,3:0|0:0,0:0:0:0:
256,192,273982,70,0,L|256:128,1,56,0|0,3:0|0:0,0:0:0:0:
256,58,274329,2,0,L|256:-6,1,56,0|0,3:0|0:0,0:0:0:0:
256,192,274675,6,0,L|256:128,1,56,0|0,3:0|0:0,0:0:0:0:
256,58,275022,2,0,L|256:-6,1,56,0|0,3:0|0:0,0:0:0:0:
256,326,275369,70,0,L|256:262,1,56,2|0,0:0|0:0,0:0:0:0:
256,192,276063,5,0,0:0:0:0:
365,374,276756,5,4,3:1:0:0:
407,130,276930,1,0,0:0:0:0:
256,320,277103,5,8,0:0:0:0:
256,64,277277,1,0,0:0:0:0:
147,374,277450,69,0,3:0:0:0:
105,130,277623,1,0,0:0:0:0:
365,374,277797,6,0,L|398:184,1,168,8|0,0:0|0:0,0:0:0:0:
407,130,278144,1,4,3:2:0:0:
256,64,278317,1,0,0:0:0:0:
256,64,278404,1,0,0:0:0:0:
256,64,278490,1,8,0:0:0:0:
105,130,278664,69,4,0:2:0:0:
256,64,278837,1,0,3:0:0:0:
256,64,278924,1,0,0:0:0:0:
256,64,279011,1,0,0:0:0:0:
487,329,279184,6,0,L|512:192,1,140,12|0,0:0|0:0,0:0:0:0:
24,329,279531,70,0,L|0:192,1,140,4|0,3:1|0:0,0:0:0:0:
256,272,279878,5,8,0:0:0:0:
105,130,280051,1,0,0:0:0:0:
256,272,280225,69,0,3:0:0:0:
256,64,280398,1,0,0:0:0:0:
256,272,280571,5,8,0:0:0:0:
407,130,280745,1,0,0:0:0:0:
487,329,280918,69,4,3:2:0:0:
256,64,281092,1,0,0:0:0:0:
256,384,281265,5,12,0:2:0:0:
256,64,281438,1,0,0:0:0:0:
25,329,281612,69,4,3:2:0:0:
256,64,281785,1,0,0:0:0:0:
256,384,281959,6,0,L|256:256,1,112,8|0,0:0|0:0,0:0:0:0:
25,329,282305,69,4,3:1:0:0:
105,130,282479,1,0,0:0:0:0:
256,272,282652,5,8,0:0:0:0:
256,64,282826,1,0,0:0:0:0:
487,329,282999,69,0,3:0:0:0:
407,130,283173,1,0,0:0:0:0:
147,374,283346,6,0,L|114:184,1,168,8|0,0:0|0:0,0:0:0:0:
105,130,283693,1,4,3:2:0:0:
362,16,283866,1,0,0:0:0:0:
362,16,283953,1,0,0:0:0:0:
362,16,284040,1,8,0:0:0:0:
407,130,284213,69,4,0:2:0:0:
150,16,284386,1,0,3:0:0:0:
150,16,284473,1,0,0:0:0:0:
150,16,284560,1,0,0:0:0:0:
365,374,284733,6,0,L|398:184,1,168,8|0,0:0|0:0,0:0:0:0:
407,130,285080,2,0,L|427:11,1,112,4|0,3:1|0:0,0:0:0:0:
256,320,285427,69,8,0:0:0:0:
256,112,285600,1,0,0:0:0:0:
256,112,285687,1,0,0:0:0:0:
256,112,285774,2,0,L|256:0,1,112,0|0,3:0|0:0,0:0:0:0:
105,130,286120,6,0,L|84:11,1,112,8|0,0:0|0:0,0:0:0:0:
365,374,286467,69,12,0:0:0:0:
119,208,286641,1,0,3:0:0:0:
426,19,286814,1,0,3:0:0:0:
147,374,286988,5,8,0:0:0:0:
393,208,287161,1,0,3:0:0:0:
86,19,287334,1,0,3:0:0:0:
256,320,287508,69,0,3:0:0:0:
256,282,287594,1,0,3:0:0:0:
256,245,287681,1,0,3:0:0:0:
256,208,287768,1,0,3:0:0:0:
365,374,287855,6,0,L|385:255,1,112,4|0,3:1|0:0,0:0:0:0:
512,340,288201,69,8,0:0:0:0:
432,1,288375,1,0,0:0:0:0:
256,320,288548,5,0,3:0:0:0:
256,0,288722,1,0,0:0:0:0:
0,340,288895,69,8,0:0:0:0:
80,1,289068,1,0,0:0:0:0:
365,374,289242,5,4,3:2:0:0:
98,111,289415,1,0,0:0:0:0:
98,111,289502,1,0,0:0:0:0:
98,111,289589,1,8,0:2:0:0:
147,374,289762,69,4,0:2:0:0:
414,111,289936,1,0,3:0:0:0:
414,111,290022,1,0,0:0:0:0:
414,111,290109,1,0,0:0:0:0:
25,329,290282,6,0,L|0:192,1,140,12|0,0:0|0:0,0:0:0:0:
488,329,290629,70,0,L|512:192,1,140,4|0,3:1|0:0,0:0:0:0:
147,374,290976,5,8,0:0:0:0:
98,111,291149,1,0,0:0:0:0:
256,320,291323,69,0,3:0:0:0:
256,64,291496,1,0,0:0:0:0:
365,374,291670,5,8,0:0:0:0:
414,111,291843,1,0,0:0:0:0:
147,374,292016,69,4,3:2:0:0:
432,1,292190,1,0,0:0:0:0:
256,320,292363,5,12,0:2:0:0:
256,0,292537,1,0,0:0:0:0:
365,374,292710,69,4,3:2:0:0:
80,1,292884,1,0,0:0:0:0:
256,320,293057,6,0,L|256:128,1,168,10|0,0:0|0:0,0:0:0:0:
256,64,293404,1,4,3:1:0:0:
256,64,293751,1,8,0:0:0:0:
256,64,294097,1,0,3:0:0:0:
256,64,294444,1,8,0:0:0:0:
147,374,294791,70,0,L|128:263,1,112,4|0,3:2|0:0,0:0:0:0:
64,192,295138,2,0,L|45:81,1,112,12|0,0:2|0:0,0:0:0:0:
365,374,295485,6,0,L|383:263,1,112,4|0,3:2|0:0,0:0:0:0:
448,192,295831,2,0,L|466:81,1,112,8|0,0:0|0:0,0:0:0:0:
147,374,296178,69,12,0:0:0:0:
382,263,296352,1,0,3:0:0:0:
45,81,296525,1,0,3:0:0:0:
365,374,296699,5,8,0:0:0:0:
128,263,296872,1,0,3:0:0:0:
467,81,297045,1,0,3:1:0:0:
256,352,297219,69,0,3:0:0:0:
256,192,297392,2,0,L|256:128,1,56,0|0,3:0|3:0,0:0:0:0:
256,32,297566,53,0,3:0:0:0:
242,88,297652,1,0,3:0:0:0:
289,132,297739,1,0,3:0:0:0:
303,189,297826,1,0,3:0:0:0:
228,228,297912,5,0,3:0:0:0:
214,284,297999,1,0,3:0:0:0:
169,327,298086,1,0,3:0:0:0:
183,384,298173,1,0,0:0:0:0:
256,352,298259,38,0,B|256:384,6,28,0|0|0|0|0|0|0,3:0|3:0|3:0|0:0|3:0|3:0|3:0,0:0:0:0:
96,192,298606,85,2,0:0:0:0:
416,192,298779,1,2,0:0:0:0:
256,32,298953,6,0,B|233:60|248:94|248:94|277:101|298:129|298:129|239:122|203:173|203:173|267:208|288:256|269:318|256:352,1,448,4|0,0:1|0:0,0:0:0:0:
