osu file format v14

[General]
AudioFilename: audio.mp3
AudioLeadIn: 0
PreviewTime: 59163
Countdown: 0
SampleSet: Soft
StackLeniency: 0.7
Mode: 2
LetterboxInBreaks: 0
WidescreenStoryboard: 1

[Editor]
DistanceSpacing: 2
BeatDivisor: 4
GridSize: 8
TimelineZoom: 1.5

[Metadata]
Title:Namae no Nai Kaibutsu (TV Size)
TitleUnicode:名前のない怪物 (TV Size)
Artist:EGOIST
ArtistUnicode:EGOIST
Creator:rew0825
Version:Verti's Salad
Source:サイコパス
Tags:[ Azu- ] Verti Juansy- Psycho-Pass Psycho Pass Anime ED Ending ryo supercell chelly Japanese J-Pop JPop Pop J-Rock JRock Rock
BeatmapID:3106618
BeatmapSetID:1508139

[Difficulty]
HPDrainRate:3
CircleSize:3
OverallDifficulty:7
ApproachRate:7
SliderMultiplier:1.4
SliderTickRate:1

[Events]
//Background and Video events
0,0,"Psycho pass.jpg",0,0
//Break Periods
//Storyboard Layer 0 (Background)
//Storyboard Layer 1 (Fail)
//Storyboard Layer 2 (Pass)
//Storyboard Layer 3 (Foreground)
//Storyboard Layer 4 (Overlay)
//Storyboard Sound Samples

[TimingPoints]
747,333.333333333333,4,2,1,60,1,0
11413,-100,4,2,1,50,0,0
11580,-100,4,2,1,40,0,0
16413,-100,4,2,1,20,0,0
16746,-100,4,2,3,45,0,0
32746,-100,4,2,2,50,0,0
35413,-100,4,2,2,55,0,0
37746,-100,4,2,1,55,0,0
38080,-100,4,2,1,60,0,0
56746,-100,4,2,1,50,0,0
59413,-100,4,2,1,65,0,1
68746,-100,4,2,1,60,0,1
69996,-100,4,2,1,60,0,0
70080,-100,4,2,1,65,0,1
80746,-100,4,2,1,50,0,0
80913,-100,4,2,1,40,0,0
86080,-100,4,2,1,20,0,0

[Colours]
Combo1 : 154,231,226
Combo2 : 83,162,124
Combo3 : 81,165,210
Combo4 : 139,207,145

[HitObjects]
120,304,747,6,0,L|104:224,1,70,6|2,1:2|0:0,0:0:0:0:
312,176,1413,2,0,L|320:104,1,70,2|2,0:0|0:0,0:0:0:0:
112,176,2080,6,0,L|96:96,1,70,2|2,0:0|0:0,0:0:0:0:
240,168,2580,2,0,L|384:176,1,140,2|2,0:0|0:0,0:0:0:0:
241,96,3246,1,2,0:0:0:0:
405,95,3413,6,0,L|429:24,1,70,2|2,0:0|0:0,0:0:0:0:
232,172,4080,2,0,L|216:89,1,70,2|2,0:0|0:0,0:0:0:0:
409,193,4746,6,0,L|425:121,1,70,2|2,0:0|0:0,0:0:0:0:
353,81,5080,1,2,0:0:0:0:
145,177,5580,2,0,P|89:129|145:81,1,140,2|2,0:0|0:0,0:0:0:0:
297,97,6080,6,0,L|297:193,1,70,6|0,1:2|0:0,0:0:0:0:
57,105,6580,2,0,L|57:25,1,70,6|0,1:2|0:0,0:0:0:0:
305,49,7080,1,6,1:2:0:0:
177,185,7413,6,0,L|113:145,1,70,2|2,0:0|0:0,0:0:0:0:
257,113,7913,2,0,L|121:33,1,140,2|2,0:0|0:0,0:0:0:0:
273,177,8580,1,2,0:0:0:0:
96,80,8746,6,0,L|24:40,2,70,2|2|2,0:0|0:0|0:0,0:0:0:0:
288,88,9413,1,2,0:0:0:0:
336,64,9580,1,2,0:0:0:0:
328,24,9746,1,2,0:0:0:0:
176,192,10080,6,0,L|112:152,2,70,2|2|2,0:0|0:0|0:0,0:0:0:0:
352,184,10580,2,0,P|392:136|344:88,1,140,2|2,0:0|0:0,0:0:0:0:
280,88,11080,1,0,0:0:0:0:
24,64,11413,5,6,0:0:0:0:
256,192,11746,12,0,16413,0:0:0:0:
104,216,16746,6,0,P|48:168|104:112,1,140,2|8,1:2|0:0,0:0:0:0:
144,104,17246,1,2,0:0:0:0:
288,80,17580,2,0,L|360:80,2,70,2|8|2,1:2|0:0|0:0,0:0:0:0:
120,192,18080,6,0,P|64:144|120:96,1,140,0|8,1:2|0:0,0:0:0:0:
304,72,18913,2,0,L|384:72,1,70,0|8,1:2|0:0,0:0:0:0:
120,160,19413,6,0,L|272:160,1,140,2|8,1:2|0:0,0:0:0:0:
40,112,20246,2,0,L|40:24,1,70,0|8,1:2|0:0,0:0:0:0:
296,176,20746,6,0,P|344:128|296:88,1,140,0|8,1:2|0:0,0:0:0:0:
232,80,21246,1,2,0:0:0:0:
88,64,21580,2,0,L|16:64,2,70,2|8|2,1:2|0:0|0:0,0:0:0:0:
248,168,22080,6,0,P|296:120|248:72,1,140,2|8,1:2|0:0,0:0:0:0:
328,176,22913,1,0,1:2:0:0:
400,128,23080,2,0,L|400:56,1,70,8|2,0:0|0:0,0:0:0:0:
240,152,23413,6,0,P|192:104|240:56,1,140,0|8,1:2|0:0,0:0:0:0:
448,56,24246,2,0,L|472:128,1,70,0|8,1:2|0:0,0:0:0:0:
216,176,24746,6,0,L|384:176,1,140,2|8,1:2|0:0,0:0:0:0:
144,176,25580,2,0,L|112:112,1,70,0|8,1:2|0:0,0:0:0:0:
368,160,26080,6,0,P|416:120|368:72,1,140,0|8,1:2|0:0,0:0:0:0:
304,64,26580,1,2,0:0:0:0:
168,136,26913,1,2,1:2:0:0:
240,112,27080,2,0,L|240:40,1,70,8|2,0:0|0:0,0:0:0:0:
80,168,27413,6,0,P|32:112|80:72,1,140,2|8,1:2|0:0,0:0:0:0:
144,72,27913,1,2,0:0:0:0:
280,72,28246,2,0,L|352:72,2,70,2|8|2,1:2|0:0|0:0,0:0:0:0:
120,176,28746,6,0,P|72:128|120:80,1,140,0|8,1:2|0:0,0:0:0:0:
328,184,29580,2,0,L|416:184,1,70,0|8,1:2|0:0,0:0:0:0:
144,96,30080,6,0,L|304:96,1,140,2|8,1:2|0:0,0:0:0:0:
64,160,30913,2,0,L|64:64,1,70,0|8,1:2|0:0,0:0:0:0:
320,192,31413,6,0,P|368:144|320:96,1,140,0|8,1:2|0:0,0:0:0:0:
256,88,31913,1,2,0:0:0:0:
400,48,32246,2,0,L|480:48,2,70,2|8|0,1:2|0:0|0:0,0:0:0:0:
240,184,32746,6,0,P|184:144|240:96,1,140,2|8,1:2|0:0,0:0:0:0:
288,88,33246,1,2,0:0:0:0:
432,32,33580,2,0,L|504:32,2,70,2|0|10,1:2|0:0|0:0,0:0:0:0:
272,184,34080,5,0,0:0:0:0:
200,128,34246,2,0,L|192:56,1,70,0|8,1:2|0:0,0:0:0:0:
344,64,34746,2,0,L|344:-8,1,70,0|0,1:2|1:2,0:0:0:0:
280,48,35080,1,8,0:0:0:0:
24,256,35413,6,0,L|24:184,1,70,2|0,1:2|0:0,0:0:0:0:
96,128,35746,1,8,0:0:0:0:
208,192,35996,2,0,L|232:80,1,105,8|0,0:0|1:2,0:0:0:0:
160,80,36413,2,0,L|160:0,1,70,0|8,1:2|0:0,0:0:0:0:
264,160,36830,5,8,0:0:0:0:
312,160,36913,1,0,1:2:0:0:
240,80,37080,2,0,P|192:40|240:8,1,140,8|0,0:0|1:2,0:0:0:0:
312,16,37580,1,2,1:2:0:0:
384,16,37746,1,8,0:0:0:0:
128,192,38080,6,0,P|80:152|128:112,1,140,6|8,1:2|0:0,0:0:0:0:
200,80,38580,2,0,L|272:80,2,70,2|2|2,0:0|0:0|1:2,0:0:0:0:
128,80,39080,1,8,0:0:0:0:
384,144,39413,6,0,P|440:112|376:72,1,140,2|8,1:2|0:0,0:0:0:0:
328,64,39913,1,2,0:0:0:0:
192,72,40246,2,0,L|112:72,2,70,0|10|2,1:2|0:0|0:0,0:0:0:0:
360,176,40746,6,0,P|416:128|360:80,1,140,2|8,1:2|0:0,0:0:0:0:
312,72,41246,1,2,0:0:0:0:
168,160,41580,1,0,1:2:0:0:
240,144,41746,2,0,L|248:48,1,70,10|2,0:0|0:0,0:0:0:0:
72,192,42080,6,0,P|24:152|72:112,1,140,2|8,1:2|0:0,0:0:0:0:
144,80,42580,2,0,L|216:80,2,70,2|2|2,0:0|0:0|1:2,0:0:0:0:
72,80,43080,1,8,0:0:0:0:
328,176,43413,6,0,P|376:128|328:96,1,140,0|8,1:2|0:0,0:0:0:0:
264,80,43913,2,0,L|184:80,2,70,2|2|2,0:0|0:0|1:2,0:0:0:0:
336,80,44413,1,8,0:0:0:0:
88,184,44746,6,0,L|256:176,1,140,2|8,1:2|0:0,0:0:0:0:
88,104,45413,1,2,0:0:0:0:
16,88,45580,2,0,L|16:16,1,70,0|8,1:2|0:0,0:0:0:0:
272,168,46080,6,0,P|320:128|272:72,1,140,2|8,1:2|0:0,0:0:0:0:
208,64,46580,1,2,0:0:0:0:
136,64,46746,2,0,L|296:88,1,140,2|8,0:0|0:0,0:0:0:0:
200,112,47246,1,2,0:0:0:0:
128,176,47413,6,0,P|80:128|128:88,1,140,2|8,1:2|0:0,0:0:0:0:
192,48,47913,2,0,L|288:48,2,70,2|2|2,0:0|0:0|1:2,0:0:0:0:
120,48,48413,1,8,0:0:0:0:
376,192,48746,6,0,P|424:144|368:104,1,140,4|8,1:2|0:0,0:0:0:0:
312,96,49246,2,0,L|224:96,2,70,2|2|2,0:0|0:0|1:2,0:0:0:0:
384,88,49746,1,8,0:0:0:0:
128,184,50080,6,0,L|280:168,1,140,2|8,1:2|0:0,0:0:0:0:
128,96,50746,2,0,L|48:96,2,70,2|0|8,0:0|1:2|0:0,0:0:0:0:
384,184,51413,6,0,L|384:104,1,70,2|2,1:2|0:0,0:0:0:0:
312,80,51746,1,10,0:0:0:0:
240,72,51913,2,0,L|240:144,1,70,2|2,0:0|0:0,0:0:0:0:
312,32,52246,1,2,1:2:0:0:
384,32,52413,2,0,L|384:112,1,70,10|2,0:0|0:0,0:0:0:0:
216,176,52746,6,0,P|168:136|216:96,1,140,2|8,1:2|0:0,0:0:0:0:
288,80,53246,2,0,L|368:80,2,70,2|0|2,0:0|0:0|1:2,0:0:0:0:
216,80,53746,1,8,0:0:0:0:
464,184,54080,6,0,P|496:128|464:64,1,140,0|8,1:2|0:0,0:0:0:0:
392,56,54580,2,0,L|320:56,2,70,2|2|2,0:0|0:0|1:2,0:0:0:0:
464,56,55080,1,8,0:0:0:0:
208,168,55413,6,0,P|160:120|208:88,1,140,0|10,1:2|0:0,0:0:0:0:
336,168,56080,2,0,L|336:88,1,70,2|0,0:0|1:2,0:0:0:0:
264,72,56413,2,0,L|264:0,1,70,10|0,0:0|0:0,0:0:0:0:
424,56,56746,6,0,L|496:56,2,70,2|2|2,0:0|0:0|0:0,0:0:0:0:
272,184,57413,2,0,L|232:112,1,70,2|2,0:0|0:0,0:0:0:0:
384,96,57913,6,0,L|408:16,1,70,2|0,0:0|0:0,0:0:0:0:
264,160,58413,2,0,L|264:80,1,70,2|0,0:0|0:0,0:0:0:0:
336,72,58746,2,0,L|336:152,1,70,2|2,0:0|0:0,0:0:0:0:
200,136,59246,1,2,0:0:0:0:
376,152,59413,6,0,P|424:112|376:80,1,140,6|10,1:2|0:0,0:0:0:0:
304,72,59913,2,0,L|144:72,1,140,2|0,0:0|0:0,0:0:0:0:
232,144,60413,1,8,0:0:0:0:
480,184,60746,6,0,L|480:104,1,70,2|2,1:2|0:0,0:0:0:0:
408,88,61080,1,10,0:0:0:0:
336,64,61246,2,0,L|256:64,2,70,2|2|2,0:0|1:2|0:0,0:0:0:0:
472,72,61913,1,2,0:0:0:0:
296,168,62080,6,0,P|240:112|296:80,1,140,2|10,1:2|0:0,0:0:0:0:
344,120,62580,2,0,P|392:64|344:40,1,140,2|0,0:0|0:0,0:0:0:0:
288,32,63080,1,8,0:0:0:0:
32,184,63413,6,0,L|32:104,1,70,2|2,1:2|0:0,0:0:0:0:
104,88,63747,1,10,0:0:0:0:
176,64,63913,2,0,L|256:64,2,70,2|2|2,0:0|1:2|0:0,0:0:0:0:
40,104,64580,1,2,0:0:0:0:
216,208,64746,6,0,L|360:184,1,140,2|10,1:2|0:0,0:0:0:0:
280,120,65246,1,2,0:0:0:0:
136,64,65580,2,0,L|64:64,2,70,2|10|2,0:0|0:0|0:0,0:0:0:0:
312,184,66080,6,0,P|360:141|323:89,1,140,2|10,1:2|0:0,0:0:0:0:
248,80,66580,1,2,0:0:0:0:
400,48,66913,2,0,L|472:48,2,70,2|10|2,0:0|0:0|0:0,0:0:0:0:
224,176,67413,6,0,P|176:120|224:80,1,140,2|10,1:2|0:0,0:0:0:0:
288,80,67913,1,2,0:0:0:0:
432,64,68246,2,0,L|504:64,2,70,2|10|2,0:0|0:0|0:0,0:0:0:0:
256,168,68746,6,0,L|240:96,1,70,2|2,1:2|0:0,0:0:0:0:
312,72,69080,1,2,1:2:0:0:
448,32,69413,2,0,L|512:0,2,70,2|2|2,1:2|0:0|1:2,0:0:0:0:
168,176,70080,6,0,P|120:120|168:80,1,140,6|10,1:2|0:0,0:0:0:0:
224,80,70580,2,0,L|368:80,1,140,2|0,0:0|0:0,0:0:0:0:
288,160,71080,1,8,0:0:0:0:
32,184,71413,6,0,L|32:104,1,70,2|2,1:2|0:0,0:0:0:0:
104,88,71747,1,10,0:0:0:0:
176,64,71913,2,0,L|256:64,2,70,2|2|2,0:0|1:2|0:0,0:0:0:0:
40,56,72580,1,2,0:0:0:0:
216,176,72746,6,0,P|264:128|216:80,1,140,2|10,1:2|0:0,0:0:0:0:
152,80,73246,2,0,P|104:128|152:152,1,140,2|0,0:0|0:0,0:0:0:0:
224,80,73746,1,8,0:0:0:0:
480,184,74080,6,0,L|480:112,1,70,2|2,1:2|0:0,0:0:0:0:
408,104,74413,1,10,0:0:0:0:
336,96,74580,2,0,L|256:96,2,70,2|2|2,0:0|1:2|0:0,0:0:0:0:
480,272,75246,1,2,0:0:0:0:
304,192,75413,6,0,L|152:184,1,140,2|10,1:2|0:0,0:0:0:0:
240,120,75913,1,2,0:0:0:0:
384,88,76246,2,0,L|464:88,2,70,2|10|2,0:0|0:0|0:0,0:0:0:0:
208,184,76746,6,0,P|160:128|208:88,1,140,2|10,1:2|0:0,0:0:0:0:
272,88,77246,1,2,0:0:0:0:
136,72,77580,2,0,L|40:72,2,70,2|10|2,0:0|0:0|0:0,0:0:0:0:
312,72,78080,6,0,L|464:64,1,140,10|2,0:0|1:2,0:0:0:0:
384,120,78580,1,10,0:0:0:0:
232,88,78913,2,0,L|144:88,2,70,2|2|10,0:0|1:2|0:0,0:0:0:0:
408,176,79413,6,0,P|456:128|408:88,1,140,10|2,0:0|1:2,0:0:0:0:
208,176,80246,1,8,0:0:0:0:
136,136,80413,2,0,L|128:56,1,70,2|8,1:2|0:0,0:0:0:0:
312,48,80746,5,6,0:0:0:0:
256,192,81080,12,2,86080,0:0:0:0:
