osu file format v14

[General]
AudioFilename: audio.mp3
AudioLeadIn: 0
PreviewTime: 59163
Countdown: 0
SampleSet: Soft
StackLeniency: 0.7
Mode: 2
LetterboxInBreaks: 0
WidescreenStoryboard: 1

[Editor]
DistanceSpacing: 2.9
BeatDivisor: 4
GridSize: 4
TimelineZoom: 1.5

[Metadata]
Title:Namae no Nai Kaibutsu (TV Size)
TitleUnicode:名前のない怪物 (TV Size)
Artist:EGOIST
ArtistUnicode:EGOIST
Creator:rew0825
Version:Platter
Source:サイコパス
Tags:[ Azu- ] Verti Juansy- Psycho-Pass Psycho Pass Anime ED Ending ryo supercell chelly Japanese J-Pop JPop Pop J-Rock JRock Rock
BeatmapID:3088662
BeatmapSetID:1508139

[Difficulty]
HPDrainRate:4
CircleSize:3.5
OverallDifficulty:8
ApproachRate:8
SliderMultiplier:1.6
SliderTickRate:2

[Events]
//Background and Video events
0,0,"Psycho pass.jpg",0,0
//Break Periods
//Storyboard Layer 0 (Background)
//Storyboard Layer 1 (Fail)
//Storyboard Layer 2 (Pass)
//Storyboard Layer 3 (Foreground)
//Storyboard Layer 4 (Overlay)
//Storyboard Sound Samples

[TimingPoints]
747,333.333333333333,4,2,1,60,1,0
11413,-100,4,2,1,50,0,0
11580,-100,4,2,1,40,0,0
16413,-100,4,2,1,20,0,0
16746,-100,4,2,3,45,0,0
17746,-100,4,1,4,40,0,0
17830,-100,4,2,3,45,0,0
21746,-100,4,1,4,40,0,0
21830,-100,4,2,3,45,0,0
23080,-100,4,1,4,40,0,0
23164,-100,4,2,3,45,0,0
27080,-100,4,1,4,40,0,0
27164,-100,4,2,3,45,0,0
28413,-100,4,1,4,40,0,0
28497,-100,4,2,3,45,0,0
32413,-100,4,1,4,40,0,0
32497,-100,4,2,3,45,0,0
32746,-100,4,2,2,50,0,0
35413,-100,4,2,2,55,0,0
37746,-100,4,2,1,55,0,0
38080,-100,4,2,1,60,0,0
39080,-100,4,1,3,55,0,0
39164,-100,4,2,1,60,0,0
43080,-100,4,1,3,55,0,0
43164,-100,4,2,1,60,0,0
44413,-100,4,1,3,55,0,0
44497,-100,4,2,1,60,0,0
45580,-100,4,1,2,55,0,0
45664,-100,4,2,1,60,0,0
46913,-100,4,1,2,55,0,0
46997,-100,4,2,1,60,0,0
48413,-100,4,1,3,55,0,0
48497,-100,4,2,1,60,0,0
49746,-100,4,1,3,55,0,0
49830,-100,4,2,1,60,0,0
50913,-100,4,1,2,55,0,0
50997,-100,4,2,1,60,0,0
53746,-100,4,1,3,55,0,0
53830,-100,4,2,1,60,0,0
55080,-100,4,1,3,55,0,0
55164,-100,4,2,1,60,0,0
56746,-100,4,2,1,50,0,0
59413,-100,4,2,1,65,0,1
61746,-100,4,1,3,60,0,1
61830,-100,4,2,1,65,0,1
64413,-100,4,1,3,60,0,1
64497,-100,4,2,1,65,0,1
65413,-100,4,1,2,60,0,1
65497,-100,4,2,1,65,0,1
66746,-100,4,1,2,60,0,1
66830,-100,4,2,1,65,0,1
68080,-100,4,1,2,60,0,1
68164,-100,4,2,1,65,0,1
68746,-100,4,2,1,60,0,1
69996,-100,4,2,1,60,0,0
70080,-100,4,2,1,65,0,1
72413,-100,4,1,3,60,0,1
72497,-100,4,2,1,65,0,1
75080,-100,4,1,3,60,0,1
75164,-100,4,2,1,65,0,1
76080,-100,4,1,2,60,0,1
76164,-100,4,2,1,65,0,1
77413,-100,4,1,2,60,0,1
77497,-100,4,2,1,65,0,1
78746,-100,4,1,2,60,0,1
78830,-100,4,2,1,65,0,1
80746,-100,4,2,1,50,0,0
80913,-100,4,2,1,40,0,0
86080,-100,4,2,1,20,0,0

[Colours]
Combo1 : 154,231,226
Combo2 : 83,162,124
Combo3 : 81,165,210
Combo4 : 139,207,145

[HitObjects]
168,192,747,5,6,1:2:0:0:
88,192,913,2,0,P|52:136|112:80,1,160,2|0,0:0|0:0,0:0:0:0:
272,80,1413,1,2,0:0:0:0:
352,80,1579,2,0,P|388:136|328:192,1,160,2|0,0:0|0:0,0:0:0:0:
168,192,2080,5,2,0:0:0:0:
88,192,2246,1,2,0:0:0:0:
168,192,2413,1,0,0:0:0:0:
328,192,2580,2,0,L|496:192,2,160,2|2|2,0:0|0:0|0:0,0:0:0:0:
168,192,3413,5,2,0:0:0:0:
88,192,3579,2,0,P|52:136|112:80,1,160,2|0,0:0|0:0,0:0:0:0:
272,80,4079,1,2,0:0:0:0:
352,80,4246,2,0,P|388:136|328:192,1,160,2|0,0:0|0:0,0:0:0:0:
168,192,4746,6,0,L|164:276,1,80,2|2,0:0|0:0,0:0:0:0:
324,272,5080,2,0,P|388:264|416:180,1,160,2|0,0:0|0:0,0:0:0:0:
256,180,5580,2,0,P|192:172|168:84,1,160,2|2,0:0|0:0,0:0:0:0:
400,88,6080,6,0,L|404:256,1,160,6|0,1:2|0:0,0:0:0:0:
172,252,6580,2,0,L|168:92,1,160,6|0,1:2|0:0,0:0:0:0:
400,88,7080,2,0,L|404:168,1,80,6|0,1:2|0:0,0:0:0:0:
244,164,7413,5,2,0:0:0:0:
164,164,7580,1,2,0:0:0:0:
168,164,7746,1,0,0:0:0:0:
328,164,7913,2,0,L|500:164,2,160,2|2|2,0:0|0:0|0:0,0:0:0:0:
168,164,8746,5,2,0:0:0:0:
88,164,8913,1,2,0:0:0:0:
168,164,9080,1,2,0:0:0:0:
440,168,9413,1,2,0:0:0:0:
448,88,9580,1,2,0:0:0:0:
369,88,9746,1,2,0:0:0:0:
96,88,10080,5,2,0:0:0:0:
88,172,10246,1,2,0:0:0:0:
168,173,10413,1,2,0:0:0:0:
328,173,10580,2,0,L|164:173,2,160,2|2|2,0:0|0:0|0:0,0:0:0:0:
96,173,11413,5,6,0:0:0:0:
256,192,11580,12,0,16413,0:0:0:0:
416,304,16746,6,0,P|460:252|408:192,1,160,2|8,1:2|0:0,0:0:0:0:
328,192,17246,1,2,0:0:0:0:
168,192,17580,2,0,P|124:152|176:84,1,160,2|2,1:2|0:0,0:0:0:0:
336,88,18080,6,0,P|404:96|436:176,1,160,0|8,1:2|0:0,0:0:0:0:
276,176,18746,1,0,0:0:0:0:
272,96,18913,1,0,1:2:0:0:
352,96,19080,1,8,0:0:0:0:
80,92,19413,6,0,P|32:144|84:200,1,160,2|8,1:2|0:0,0:0:0:0:
244,204,20080,1,0,0:0:0:0:
248,284,20246,1,0,1:2:0:0:
168,284,20413,1,8,0:0:0:0:
440,284,20746,6,0,P|488:232|436:180,1,160,0|8,1:2|0:0,0:0:0:0:
356,180,21246,1,2,0:0:0:0:
196,180,21580,2,0,P|148:128|200:76,1,160,2|2,1:2|0:0,0:0:0:0:
360,76,22080,6,0,P|412:120|360:172,1,160,2|8,1:2|0:0,0:0:0:0:
200,172,22746,1,2,0:0:0:0:
120,172,22913,2,0,P|72:232|128:272,1,160,0|2,1:2|0:0,0:0:0:0:
284,272,23413,6,0,L|448:272,1,160,0|8,1:2|0:0,0:0:0:0:
284,272,24080,1,0,0:0:0:0:
280,192,24247,1,0,1:2:0:0:
360,192,24413,1,8,0:0:0:0:
88,188,24746,6,0,P|40:140|96:88,1,160,2|8,1:2|0:0,0:0:0:0:
256,92,25413,1,0,0:0:0:0:
260,172,25580,1,0,1:2:0:0:
180,172,25746,1,8,0:0:0:0:
452,172,26080,6,0,P|492:236|436:280,1,160,0|8,1:2|0:0,0:0:0:0:
356,280,26580,1,2,0:0:0:0:
196,280,26913,2,0,P|152:236|208:176,1,160,2|2,1:2|0:0,0:0:0:0:
368,180,27413,6,0,P|436:168|452:84,1,160,2|8,1:2|0:0,0:0:0:0:
372,88,27913,1,2,0:0:0:0:
212,88,28246,2,0,P|164:128|220:184,1,160,2|2,1:2|0:0,0:0:0:0:
380,184,28746,6,0,P|448:176|476:96,1,160,0|8,1:2|0:0,0:0:0:0:
316,104,29413,1,0,0:0:0:0:
312,24,29580,1,0,1:2:0:0:
392,24,29746,1,8,0:0:0:0:
120,24,30080,6,0,P|48:32|24:108,1,160,2|8,1:2|0:0,0:0:0:0:
184,108,30746,1,0,0:0:0:0:
188,188,30913,1,0,1:2:0:0:
108,188,31080,1,8,0:0:0:0:
380,188,31413,6,0,P|432:232|376:280,1,160,0|8,1:2|0:0,0:0:0:0:
296,280,31913,2,0,L|292:200,1,80,2|2,0:0|0:0,0:0:0:0:
372,200,32246,2,0,P|444:188|468:112,1,160,2|0,1:2|0:0,0:0:0:0:
308,112,32746,6,0,P|256:148|308:208,1,160,2|8,1:2|0:0,0:0:0:0:
388,208,33246,1,2,0:0:0:0:
468,288,33413,1,2,0:0:0:0:
388,288,33580,1,2,1:2:0:0:
116,284,33913,6,0,P|76:224|132:172,1,160,10|0,0:0|1:2,0:0:0:0:
212,172,34413,2,0,L|216:92,1,80,8|0,0:0|0:0,0:0:0:0:
136,92,34746,1,0,1:2:0:0:
56,88,34913,1,0,1:2:0:0:
136,92,35080,1,8,0:0:0:0:
408,92,35413,5,2,1:2:0:0:
416,168,35580,1,0,0:0:0:0:
336,172,35746,1,8,0:0:0:0:
216,172,35996,1,8,0:0:0:0:
336,172,36246,1,0,1:2:0:0:
344,252,36413,1,0,1:2:0:0:
180,256,36580,5,8,0:0:0:0:
60,256,36830,1,8,0:0:0:0:
180,256,37080,1,8,0:0:0:0:
348,252,37246,2,0,L|356:172,1,80,2|0,0:0|1:2,0:0:0:0:
272,172,37580,1,2,1:2:0:0:
112,172,37746,2,0,L|104:92,1,80,8|2,0:0|0:0,0:0:0:0:
336,96,38080,6,0,P|384:144|324:192,1,160,6|8,1:2|0:0,0:0:0:0:
248,192,38580,1,2,0:0:0:0:
168,192,38746,1,2,0:0:0:0:
328,200,38913,2,0,P|372:152|316:96,1,160,2|2,1:2|0:0,0:0:0:0:
156,108,39413,6,0,P|92:100|48:20,1,160,2|8,1:2|0:0,0:0:0:0:
208,20,39913,2,0,P|256:64|200:116,1,160,2|0,0:0|1:2,0:0:0:0:
120,116,40413,1,10,0:0:0:0:
116,196,40580,1,2,0:0:0:0:
348,168,40746,6,0,P|400:144|368:64,1,160,2|8,1:2|0:0,0:0:0:0:
212,168,41246,2,0,P|172:128|240:64,1,160,2|0,0:0|1:2,0:0:0:0:
308,60,41746,2,0,L|312:144,1,80,10|2,0:0|0:0,0:0:0:0:
152,140,42080,6,0,P|100:184|156:240,1,160,2|8,1:2|0:0,0:0:0:0:
232,240,42580,1,2,0:0:0:0:
312,240,42746,1,2,0:0:0:0:
152,240,42913,2,0,P|76:232|44:160,1,160,2|2,1:2|0:0,0:0:0:0:
276,164,43413,6,0,P|324:100|272:60,1,160,0|8,1:2|0:0,0:0:0:0:
192,60,43913,1,2,0:0:0:0:
272,64,44080,1,2,0:0:0:0:
432,68,44246,2,0,P|480:116|416:160,1,160,2|2,1:2|0:0,0:0:0:0:
260,160,44746,6,0,P|196:160|152:244,1,160,2|8,1:2|0:0,0:0:0:0:
424,244,45413,2,0,P|472:180|424:136,1,160,2|8,0:0|0:0,0:0:0:0:
344,136,45913,1,2,0:0:0:0:
112,140,46080,6,0,P|68:96|120:32,1,160,2|8,1:2|0:0,0:0:0:0:
200,32,46580,1,2,0:0:0:0:
360,32,46746,2,0,P|364:88|276:132,1,160,2|8,0:0|0:0,0:0:0:0:
204,136,47246,1,2,0:0:0:0:
364,136,47413,6,0,P|416:184|364:236,1,160,2|8,1:2|0:0,0:0:0:0:
284,236,47913,1,2,0:0:0:0:
204,236,48080,1,2,0:0:0:0:
364,232,48246,2,0,P|436:216|456:136,1,160,2|2,1:2|0:0,0:0:0:0:
224,140,48746,6,0,P|140:132|124:64,1,160,4|8,1:2|0:0,0:0:0:0:
204,60,49246,1,2,0:0:0:0:
284,64,49413,1,2,0:0:0:0:
124,60,49580,2,0,P|68:104|124:144,1,160,2|2,1:2|0:0,0:0:0:0:
284,148,50080,6,0,P|364:156|388:224,1,160,2|8,1:2|0:0,0:0:0:0:
116,224,50746,2,0,P|52:216|28:132,1,160,2|8,0:0|0:0,0:0:0:0:
108,132,51246,1,0,0:0:0:0:
340,136,51413,5,2,1:2:0:0:
420,132,51580,1,2,0:0:0:0:
416,52,51746,1,10,0:0:0:0:
336,52,51913,1,2,0:0:0:0:
176,52,52080,1,2,0:0:0:0:
172,132,52246,1,2,1:2:0:0:
220,196,52413,1,10,0:0:0:0:
300,200,52580,1,2,0:0:0:0:
140,196,52746,6,0,P|88:244|144:296,1,160,2|8,1:2|0:0,0:0:0:0:
220,296,53246,2,0,L|224:216,1,80,2|0,0:0|0:0,0:0:0:0:
64,212,53580,2,0,P|28:152|80:92,1,160,2|2,1:2|0:0,0:0:0:0:
312,92,54080,6,0,P|360:144|300:196,1,160,0|8,1:2|0:0,0:0:0:0:
228,196,54580,1,2,0:0:0:0:
148,196,54746,1,2,0:0:0:0:
308,196,54913,2,0,P|352:240|292:300,1,160,2|2,1:2|0:0,0:0:0:0:
136,300,55413,6,0,P|92:248|156:196,1,160,0|10,1:2|0:0,0:0:0:0:
228,192,55913,1,0,0:0:0:0:
388,192,56080,2,0,L|392:108,1,80,2|0,0:0|1:2,0:0:0:0:
312,112,56413,1,10,0:0:0:0:
392,112,56580,1,0,0:0:0:0:
232,112,56746,5,2,0:0:0:0:
152,112,56913,1,2,0:0:0:0:
236,112,57080,2,0,P|280:172|224:220,1,160,2|2,0:0|0:0,0:0:0:0:
148,220,57580,1,2,0:0:0:0:
308,220,57913,1,2,0:0:0:0:
148,220,58246,6,0,L|144:136,1,80,2|2,0:0|0:0,0:0:0:0:
304,140,58746,2,0,L|308:56,1,80,2|2,0:0|0:0,0:0:0:0:
148,60,59246,1,2,0:0:0:0:
380,60,59413,6,0,P|428:104|372:164,1,160,6|10,1:2|0:0,0:0:0:0:
216,164,59913,1,2,0:0:0:0:
136,164,60080,2,0,P|84:208|136:260,1,160,0|8,1:2|0:0,0:0:0:0:
216,260,60580,1,2,0:0:0:0:
448,264,60746,6,0,L|452:184,1,80,2|2,1:2|0:0,0:0:0:0:
291,179,61080,2,0,L|196:176,2,80,10|2|2,0:0|0:0|1:2,0:0:0:0:
452,176,61580,2,0,P|492:236|432:276,1,160,2|2,0:0|0:0,0:0:0:0:
200,284,62080,6,0,P|152:244|212:184,1,160,2|10,1:2|0:0,0:0:0:0:
364,188,62580,1,2,0:0:0:0:
444,184,62746,2,0,P|484:116|428:72,1,160,0|8,1:2|0:0,0:0:0:0:
352,68,63246,1,2,0:0:0:0:
120,68,63413,6,0,L|116:152,1,80,2|2,1:2|0:0,0:0:0:0:
276,148,63746,2,0,L|376:144,2,80,10|2|2,0:0|0:0|1:2,0:0:0:0:
116,148,64246,2,0,P|64:200|120:252,1,160,2|2,0:0|0:0,0:0:0:0:
344,256,64746,6,0,P|388:196|332:156,1,160,2|10,1:2|0:0,0:0:0:0:
172,156,65246,2,0,P|124:124|180:64,1,160,2|2,0:0|0:0,0:0:0:0:
340,64,65746,2,0,L|428:48,1,80,10|2,0:0|0:0,0:0:0:0:
184,48,66080,6,0,P|100:64|88:128,1,160,2|10,1:2|0:0,0:0:0:0:
248,136,66580,2,0,P|292:188|228:244,1,160,2|2,0:0|0:0,0:0:0:0:
80,240,67080,2,0,L|76:328,1,80,10|2,0:0|0:0,0:0:0:0:
308,320,67413,6,0,P|380:300|380:216,1,160,2|10,1:2|0:0,0:0:0:0:
224,228,67913,2,0,P|160:212|152:128,1,160,2|2,0:0|0:0,0:0:0:0:
312,124,68413,2,0,L|396:116,1,80,10|2,0:0|0:0,0:0:0:0:
160,112,68746,5,2,1:2:0:0:
140,148,68830,1,2,0:0:0:0:
160,192,68913,1,2,0:0:0:0:
240,196,69080,1,2,1:2:0:0:
160,192,69246,1,2,0:0:0:0:
320,196,69413,1,2,1:2:0:0:
340,236,69496,1,2,0:0:0:0:
320,196,69580,1,2,0:0:0:0:
160,200,69746,1,2,1:2:0:0:
140,240,69829,1,2,0:0:0:0:
160,200,69913,1,2,0:0:0:0:
392,196,70080,6,0,P|440:136|384:96,1,160,6|10,1:2|0:0,0:0:0:0:
228,96,70580,1,2,0:0:0:0:
148,96,70746,2,0,P|100:148|160:200,1,160,0|8,1:2|0:0,0:0:0:0:
232,204,71246,1,2,0:0:0:0:
464,204,71413,6,0,L|468:124,1,80,2|2,1:2|0:0,0:0:0:0:
308,124,71746,1,10,0:0:0:0:
228,127,71913,1,2,0:0:0:0:
224,224,72080,1,2,1:2:0:0:
384,224,72246,2,0,P|444:236|460:328,1,160,2|2,0:0|0:0,0:0:0:0:
232,328,72746,6,0,P|164:320|156:236,1,160,2|10,1:2|0:0,0:0:0:0:
312,236,73246,1,2,0:0:0:0:
392,236,73413,2,0,P|440:184|388:132,1,160,0|8,1:2|0:0,0:0:0:0:
308,132,73913,1,2,0:0:0:0:
76,132,74080,6,0,L|72:212,1,80,2|2,1:2|0:0,0:0:0:0:
232,212,74413,2,0,L|340:212,1,80,10|2,0:0|0:0,0:0:0:0:
168,212,74746,1,2,1:2:0:0:
24,212,74913,2,0,P|20:148|104:108,1,160,2|2,0:0|0:0,0:0:0:0:
328,108,75413,6,0,P|372:160|312:220,1,160,2|10,1:2|0:0,0:0:0:0:
160,220,75913,2,0,P|108:264|164:324,1,160,2|2,0:0|0:0,0:0:0:0:
316,328,76413,2,0,L|408:316,1,80,10|2,0:0|0:0,0:0:0:0:
164,324,76746,6,0,P|92:312|84:236,1,160,2|10,1:2|0:0,0:0:0:0:
244,232,77246,2,0,L|412:208,1,160,2|2,0:0|0:0,0:0:0:0:
244,212,77746,2,0,L|156:208,1,80,10|2,0:0|0:0,0:0:0:0:
396,208,78080,6,0,P|444:152|384:104,1,160,10|2,0:0|1:2,0:0:0:0:
232,104,78580,2,0,L|72:88,1,160,10|2,0:0|0:0,0:0:0:0:
232,108,79080,2,0,L|152:112,1,80,2|10,1:2|0:0,0:0:0:0:
384,108,79413,5,10,0:0:0:0:
264,112,79663,1,8,0:0:0:0:
260,152,79746,1,2,1:2:0:0:
340,156,79913,1,10,0:0:0:0:
180,156,80080,2,0,L|176:236,1,80,0|8,1:2|0:0,0:0:0:0:
336,240,80413,1,2,1:2:0:0:
356,276,80496,1,8,0:0:0:0:
332,312,80580,1,8,0:0:0:0:
100,312,80746,5,6,0:0:0:0:
256,192,80913,12,2,86080,0:0:0:0:
