osu file format v14

[General]
AudioFilename: audio.mp3
AudioLeadIn: 0
PreviewTime: 59163
Countdown: 0
SampleSet: Soft
StackLeniency: 0.7
Mode: 2
LetterboxInBreaks: 0
WidescreenStoryboard: 1

[Editor]
DistanceSpacing: 1.6
BeatDivisor: 4
GridSize: 32
TimelineZoom: 1.5

[Metadata]
Title:Namae no Nai Kaibutsu (TV Size)
TitleUnicode:名前のない怪物 (TV Size)
Artist:EGOIST
ArtistUnicode:EGOIST
Creator:rew0825
Version:Azu's Cup
Source:サイコパス
Tags:[ Azu- ] Verti Juansy- Psycho-Pass Psycho Pass Anime ED Ending ryo supercell chelly Japanese J-Pop JPop Pop J-Rock JRock Rock
BeatmapID:3107464
BeatmapSetID:1508139

[Difficulty]
HPDrainRate:2
CircleSize:2.5
OverallDifficulty:6
ApproachRate:6
SliderMultiplier:1.3
SliderTickRate:1

[Events]
//Background and Video events
0,0,"Psycho pass.jpg",0,0
//Break Periods
//Storyboard Layer 0 (Background)
//Storyboard Layer 1 (Fail)
//Storyboard Layer 2 (Pass)
//Storyboard Layer 3 (Foreground)
//Storyboard Layer 4 (Overlay)
//Storyboard Sound Samples

[TimingPoints]
747,333.333333333333,4,2,1,60,1,0
11413,-100,4,2,1,50,0,0
11580,-100,4,2,1,40,0,0
16413,-100,4,2,1,20,0,0
16746,-100,4,2,3,45,0,0
17080,-100,4,1,4,40,0,0
17164,-100,4,2,3,45,0,0
19746,-100,4,1,4,40,0,0
19830,-100,4,2,3,45,0,0
21080,-100,4,1,4,40,0,0
21164,-100,4,2,3,45,0,0
23746,-100,4,1,4,40,0,0
23830,-100,4,2,3,45,0,0
25080,-100,4,1,4,40,0,0
25164,-100,4,2,3,45,0,0
26413,-100,4,1,4,40,0,0
26497,-100,4,2,3,45,0,0
30413,-100,4,1,4,40,0,0
30497,-100,4,2,3,45,0,0
31746,-100,4,1,4,40,0,0
31830,-100,4,2,3,45,0,0
32746,-100,4,2,2,50,0,0
33080,-100,4,1,6,45,0,0
33163,-100,4,2,2,50,0,0
34246,-100,4,1,5,45,0,0
34330,-100,4,2,2,50,0,0
35413,-100,4,2,2,55,0,0
35746,-100,4,1,6,45,0,0
35829,-100,4,2,2,50,0,0
36913,-100,4,1,5,45,0,0
36996,-100,4,2,2,50,0,0
37746,-100,4,2,1,55,0,0
38080,-100,4,2,1,60,0,0
56746,-100,4,2,1,50,0,0
59413,-100,4,2,1,65,0,1
68746,-100,4,2,1,60,0,1
69080,-100,4,1,2,55,0,1
69163,-100,4,2,1,60,0,1
69413,-100,4,1,2,55,0,1
69496,-100,4,2,1,60,0,1
69996,-100,4,2,1,60,0,0
70080,-100,4,2,1,65,0,1
78413,-100,4,1,2,60,0,1
78496,-100,4,2,1,65,0,1
78746,-100,4,1,2,60,0,1
78829,-100,4,2,1,65,0,1
80746,-100,4,2,1,50,0,0
80913,-100,4,2,1,40,0,0
86080,-100,4,2,1,20,0,0

[Colours]
Combo1 : 154,231,226
Combo2 : 83,162,124
Combo3 : 81,165,210
Combo4 : 139,207,145

[HitObjects]
152,336,747,6,0,P|90:330|161:221,1,260,6|2,1:2|0:0,0:0:0:0:
285,245,1746,1,0,0:0:0:0:
155,212,2080,2,0,P|102:157|156:55,1,195,2|2,0:0|0:0,0:0:0:0:
294,53,2913,2,0,L|294:200,1,130,2|2,0:0|0:0,0:0:0:0:
365,186,3413,6,0,P|443:198|366:294,1,260,2|2,0:0|0:0,0:0:0:0:
263,286,4413,1,0,0:0:0:0:
393,196,4746,2,0,L|186:197,1,195,2|0,0:0|0:0,0:0:0:0:
348,297,5580,2,0,L|348:162,1,130,2|2,0:0|0:0,0:0:0:0:
277,165,6080,6,0,P|206:165|155:55,2,195,6|6|6,1:2|1:2|1:2,0:0:0:0:
379,143,7413,2,0,P|422:158|369:261,1,195,2|2,0:0|0:0,0:0:0:0:
248,265,8246,2,0,L|249:126,1,130,2|2,0:0|0:0,0:0:0:0:
177,140,8746,6,0,P|112:141|183:251,1,260,2|2,0:0|0:0,0:0:0:0:
284,263,9746,1,2,0:0:0:0:
401,218,10080,6,0,P|401:119|253:57,1,260,2|0,0:0|0:0,0:0:0:0:
140,66,11080,1,0,0:0:0:0:
270,52,11413,5,6,0:0:0:0:
256,192,11746,12,0,16413,0:0:0:0:
192,208,16746,6,0,P|138:169|197:82,1,195,2|2,1:2|0:0,0:0:0:0:
329,108,17580,1,2,1:2:0:0:
180,177,17913,2,0,B|180:38|180:38|180:117,1,195,2|8,0:0|0:0,0:0:0:0:
310,188,18746,1,0,0:0:0:0:
179,245,19080,1,8,0:0:0:0:
309,213,19413,6,0,P|351:195|291:38,1,260,2|0,1:2|0:0,0:0:0:0:
169,57,20413,1,8,0:0:0:0:
318,211,20746,2,0,B|318:84|318:84|318:167,1,195,0|2,1:2|0:0,0:0:0:0:
187,220,21580,1,2,1:2:0:0:
317,309,21913,6,0,L|119:309,1,195,2|8,0:0|0:0,0:0:0:0:
252,273,22746,1,2,0:0:0:0:
252,273,23080,1,8,0:0:0:0:
122,270,23413,2,0,P|67:240|132:148,1,195,0|0,1:2|0:0,0:0:0:0:
324,200,24413,1,8,0:0:0:0:
194,218,24746,6,0,B|194:358|194:358|194:237,1,260,2|0,1:2|0:0,0:0:0:0:
325,305,25746,1,8,0:0:0:0:
456,307,26080,2,0,P|456:205|357:183,1,195,0|2,1:2|0:0,0:0:0:0:
250,204,26913,1,2,1:2:0:0:
380,284,27246,6,0,L|380:6,1,260,2|2,0:0|0:0,0:0:0:0:
249,50,28246,1,2,1:2:0:0:
119,128,28580,2,0,P|32:177|124:258,1,260,2|0,0:0|0:0,0:0:0:0:
307,264,29746,1,8,0:0:0:0:
157,298,30080,6,0,L|156:97,1,195,2|0,1:2|0:0,0:0:0:0:
286,95,30913,1,0,1:2:0:0:
100,91,31413,2,0,L|319:91,1,195,0|2,1:2|0:0,0:0:0:0:
295,241,32246,1,2,1:2:0:0:
90,233,32746,6,0,P|52:224|111:126,1,195,2|2,1:2|0:0,0:0:0:0:
223,159,33580,1,2,1:2:0:0:
93,260,33913,2,0,L|304:259,1,195,10|8,0:0|0:0,0:0:0:0:
418,265,34746,2,0,L|417:124,1,130,0|8,1:2|0:0,0:0:0:0:
285,109,35413,6,0,P|249:116|165:283,1,227.5,2|8,1:2|0:0,0:0:0:0:
401,265,36580,2,0,P|489:168|407:121,1,260,8|2,0:0|0:0,0:0:0:0:
304,60,37746,1,8,0:0:0:0:
454,85,38080,6,0,L|454:228,1,130,6|8,1:2|0:0,0:0:0:0:
305,258,38746,1,2,0:0:0:0:
455,254,39080,1,8,0:0:0:0:
306,258,39413,6,0,P|255:251|215:171,2,130,2|8|0,1:2|0:0|0:0,0:0:0:0:
456,262,40413,1,10,0:0:0:0:
307,265,40746,6,0,L|171:265,1,130,2|8,1:2|0:0,0:0:0:0:
327,263,41413,2,0,L|327:115,1,130,0|10,0:0|0:0,0:0:0:0:
177,138,42080,6,0,L|178:276,1,130,2|8,1:2|0:0,0:0:0:0:
327,283,42746,2,0,L|189:283,1,130,2|8,0:0|0:0,0:0:0:0:
47,275,43413,6,0,L|48:141,1,130,0|8,1:2|0:0,0:0:0:0:
198,126,44080,1,2,0:0:0:0:
49,100,44413,1,8,0:0:0:0:
198,142,44746,6,0,P|250:150|286:239,2,130,2|8|2,1:2|0:0|0:0,0:0:0:0:
48,164,45746,1,8,0:0:0:0:
198,160,46080,6,0,L|342:160,1,130,2|8,1:2|0:0,0:0:0:0:
179,218,46746,2,0,L|179:357,1,130,2|8,0:0|0:0,0:0:0:0:
329,348,47413,6,0,L|329:202,1,130,2|8,1:2|0:0,0:0:0:0:
179,208,48080,1,2,0:0:0:0:
328,184,48413,1,8,0:0:0:0:
179,208,48746,6,0,L|179:73,1,130,4|8,1:2|0:0,0:0:0:0:
329,157,49413,2,0,L|329:296,1,130,2|8,0:0|0:0,0:0:0:0:
179,300,50080,6,0,P|135:300|96:229,2,130,2|8|2,1:2|0:0|0:0,0:0:0:0:
329,271,51080,1,8,0:0:0:0:
180,297,51413,6,0,L|180:157,1,130,2|10,1:2|0:0,0:0:0:0:
330,186,52080,1,2,0:0:0:0:
479,183,52413,1,10,0:0:0:0:
330,186,52746,6,0,L|330:41,1,130,2|8,1:2|0:0,0:0:0:0:
180,43,53413,1,0,0:0:0:0:
329,66,53746,1,8,0:0:0:0:
179,43,54080,6,0,L|179:184,1,130,0|8,1:2|0:0,0:0:0:0:
328,162,54746,2,0,L|328:297,1,130,2|8,0:0|0:0,0:0:0:0:
178,301,55413,5,0,1:2:0:0:
327,271,55746,1,10,0:0:0:0:
327,271,56080,1,2,0:0:0:0:
178,291,56413,1,10,0:0:0:0:
327,271,56746,5,2,0:0:0:0:
256,192,57080,12,0,59080,0:0:0:0:
133,186,59413,6,0,L|275:186,1,130,6|10,1:2|0:0,0:0:0:0:
413,162,60080,1,0,1:2:0:0:
257,195,60413,1,8,0:0:0:0:
413,162,60746,6,0,L|413:308,1,130,2|10,1:2|0:0,0:0:0:0:
257,311,61413,1,2,1:2:0:0:
413,318,61746,1,8,0:0:0:0:
263,311,62080,6,0,L|263:155,1,130,2|10,1:2|0:0,0:0:0:0:
412,181,62746,2,0,L|412:48,1,130,0|8,1:2|0:0,0:0:0:0:
262,64,63413,5,2,1:2:0:0:
113,137,63746,2,0,L|113:283,1,130,10|2,0:0|1:2,0:0:0:0:
263,292,64413,1,8,0:0:0:0:
412,253,64746,5,2,1:2:0:0:
262,263,65080,2,0,L|261:112,1,130,10|0,0:0|1:2,0:0:0:0:
410,86,65746,1,10,0:0:0:0:
260,81,66080,6,0,L|125:83,1,130,2|10,1:2|0:0,0:0:0:0:
279,152,66746,2,0,L|279:295,1,130,0|10,1:2|0:0,0:0:0:0:
130,293,67413,6,0,L|130:162,1,130,2|10,1:2|0:0,0:0:0:0:
280,155,68080,2,0,L|280:21,1,130,0|10,1:2|0:0,0:0:0:0:
131,55,68746,6,0,P|67:56|17:174,2,195,2|2|2,1:2|0:0|1:2,0:0:0:0:
281,45,70080,6,0,L|281:192,1,130,6|10,1:2|0:0,0:0:0:0:
132,168,70746,1,0,1:2:0:0:
288,201,71080,1,8,0:0:0:0:
132,168,71413,6,0,L|132:314,1,130,2|10,1:2|0:0,0:0:0:0:
288,317,72080,1,2,1:2:0:0:
132,324,72413,1,8,0:0:0:0:
282,317,72746,6,0,L|282:161,1,130,2|10,1:2|0:0,0:0:0:0:
133,187,73413,2,0,L|133:54,1,130,0|8,1:2|0:0,0:0:0:0:
283,70,74080,5,2,1:2:0:0:
432,143,74413,2,0,L|432:289,1,130,10|2,0:0|1:2,0:0:0:0:
282,298,75080,1,8,0:0:0:0:
133,259,75413,5,2,1:2:0:0:
283,269,75746,2,0,L|284:118,1,130,10|0,0:0|1:2,0:0:0:0:
135,92,76413,1,10,0:0:0:0:
285,87,76746,6,0,L|420:89,1,130,2|10,1:2|0:0,0:0:0:0:
266,158,77413,2,0,L|122:158,1,130,0|10,1:2|0:0,0:0:0:0:
286,300,78080,6,0,P|386:271|411:180,2,195,10|10|2,0:0|0:0|1:2,0:0:0:0:
136,142,79413,5,10,0:0:0:0:
286,228,79746,1,2,1:2:0:0:
286,228,80080,1,0,1:2:0:0:
137,150,80413,1,2,1:2:0:0:
286,230,80746,5,6,0:0:0:0:
256,192,81080,12,2,86080,0:0:0:0:
