osu file format v14

[General]
AudioFilename: audio.mp3
AudioLeadIn: 0
PreviewTime: -1
Countdown: 0
SampleSet: Normal
StackLeniency: 0.3
Mode: 0
LetterboxInBreaks: 0
WidescreenStoryboard: 0

[Editor]
DistanceSpacing: 0.7
BeatDivisor: 4
GridSize: 8
TimelineZoom: 1.8

[Metadata]
Title:Namae no nai Kaibutsu
TitleUnicode:Namae no nai Kaibutsu
Artist:EGOIST
ArtistUnicode:EGOIST
Creator:P4ndemonium
Version:Nameless Monster
Source:
Tags:
BeatmapID:1579906
BeatmapSetID:750196

[Difficulty]
HPDrainRate:5
CircleSize:4
OverallDifficulty:9
ApproachRate:9.4
SliderMultiplier:2
SliderTickRate:1

[Events]
//Background and Video events
0,0,"qqq.jpg",0,0
//Break Periods
//Storyboard Layer 0 (Background)
//Storyboard Layer 1 (Fail)
//Storyboard Layer 2 (Pass)
//Storyboard Layer 3 (Foreground)
//Storyboard Sound Samples

[TimingPoints]
1666,333.333333333333,4,1,0,20,1,0
1666,-400,4,1,0,20,0,0
6999,-100,4,1,0,20,0,0
7999,-400,4,1,0,20,0,0
17665,-100,4,1,0,20,0,0
28332,-200,4,1,0,5,0,0
49665,-133.333333333333,4,1,0,45,0,0
70999,-100,4,1,0,75,0,1
92332,-200,4,1,0,5,0,0
97665,-400,4,1,0,5,0,0
107832,-133.333333333333,4,1,0,5,0,0
108332,-200,4,1,0,5,0,0
129665,-133.333333333333,4,1,0,45,0,0
150999,-100,4,1,0,75,0,1
172332,-200,4,1,0,5,0,0

[HitObjects]
53,142,1666,6,0,B|124:165|124:165|198:154,1,150
407,225,2999,2,0,B|335:201|335:201|261:212,1,150
245,81,4332,6,0,P|283:143|261:213,1,150
215,286,5665,2,0,P|176:224|198:154,1,150
295,77,6999,6,0,L|245:81,1,50
95,217,7499,2,0,L|144:221,1,50
309,289,7999,6,0,P|354:220|389:295,1,200
344,130,9665,6,0,B|272:153|272:153|198:142,1,150
163,301,10999,2,0,B|234:277|234:277|308:288,1,150
75,177,12332,5,0,0:0:0:0:
82,264,12666,1,0,0:0:0:0:
90,352,12999,1,0,0:0:0:0:
163,301,13332,1,0,0:0:0:0:
324,126,13665,5,0,0:0:0:0:
317,213,13999,1,0,0:0:0:0:
309,301,14332,1,0,0:0:0:0:
236,250,14665,1,0,0:0:0:0:
99,69,14999,5,0,0:0:0:0:
186,62,15333,1,0,0:0:0:0:
274,54,15666,1,0,0:0:0:0:
362,46,15999,1,0,0:0:0:0:
411,265,16332,5,0,0:0:0:0:
324,258,16666,1,0,0:0:0:0:
236,250,16999,1,0,0:0:0:0:
148,242,17332,1,0,0:0:0:0:
362,46,17665,6,0,L|366:95,1,50
148,242,18165,2,0,L|152:192,1,50
277,79,18665,6,0,L|281:128,1,50
387,347,18999,5,0,0:0:0:0:
395,260,19333,1,0,0:0:0:0:
402,172,19666,1,0,0:0:0:0:
321,209,19999,1,0,0:0:0:0:
155,329,20332,5,0,0:0:0:0:
148,242,20666,1,0,0:0:0:0:
140,154,20999,1,0,0:0:0:0:
132,66,21332,1,0,0:0:0:0:
314,296,21665,5,0,0:0:0:0:
321,209,21999,1,0,0:0:0:0:
329,121,22332,1,0,0:0:0:0:
337,33,22665,1,0,0:0:0:0:
140,154,22999,5,0,0:0:0:0:
256,192,23082,12,0,27999,0:0:0:0:
260,142,28332,6,0,L|256:192,1,50
337,72,28665,2,0,L|339:96,4,25
347,212,29165,1,0,0:0:0:0:
422,139,29332,2,0,L|419:163,2,25
347,212,29665,6,0,L|351:261,1,50
256,192,29998,2,0,L|253:216,4,25
246,332,30498,1,0,0:0:0:0:
171,259,30665,2,0,L|173:283,2,25
73,371,30999,6,0,L|77:321,1,50
88,206,31332,2,0,L|85:230,4,25
171,259,31832,1,0,0:0:0:0:
160,133,31999,2,0,L|162:157,2,25
258,245,32332,6,0,L|253:195,1,50
243,80,32665,2,0,L|245:104,4,25
160,133,33165,1,0,0:0:0:0:
171,7,33332,2,0,L|168:31,2,25
327,43,33665,6,0,L|331:92,1,50
428,124,33999,2,0,L|425:148,4,25
339,181,34499,1,0,0:0:0:0:
415,234,34665,2,0,L|412:258,2,25
343,131,34999,6,0,L|338:180,1,50
242,212,35333,2,0,L|244:236,4,25
331,269,35833,1,0,0:0:0:0:
255,322,35999,2,0,L|257:346,2,25
165,296,36332,6,0,L|161:247,1,50
70,349,36665,2,0,L|72:324,4,25
83,200,37165,1,0,0:0:0:0:
0,232,37332,2,0,L|2:256,2,25
83,200,37665,6,0,L|87:150,1,50
178,252,37998,2,0,L|175:227,4,25
165,103,38498,1,0,0:0:0:0:
248,135,38665,2,0,L|245:159,2,25
340,71,38999,6,0,L|335:120,1,50
416,0,39332,2,0,L|418:24,4,25
426,140,39832,1,0,0:0:0:0:
501,67,39999,2,0,L|498:91,2,25
502,211,40332,6,0,L|506:260,1,50
426,140,40665,2,0,L|423:164,4,25
416,280,41165,1,0,0:0:0:0:
341,207,41332,2,0,L|343:231,2,25
267,380,41665,6,0,L|262:330,1,50
252,215,41998,2,0,L|254:239,4,25
169,268,42498,1,0,0:0:0:0:
180,142,42665,2,0,L|177:166,2,25
82,254,42999,6,0,L|86:204,1,50
97,89,43332,2,0,L|94:113,4,25
180,142,43832,1,0,0:0:0:0:
169,16,43999,2,0,L|171:40,2,25
269,128,44332,6,0,L|273:78,1,50
367,103,44665,2,0,L|362:53,1,50
361,31,44915,2,0,L|358:6,1,25
460,154,45165,2,0,L|455:104,1,50
360,191,45499,1,0,0:0:0:0:
510,240,45665,5,0,0:0:0:0:
510,240,45749,1,0,0:0:0:0:
510,240,45832,1,0,0:0:0:0:
351,287,45999,2,0,L|355:237,1,50
357,215,46249,2,0,L|359:190,1,25
408,356,46499,1,0,0:0:0:0:
262,282,46665,2,0,L|266:232,1,50
357,215,46999,6,0,L|352:165,1,50
179,241,47332,2,0,L|183:191,1,50
185,169,47582,2,0,L|187:144,1,25
266,331,47832,2,0,L|262:282,1,50
179,241,48165,1,0,0:0:0:0:
91,297,48332,5,0,0:0:0:0:
91,297,48415,1,0,0:0:0:0:
91,297,48499,2,0,L|93:272,1,25
18,225,48665,2,0,L|13:175,1,50
12,153,48915,1,0,0:0:0:0:
9,128,48999,1,0,0:0:0:0:
111,22,49165,2,0,L|108:46,1,25
102,133,49332,2,0,L|99:157,1,25
99,157,49665,6,0,P|134:168|171:163,1,75.0000028610231
270,54,49999,2,0,L|256:203,1,150.000005722046
171,163,50499,1,0,0:0:0:0:
420,184,50665,2,0,P|383:189|347:178,1,75.0000028610231
196,303,50999,6,0,P|231:291|268:296,1,75.0000028610231
360,327,51332,2,0,L|347:178,1,150.000005722046
268,296,51832,1,0,0:0:0:0:
512,203,51999,2,0,P|476:214|439:209,1,75.0000028610231
340,84,52332,6,0,P|375:95|412:90,1,75.0000028610231
347,178,52665,1,0,0:0:0:0:
297,10,52832,2,0,P|332:-1|369:3,1,75.0000028610231
243,205,53165,1,0,0:0:0:0:
340,84,53332,1,0,0:0:0:0:
152,106,53499,1,0,0:0:0:0:
243,205,53665,6,0,P|254:169|249:132,1,75.0000028610231
125,30,53999,2,0,L|111:179,1,150.000005722046
161,257,54499,1,0,0:0:0:0:
39,186,54665,2,0,P|74:174|111:179,1,75.0000028610231
111,334,54999,6,0,P|74:339|39:328,1,75.0000028610231
243,205,55332,2,0,L|256:354,1,150.000005722046
161,257,55832,1,0,0:0:0:0:
396,309,55999,2,0,P|433:308|466:290,1,75.0000028610231
423,140,56332,6,0,P|385:141|352:159,1,75.0000028610231
256,55,56665,2,0,L|243:205,1,150.000005722046
161,257,57165,1,0,0:0:0:0:
77,110,57332,1,0,0:0:0:0:
204,332,57499,5,0,0:0:0:0:
204,332,57582,1,0,0:0:0:0:
204,332,57665,2,0,P|168:343|131:338,1,75.0000028610231
52,298,57999,1,0,0:0:0:0:
276,194,58165,1,0,0:0:0:0:
276,194,58249,1,0,0:0:0:0:
276,194,58332,2,0,L|269:268,1,75.0000028610231
347,343,58665,1,0,0:0:0:0:
418,268,58832,5,0,0:0:0:0:
418,268,58916,1,0,0:0:0:0:
418,268,58999,2,0,L|411:193,1,75.0000028610231
345,129,59332,1,0,0:0:0:0:
472,44,59499,2,0,L|465:118,2,75.0000028610231
345,129,59999,1,0,0:0:0:0:
220,29,60165,1,0,0:0:0:0:
84,229,60332,6,0,P|120:234|156:222,1,75.0000028610231
220,29,60665,2,0,L|233:178,1,150.000005722046
156,222,61165,1,0,0:0:0:0:
388,203,61332,2,0,P|352:214|315:209,1,75.0000028610231
254,334,61665,6,0,P|290:329|326:340,1,75.0000028610231
169,371,61999,2,0,L|156:222,1,150.000005722046
233,178,62499,1,0,0:0:0:0:
72,260,62665,2,0,P|35:264|0:253,1,75.0000028610231
24,21,62999,5,0,0:0:0:0:
42,179,63165,1,0,0:0:0:0:
171,64,63332,1,0,0:0:0:0:
136,202,63498,1,0,0:0:0:0:
256,62,63665,1,0,0:0:0:0:
264,189,63831,1,0,0:0:0:0:
327,30,63998,1,0,0:0:0:0:
373,134,64164,1,0,0:0:0:0:
498,68,64332,6,0,P|462:56|425:61,1,75.0000028610231
386,283,64665,2,0,L|373:134,1,150.000005722046
469,244,65165,1,0,0:0:0:0:
261,349,65332,2,0,P|296:360|333:355,1,75.0000028610231
348,211,65665,6,0,P|312:199|275:204,1,75.0000028610231
179,293,65999,2,0,L|192:143,1,150.000005722046
275,204,66499,1,0,0:0:0:0:
27,183,66665,2,0,P|63:178|99:189,1,75.0000028610231
200,54,66999,6,0,P|164:65|127:60,1,75.0000028610231
287,20,67332,2,0,L|300:169,1,150.000005722046
209,145,67832,1,0,0:0:0:0:
379,38,67999,2,0,P|415:44|451:32,1,75.0000028610231
411,286,68332,5,0,0:0:0:0:
445,202,68498,1,0,0:0:0:0:
378,145,68665,1,0,0:0:0:0:
302,192,68832,1,0,0:0:0:0:
323,278,68998,1,0,0:0:0:0:
378,145,69165,1,0,0:0:0:0:
378,145,69499,5,0,0:0:0:0:
323,278,69665,1,0,0:0:0:0:
179,266,69832,1,0,0:0:0:0:
145,125,69999,1,0,0:0:0:0:
268,49,70165,1,0,0:0:0:0:
103,210,70332,1,0,0:0:0:0:
323,278,70499,1,0,0:0:0:0:
323,278,70832,5,0,0:0:0:0:
474,198,70999,2,0,P|427:213|378:206,1,100
310,149,71332,1,0,0:0:0:0:
400,4,71499,2,0,P|367:41|321:58,1,100
154,142,71832,2,0,P|200:159|232:196,1,100
256,332,72165,5,0,0:0:0:0:
183,60,72332,1,0,0:0:0:0:
142,245,72499,1,0,0:0:0:0:
55,11,72665,1,0,0:0:0:0:
61,283,72832,1,0,0:0:0:0:
310,149,72999,1,0,0:0:0:0:
0,98,73165,2,0,P|46:113|95:106,1,100
61,283,73499,5,0,0:0:0:0:
237,236,73665,2,0,P|190:252|142:245,1,100
95,106,73999,1,0,0:0:0:0:
276,119,74165,2,0,P|229:101|197:63,1,100
373,0,74499,2,0,L|364:99,1,100
347,283,74832,6,0,L|351:233,1,50
276,119,74999,1,0,0:0:0:0:
259,335,75165,1,0,0:0:0:0:
364,99,75332,1,0,0:0:0:0:
442,318,75499,1,0,0:0:0:0:
217,186,75665,1,0,0:0:0:0:
459,90,75832,2,0,P|412:106|364:99,1,100
228,298,76165,5,0,0:0:0:0:
385,206,76332,2,0,P|341:229|292:230,1,100
228,298,76665,1,0,0:0:0:0:
57,235,76832,2,0,P|103:250|152:243,1,100
297,7,77165,1,0,0:0:0:0:
217,186,77332,1,0,0:0:0:0:
103,27,77499,1,0,0:0:0:0:
385,206,77665,6,0,P|341:229|292:230,1,100
228,298,77998,1,0,0:0:0:0:
57,235,78165,2,0,P|103:250|152:243,1,100
297,7,78498,1,0,0:0:0:0:
217,186,78665,1,0,0:0:0:0:
103,27,78832,1,0,0:0:0:0:
385,206,78999,6,0,P|341:229|292:230,1,100
228,298,79332,1,0,0:0:0:0:
57,235,79499,2,0,P|103:250|152:243,1,100
297,7,79832,1,0,0:0:0:0:
217,186,79999,1,0,0:0:0:0:
103,27,80166,1,0,0:0:0:0:
401,28,80332,5,0,0:0:0:0:
378,52,80415,1,0,0:0:0:0:
361,81,80498,1,0,0:0:0:0:
354,113,80581,1,0,0:0:0:0:
355,146,80665,1,0,0:0:0:0:
365,178,80748,1,0,0:0:0:0:
384,205,80832,2,0,P|398:226|405:250,1,50
324,350,80999,5,0,0:0:0:0:
287,333,81082,1,0,0:0:0:0:
247,330,81165,1,0,0:0:0:0:
208,339,81248,1,0,0:0:0:0:
168,349,81332,1,0,0:0:0:0:
128,345,81415,1,0,0:0:0:0:
91,329,81499,2,0,P|68:322|43:322,1,50
56,78,81665,6,0,P|40:124|47:173,1,100
137,216,81999,1,0,0:0:0:0:
176,44,82165,2,0,P|193:90|231:122,1,100
247,330,82499,2,0,P|277:291|287:242,1,100
137,216,82832,5,0,0:0:0:0:
412,180,82998,1,0,0:0:0:0:
231,122,83165,1,0,0:0:0:0:
475,292,83332,1,0,0:0:0:0:
164,301,83498,1,0,0:0:0:0:
376,100,83665,1,0,0:0:0:0:
413,374,83832,2,0,P|382:335|372:286,1,100
376,100,84165,5,0,0:0:0:0:
187,174,84332,2,0,P|233:158|282:165,1,100
372,286,84665,1,0,0:0:0:0:
164,301,84832,2,0,P|210:318|242:356,1,100
41,342,85165,2,0,L|49:242,1,100
294,252,85499,5,0,0:0:0:0:
142,70,85665,1,0,0:0:0:0:
164,301,85832,1,0,0:0:0:0:
299,0,85999,1,0,0:0:0:0:
339,335,86165,1,0,0:0:0:0:
52,195,86332,1,0,0:0:0:0:
355,86,86499,2,0,P|308:101|259:94,1,100
299,0,86832,5,0,0:0:0:0:
363,185,86999,2,0,L|355:86,1,100
194,311,87332,1,0,0:0:0:0:
258,125,87499,2,0,L|249:224,1,100
144,85,87832,1,0,0:0:0:0:
249,224,87999,1,0,0:0:0:0:
299,0,88165,1,0,0:0:0:0:
363,185,88332,6,0,L|355:86,1,100
194,311,88665,1,0,0:0:0:0:
258,125,88832,2,0,L|249:224,1,100
144,85,89165,1,0,0:0:0:0:
249,224,89332,1,0,0:0:0:0:
299,0,89498,1,0,0:0:0:0:
364,186,89665,5,0,0:0:0:0:
249,224,89832,1,0,0:0:0:0:
454,266,89999,1,0,0:0:0:0:
388,68,90165,1,0,0:0:0:0:
364,186,90332,1,0,0:0:0:0:
503,30,90499,1,0,0:0:0:0:
273,106,90665,1,0,0:0:0:0:
430,384,90832,1,0,0:0:0:0:
153,215,90999,6,0,P|202:208|249:224,1,100
70,175,91249,6,0,P|52:221|15:253,1,100
147,123,91499,6,0,P|129:105|115:84,1,50
378,165,91665,6,0,L|382:115,1,50
249,224,91832,2,0,L|236:175,1,50
428,287,91999,2,0,L|456:246,1,50
220,352,92165,2,0,L|184:316,1,50
231,57,92332,6,0,B|203:4|120:-5|54:29|54:29|91:98|179:118|248:83|248:83|289:56|342:57|375:73|375:73|396:82|421:81|421:81|384:103|372:134|379:173,1,700
422,240,94832,5,0,0:0:0:0:
335,354,94999,6,0,B|314:318|318:285|338:262|338:262|321:288|280:295|238:290|238:290|165:271|152:180|189:125|189:125|253:156|274:243|235:290|235:290|197:319|151:333|90:312,1,750
63,102,97665,6,0,L|60:126,2,25
121,38,98165,1,0,0:0:0:0:
206,198,98999,6,0,L|208:222,2,25
148,134,99499,1,0,0:0:0:0:
63,294,100332,6,0,L|60:318,2,25
121,230,100832,1,0,0:0:0:0:
63,294,101665,6,0,L|60:318,2,25
121,230,102165,1,0,0:0:0:0:
449,294,102915,6,0,L|451:318,2,25
391,230,103415,1,0,0:0:0:0:
306,198,104333,6,0,L|303:222,2,25
364,134,104833,1,0,0:0:0:0:
449,102,105665,6,0,L|451:126,2,25
391,38,106165,1,0,0:0:0:0:
449,102,106999,6,0,L|451:126,2,25
391,38,107499,5,0,0:0:0:0:
332,105,107665,1,0,0:0:0:0:
265,41,107832,2,0,P|228:35|192:47,1,75.0000028610231
175,72,108165,1,0,0:0:0:0:
252,142,108332,6,0,L|256:192,1,50
175,72,108665,2,0,L|173:96,4,25
165,212,109165,1,0,0:0:0:0:
90,139,109332,2,0,L|93:163,2,25
165,212,109665,6,0,L|161:261,1,50
256,192,109998,2,0,L|259:216,4,25
266,332,110498,1,0,0:0:0:0:
341,259,110665,2,0,L|339:283,2,25
439,371,110999,6,0,L|435:321,1,50
424,206,111332,2,0,L|427:230,4,25
341,259,111832,1,0,0:0:0:0:
352,133,111999,2,0,L|350:157,2,25
254,245,112332,6,0,L|259:195,1,50
269,80,112665,2,0,L|267:104,4,25
352,133,113165,1,0,0:0:0:0:
341,7,113332,2,0,L|344:31,2,25
185,43,113665,6,0,L|181:92,1,50
84,124,113999,2,0,L|87:148,4,25
173,181,114499,1,0,0:0:0:0:
97,234,114665,2,0,L|100:258,2,25
169,131,114999,6,0,L|174:180,1,50
270,212,115333,2,0,L|268:236,4,25
181,269,115833,1,0,0:0:0:0:
257,322,115999,2,0,L|255:346,2,25
347,296,116332,6,0,L|351:247,1,50
442,349,116665,2,0,L|440:324,4,25
429,200,117165,1,0,0:0:0:0:
512,232,117332,2,0,L|510:256,2,25
429,200,117665,6,0,L|425:150,1,50
334,252,117998,2,0,L|337:227,4,25
347,103,118498,1,0,0:0:0:0:
264,135,118665,2,0,L|267:159,2,25
172,71,118999,6,0,L|177:120,1,50
96,0,119332,2,0,L|94:24,4,25
86,140,119832,1,0,0:0:0:0:
11,67,119999,2,0,L|14:91,2,25
10,211,120332,6,0,L|6:260,1,50
86,140,120665,2,0,L|89:164,4,25
96,280,121165,1,0,0:0:0:0:
171,207,121332,2,0,L|169:231,2,25
245,380,121665,6,0,L|250:330,1,50
260,215,121998,2,0,L|258:239,4,25
343,268,122498,1,0,0:0:0:0:
332,142,122665,2,0,L|335:166,2,25
430,254,122999,6,0,L|426:204,1,50
415,89,123332,2,0,L|418:113,4,25
332,142,123832,1,0,0:0:0:0:
343,16,123999,2,0,L|341:40,2,25
243,128,124332,6,0,L|239:78,1,50
145,103,124665,2,0,L|150:53,1,50
151,31,124915,2,0,L|154:6,1,25
52,154,125165,2,0,L|57:104,1,50
152,191,125499,1,0,0:0:0:0:
2,240,125665,5,0,0:0:0:0:
2,240,125749,1,0,0:0:0:0:
2,240,125832,1,0,0:0:0:0:
161,287,125999,2,0,L|157:237,1,50
155,215,126249,2,0,L|153:190,1,25
104,356,126499,1,0,0:0:0:0:
250,282,126665,2,0,L|246:232,1,50
155,215,126999,6,0,L|160:165,1,50
333,241,127332,2,0,L|329:191,1,50
327,169,127582,2,0,L|325:144,1,25
246,331,127832,2,0,L|250:282,1,50
333,241,128165,1,0,0:0:0:0:
421,297,128332,5,0,0:0:0:0:
421,297,128415,1,0,0:0:0:0:
421,297,128499,2,0,L|419:272,1,25
494,225,128665,2,0,L|499:175,1,50
500,153,128915,1,0,0:0:0:0:
503,128,128999,1,0,0:0:0:0:
401,22,129165,2,0,L|404:46,1,25
410,133,129332,2,0,L|413:157,1,25
413,157,129665,6,0,P|378:168|341:163,1,75.0000028610231
266,33,129999,2,0,L|252:182,1,150.000005722046
176,229,130499,1,0,0:0:0:0:
104,58,130665,2,0,P|139:47|176:52,1,75.0000028610231
92,195,130999,6,0,P|56:205|19:200,1,75.0000028610231
176,229,131332,2,0,L|190:378,1,150.000005722046
101,343,131832,1,0,0:0:0:0:
252,182,131999,2,0,P|288:186|323:175,1,75.0000028610231
430,341,132332,6,0,P|394:329|357:334,1,75.0000028610231
275,364,132665,1,0,0:0:0:0:
458,258,132832,2,0,P|438:226|406:206,1,75.0000028610231
324,175,133165,1,0,0:0:0:0:
357,334,133332,1,0,0:0:0:0:
394,116,133499,1,0,0:0:0:0:
252,182,133665,6,0,P|288:186|323:175,1,75.0000028610231
176,52,133999,2,0,L|162:201,1,150.000005722046
252,182,134499,1,0,0:0:0:0:
79,167,134665,2,0,P|42:165|9:148,1,75.0000028610231
83,310,134999,6,0,P|115:292|153:290,1,75.0000028610231
266,331,135332,2,0,L|252:182,1,150.000005722046
338,149,135832,1,0,0:0:0:0:
442,278,135999,2,0,P|406:266|369:271,1,75.0000028610231
429,129,136332,6,0,P|464:140|501:135,1,75.0000028610231
338,149,136665,2,0,L|352:0,1,150.000005722046
438,39,137165,1,0,0:0:0:0:
252,114,137332,1,0,0:0:0:0:
442,278,137499,5,0,0:0:0:0:
442,278,137582,1,0,0:0:0:0:
442,278,137665,2,0,P|406:266|369:271,1,75.0000028610231
270,301,137999,1,0,0:0:0:0:
252,114,138165,1,0,0:0:0:0:
252,114,138249,1,0,0:0:0:0:
252,114,138332,2,0,L|259:188,1,75.0000028610231
160,40,138665,1,0,0:0:0:0:
142,227,138831,5,0,0:0:0:0:
142,227,138915,1,0,0:0:0:0:
142,227,138998,2,0,L|149:152,1,75.0000028610231
50,301,139332,1,0,0:0:0:0:
32,114,139499,2,0,L|39:188,2,75.0000028610231
50,301,139999,1,0,0:0:0:0:
149,152,140165,1,0,0:0:0:0:
195,362,140332,6,0,P|230:373|267:368,1,75.0000028610231
343,229,140665,2,0,L|357:378,1,150.000005722046
267,368,141165,1,0,0:0:0:0:
512,335,141332,2,0,P|479:352|441:354,1,75.0000028610231
328,145,141665,6,0,P|365:146|398:164,1,75.0000028610231
231,191,141999,2,0,L|245:42,1,150.000005722046
326,10,142499,1,0,0:0:0:0:
148,87,142665,2,0,P|110:85|77:67,1,75.0000028610231
16,362,142999,5,0,0:0:0:0:
34,204,143165,1,0,0:0:0:0:
163,319,143332,1,0,0:0:0:0:
128,181,143498,1,0,0:0:0:0:
248,321,143665,1,0,0:0:0:0:
256,194,143831,1,0,0:0:0:0:
319,353,143998,1,0,0:0:0:0:
365,249,144164,1,0,0:0:0:0:
490,315,144332,6,0,P|454:327|417:322,1,75.0000028610231
378,100,144665,2,0,L|365:249,1,150.000005722046
461,139,145165,1,0,0:0:0:0:
253,34,145332,2,0,P|288:23|325:28,1,75.0000028610231
99,151,145665,6,0,P|62:156|26:145,1,75.0000028610231
182,100,145999,2,0,L|195:249,1,150.000005722046
99,151,146499,1,0,0:0:0:0:
273,136,146665,2,0,P|310:134|343:117,1,75.0000028610231
484,281,146999,6,0,P|450:263|413:262,1,75.0000028610231
315,371,147332,2,0,L|328:222,1,150.000005722046
413,262,147832,1,0,0:0:0:0:
165,254,147999,2,0,P|200:242|237:248,1,75.0000028610231
56,348,148332,5,0,0:0:0:0:
22,264,148498,1,0,0:0:0:0:
89,207,148665,1,0,0:0:0:0:
165,254,148832,1,0,0:0:0:0:
144,340,148998,1,0,0:0:0:0:
89,207,149165,1,0,0:0:0:0:
89,207,149499,5,0,0:0:0:0:
144,340,149665,1,0,0:0:0:0:
288,328,149832,1,0,0:0:0:0:
322,187,149999,1,0,0:0:0:0:
199,111,150165,1,0,0:0:0:0:
364,272,150332,1,0,0:0:0:0:
144,340,150499,1,0,0:0:0:0:
144,340,150832,5,0,0:0:0:0:
0,256,150999,2,0,P|47:271|96:264,1,100
150,186,151332,1,0,0:0:0:0:
93,29,151499,2,0,P|119:70|161:96,1,100
399,100,151832,2,0,P|349:101|306:125,1,100
208,255,152165,5,0,0:0:0:0:
272,28,152332,1,0,0:0:0:0:
370,274,152499,1,0,0:0:0:0:
399,100,152665,1,0,0:0:0:0:
150,186,152832,1,0,0:0:0:0:
450,313,152999,1,0,0:0:0:0:
200,351,153165,2,0,P|215:304|208:255,1,100
156,95,153499,5,0,0:0:0:0:
300,11,153666,2,0,P|253:26|204:19,1,100
315,265,153999,1,0,0:0:0:0:
371,108,154165,2,0,P|344:149|302:175,1,100
109,246,154499,2,0,L|208:255,1,100
396,271,154832,6,0,L|347:267,1,50
198,363,154999,1,0,0:0:0:0:
447,345,155165,1,0,0:0:0:0:
211,134,155332,1,0,0:0:0:0:
469,201,155499,1,0,0:0:0:0:
294,379,155665,1,0,0:0:0:0:
294,79,155832,2,0,P|309:126|302:175,1,100
169,350,156165,5,0,0:0:0:0:
12,258,156332,2,0,P|56:281|105:282,1,100
169,350,156665,1,0,0:0:0:0:
340,287,156832,2,0,P|294:302|245:295,1,100
100,59,157165,1,0,0:0:0:0:
180,238,157332,1,0,0:0:0:0:
294,79,157499,1,0,0:0:0:0:
12,258,157665,6,0,P|56:281|105:282,1,100
169,350,157998,1,0,0:0:0:0:
340,287,158165,2,0,P|294:302|245:295,1,100
100,59,158498,1,0,0:0:0:0:
180,238,158665,1,0,0:0:0:0:
294,79,158832,1,0,0:0:0:0:
12,258,158999,6,0,P|56:281|105:282,1,100
169,350,159332,1,0,0:0:0:0:
340,287,159499,2,0,P|294:302|245:295,1,100
100,59,159832,1,0,0:0:0:0:
180,238,159999,1,0,0:0:0:0:
294,79,160166,1,0,0:0:0:0:
427,313,160333,5,0,0:0:0:0:
437,273,160416,1,0,0:0:0:0:
433,233,160499,1,0,0:0:0:0:
417,196,160582,1,0,0:0:0:0:
400,159,160666,1,0,0:0:0:0:
397,119,160749,1,0,0:0:0:0:
407,79,160833,2,0,P|409:55|405:30,1,50
95,191,161000,5,0,0:0:0:0:
119,214,161083,1,0,0:0:0:0:
148,231,161166,1,0,0:0:0:0:
180,238,161249,1,0,0:0:0:0:
213,237,161333,1,0,0:0:0:0:
245,227,161416,1,0,0:0:0:0:
272,208,161500,2,0,P|293:194|317:187,1,50
149,357,161665,6,0,P|133:309|141:260,1,100
197,138,161999,1,0,0:0:0:0:
384,255,162165,2,0,P|342:228|316:186,1,100
307,0,162499,2,0,P|305:49|282:93,1,100
95,191,162832,5,0,0:0:0:0:
81,24,162999,1,0,0:0:0:0:
196,223,163165,1,0,0:0:0:0:
307,0,163332,1,0,0:0:0:0:
286,282,163499,1,0,0:0:0:0:
512,88,163665,1,0,0:0:0:0:
391,351,163832,2,0,P|376:304|384:255,1,100
430,122,164165,5,0,0:0:0:0:
286,38,164332,2,0,P|333:53|382:46,1,100
286,282,164665,1,0,0:0:0:0:
230,125,164831,2,0,P|256:166|298:192,1,100
124,261,165165,2,0,L|133:162,1,100
214,339,165499,5,0,0:0:0:0:
45,137,165665,1,0,0:0:0:0:
327,95,165832,1,0,0:0:0:0:
29,265,165999,1,0,0:0:0:0:
404,197,166166,1,0,0:0:0:0:
138,41,166332,1,0,0:0:0:0:
116,357,166499,2,0,P|131:309|123:260,1,100
45,137,166832,5,0,0:0:0:0:
239,64,166999,2,0,L|140:72,1,100
336,251,167332,1,0,0:0:0:0:
142,178,167499,2,0,L|241:186,1,100
123,295,167832,1,0,0:0:0:0:
273,190,167999,1,0,0:0:0:0:
45,137,168165,1,0,0:0:0:0:
239,64,168332,6,0,L|140:72,1,100
336,251,168665,1,0,0:0:0:0:
142,178,168832,2,0,L|241:186,1,100
123,295,169165,1,0,0:0:0:0:
273,190,169332,1,0,0:0:0:0:
45,137,169498,1,0,0:0:0:0:
357,165,169665,5,0,0:0:0:0:
210,284,169832,1,0,0:0:0:0:
242,33,169999,1,0,0:0:0:0:
321,326,170165,5,0,0:0:0:0:
179,95,170332,1,0,0:0:0:0:
115,355,170499,1,0,0:0:0:0:
357,165,170665,1,0,0:0:0:0:
16,122,170832,1,0,0:0:0:0:
319,295,170999,6,0,P|270:288|223:304,1,100
402,255,171249,6,0,P|420:301|457:333,1,100
325,203,171499,6,0,P|343:185|357:164,1,50
140,118,171665,6,0,L|144:68,1,50
227,254,171832,2,0,L|223:304,1,50
235,83,171999,2,0,L|231:33,1,50
132,289,172165,2,0,L|136:339,1,50
0,217,172332,2,0,B|33:203|50:167|55:123|55:123|47:191|72:226|93:250|93:250|114:269|136:311|136:338|136:338|136:272|189:215|259:210|325:245|357:312|320:384,1,700
235,336,174832,5,0,0:0:0:0:
493,262,174999,6,0,B|456:281|435:307|422:342|422:342|423:291|404:235|360:196|360:196|314:153|299:79|339:37|339:37|336:109|377:143|447:154|496:111|495:47,1,700
191,29,177665,6,0,L|231:57,1,50
221,142,178165,2,0,L|233:190,1,50
171,247,178665,2,0,L|149:292,1,50
233,190,179165,2,0,L|220:141,1,50
231,57,179665,2,0,L|190:28,1,50
167,30,180165,1,0,0:0:0:0:
359,0,180332,6,0,L|318:28,1,50
329,113,180832,2,0,L|316:161,1,50
379,218,181332,2,0,L|400:263,1,50
317,161,181832,2,0,L|329:112,1,50
