osu file format v14

[General]
AudioFilename: Namae no nai Kaibutsu - EGOIST.mp3
AudioLeadIn: 1500
PreviewTime: 60090
Countdown: 0
SampleSet: Soft
StackLeniency: 0.4
Mode: 0
LetterboxInBreaks: 0
WidescreenStoryboard: 1

[Editor]
DistanceSpacing: 1
BeatDivisor: 4
GridSize: 32
TimelineZoom: 1.7

[Metadata]
Title:Namae no Nai Kaibutsu (TV Size)
TitleUnicode:名前のない怪物 (TV Size)
Artist:EGOIST
ArtistUnicode:EGOIST
Creator:Nevo
Version:Yukiyo's Insane
Source:PSYCHO-PASS
Tags:japanese lasse frostwich synderes ggf gotogofast stack lince irohas yukiyo Gottagof4st chekito
BeatmapID:2158423
BeatmapSetID:1031560

[Difficulty]
HPDrainRate:5.4
CircleSize:4
OverallDifficulty:8
ApproachRate:8.8
SliderMultiplier:1.7
SliderTickRate:1

[Events]
//Background and Video events
0,0,"BG.jpg",0,0
Video,0,"nevo cute.avi"
//Break Periods
//Storyboard Layer 0 (Background)
//Storyboard Layer 1 (Fail)
//Storyboard Layer 2 (Pass)
//Storyboard Layer 3 (Foreground)
//Storyboard Layer 4 (Overlay)
//Storyboard Sound Samples

[TimingPoints]
1674,333.333333333333,4,2,1,70,1,0
1674,-153.846153846153,4,2,1,70,0,0
2257,-153.846153846153,4,2,1,70,0,0
2340,-153.846153846153,4,2,1,70,0,0
2923,-153.846153846153,4,2,1,70,0,0
3007,-153.846153846153,4,2,1,70,0,0
3340,-153.846153846153,4,2,1,70,0,0
3507,-153.846153846153,4,2,1,70,0,0
4173,-153.846153846153,4,2,1,70,0,0
4340,-153.846153846153,4,2,1,70,0,0
4923,-153.846153846153,4,2,1,70,0,0
5007,-153.846153846153,4,2,1,70,0,0
5590,-153.846153846153,4,2,1,70,0,0
5673,-153.846153846153,4,2,1,70,0,0
6173,-153.846153846153,4,2,1,70,0,0
6507,-153.846153846153,4,2,1,70,0,0
6840,-153.846153846153,4,2,1,70,0,0
7007,-153.846153846153,4,2,1,70,0,0
7507,-153.846153846153,4,2,1,70,0,0
8007,-153.846153846153,4,2,1,70,0,0
8340,-153.846153846153,4,2,1,70,0,0
9673,-153.846153846153,4,2,1,70,0,0
9840,-153.846153846153,4,2,1,70,0,0
11007,-153.846153846153,4,2,1,70,0,0
11173,-153.846153846153,4,2,1,70,0,0
11840,-222.22222222222,4,2,1,70,0,0
12340,-222.22222222222,4,2,1,40,0,0
14840,-222.22222222222,4,2,1,40,0,0
16840,-133.333333333333,4,2,1,40,0,0
17007,-133.333333333333,4,2,1,40,0,0
17590,-133.333333333333,4,2,1,40,0,0
17673,-133.333333333333,4,2,1,40,0,0
18007,-133.333333333333,4,2,1,40,0,0
18173,-133.333333333333,4,2,1,40,0,0
18507,-133.333333333333,4,2,1,40,0,0
18673,-133.333333333333,4,2,1,40,0,0
19007,-133.333333333333,4,2,1,40,0,0
19173,-133.333333333333,4,2,1,40,0,0
19340,-133.333333333333,4,2,1,40,0,0
19840,-133.333333333333,4,2,1,40,0,0
20673,-133.333333333333,4,2,1,40,0,0
22173,-133.333333333333,4,2,1,40,0,0
22340,-133.333333333333,4,2,1,40,0,0
22673,-133.333333333333,4,2,1,40,0,0
23007,-133.333333333333,4,2,1,40,0,0
23340,-133.333333333333,4,2,1,40,0,0
23507,-135.135135135135,4,2,1,40,0,0
23658,375,4,2,1,40,1,0
23658,-133.333333333333,4,2,1,40,0,0
24009,394.736842105263,4,2,1,40,1,0
24009,-133.333333333333,4,2,1,40,0,0
24207,329.67032967033,4,2,1,40,1,0
24207,-133.333333333333,4,2,1,40,0,0
24426,-133.333333333333,4,2,1,40,0,0
24674,-135.135135135135,4,2,1,40,0,0
25196,333.333333333333,4,2,1,40,1,0
25196,-133.333333333333,4,2,1,40,0,0
25362,333.333333333333,4,2,1,40,1,0
25362,-133.333333333333,4,2,1,40,0,0
26008,-133.333333333333,4,2,1,40,0,0
27008,333.333333333333,4,2,1,40,1,0
27008,-133.333333333333,4,2,1,40,0,0
27508,-133.333333333333,4,2,1,40,0,0
27841,-133.333333333333,4,2,1,40,0,0
28174,-133.333333333333,4,2,1,40,0,0
28341,-133.333333333333,4,2,1,40,0,0
28424,-133.333333333333,4,2,1,40,0,0
28674,-133.333333333333,4,2,1,40,0,0
29341,-133.333333333333,4,2,1,40,0,0
29507,333.333333333333,4,2,1,40,1,0
29507,-133.333333333333,4,2,1,40,0,0
29673,333.333333333333,4,2,1,40,1,0
29673,-133.333333333333,4,2,1,40,0,0
30673,-133.333333333333,4,2,1,40,0,0
31007,-133.333333333333,4,2,1,40,0,0
32340,-133.333333333333,4,2,1,40,0,0
32673,-133.333333333333,4,2,1,40,0,0
33007,-133.333333333333,4,2,1,40,0,0
33673,-133.333333333333,4,2,1,60,0,0
34673,-133.333333333333,4,2,1,60,0,0
35007,-133.333333333333,4,2,1,60,0,0
35173,-133.333333333333,4,2,1,60,0,0
35590,-133.333333333333,4,2,1,60,0,0
35673,-133.333333333333,4,2,1,60,0,0
35840,-133.333333333333,4,2,1,60,0,0
36007,-133.333333333333,4,2,1,60,0,0
36340,-133.333333333333,4,2,1,60,0,0
36673,-133.333333333333,4,2,1,60,0,0
37340,-133.333333333333,4,2,1,60,0,0
37673,-133.333333333333,4,2,1,65,0,0
38006,-133.333333333333,4,2,1,65,0,0
38340,-133.333333333333,4,2,1,65,0,0
38673,-133.333333333333,4,2,1,65,0,0
39006,-100,4,2,1,70,0,0
39173,-100,4,2,1,70,0,0
39340,-100,4,2,1,70,0,0
39673,-100,4,2,1,70,0,0
39840,-100,4,2,1,70,0,0
40173,-100,4,2,1,70,0,0
40340,-100,4,2,1,70,0,0
40840,-100,4,2,1,70,0,0
41006,-100,4,2,1,70,0,0
41506,-100,4,2,1,70,0,0
41673,-100,4,2,1,70,0,0
42340,-100,4,2,1,70,0,0
42506,-100,4,2,1,70,0,0
43173,-100,4,2,1,70,0,0
43340,-100,4,2,1,70,0,0
44173,-100,4,2,1,70,0,0
44256,-100,4,2,1,70,0,0
44340,-100,4,2,1,70,0,0
44506,-100,4,2,1,70,0,0
44673,-100,4,2,1,70,0,0
45590,-100,4,2,1,70,0,0
45673,-100,4,2,1,70,0,0
46840,-100,4,2,1,70,0,0
47006,-100,4,2,1,70,0,0
49506,-100,4,2,1,70,0,0
49590,-100,4,2,1,70,0,0
49673,-100,4,2,1,70,0,0
51590,-100,4,2,1,70,0,0
51673,-100,4,2,1,70,0,0
54256,-100,4,2,1,70,0,0
54340,-100,4,2,1,70,0,0
54840,-100,4,2,1,70,0,0
55006,-100,4,2,1,75,0,0
56173,-100,4,2,1,75,0,0
56256,-100,4,2,1,75,0,0
56340,-100,4,2,1,75,0,0
57006,-100,4,2,1,75,0,0
57673,-153.846153846153,4,2,1,75,0,0
58090,-153.846153846153,4,2,1,75,0,0
58173,-153.846153846153,4,2,1,75,0,0
58590,-153.846153846153,4,2,1,75,0,0
58673,-153.846153846153,4,2,1,75,0,0
59006,-153.846153846153,4,2,1,75,0,0
59173,-153.846153846153,4,2,1,75,0,0
59590,-153.846153846153,4,2,1,75,0,0
59673,-153.846153846153,4,2,1,75,0,0
59840,-399.999999999994,4,2,1,75,0,0
60256,-399.999999999994,4,2,1,75,0,0
60339,-83.3333333333333,4,2,1,90,0,1
60506,-83.3333333333333,4,2,1,90,0,1
60673,-83.3333333333333,4,2,1,90,0,1
61173,-83.3333333333333,4,2,1,90,0,1
61340,-83.3333333333333,4,2,1,90,0,1
61506,-83.3333333333333,4,2,1,90,0,1
61590,-83.3333333333333,4,2,1,90,0,1
61673,-83.3333333333333,4,2,1,90,0,1
62506,-125,4,2,1,90,0,1
62756,-125,4,2,1,90,0,1
62840,-125,4,2,1,90,0,1
63006,-83.3333333333333,4,2,1,90,0,1
63173,-83.3333333333333,4,2,1,90,0,1
63340,-83.3333333333333,4,2,1,90,0,1
63840,-83.3333333333333,4,2,1,90,0,1
64006,-83.3333333333333,4,2,1,90,0,1
65173,-125,4,2,1,90,0,1
65673,-83.3333333333333,4,2,1,90,0,1
67006,-83.3333333333333,4,2,1,90,0,1
67340,-83.3333333333333,4,2,1,90,0,1
69673,-83.3333333333333,4,2,1,90,0,1
69756,-83.3333333333333,4,2,1,90,0,1
69840,-83.3333333333333,4,2,1,90,0,1
69923,-83.3333333333333,4,2,1,90,0,1
70006,-83.3333333333333,4,2,1,90,0,1
70090,-83.3333333333333,4,2,1,90,0,1
70173,-83.3333333333333,4,2,1,90,0,1
70256,-83.3333333333333,4,2,1,90,0,1
70340,-83.3333333333333,4,2,1,90,0,1
70423,-83.3333333333333,4,2,1,90,0,1
70506,-83.3333333333333,4,2,1,90,0,1
70590,-83.3333333333333,4,2,1,90,0,1
70673,-83.3333333333333,4,2,1,90,0,1
70756,-83.3333333333333,4,2,1,90,0,1
70840,-83.3333333333333,4,2,1,90,0,1
70923,-83.3333333333333,4,2,1,90,0,1
71006,-83.3333333333333,4,2,1,90,0,1
71173,-83.3333333333333,4,2,1,90,0,1
71340,-83.3333333333333,4,2,1,90,0,1
71840,-83.3333333333333,4,2,1,90,0,1
72006,-83.3333333333333,4,2,1,90,0,1
72256,-83.3333333333333,4,2,1,90,0,1
72340,-83.3333333333333,4,2,1,90,0,1
73173,-125,4,2,1,90,0,1
73423,-125,4,2,1,90,0,1
73506,-125,4,2,1,90,0,1
73673,-83.3333333333333,4,2,1,90,0,1
73840,-83.3333333333333,4,2,1,90,0,1
74006,-83.3333333333333,4,2,1,90,0,1
74506,-83.3333333333333,4,2,1,90,0,1
74673,-83.3333333333333,4,2,1,90,0,1
74923,-83.3333333333333,4,2,1,90,0,1
75006,-83.3333333333333,4,2,1,90,0,1
75840,-125,4,2,1,90,0,1
76340,-83.3333333333333,4,2,1,90,0,1
81090,-83.3333333333333,4,2,1,90,0,1
81173,-83.3333333333333,4,2,1,90,0,1
81340,-83.3333333333333,4,2,1,90,0,1
81423,-83.3333333333333,4,2,1,90,0,1
81506,-83.3333333333333,4,2,1,90,0,1
81590,-83.3333333333333,4,2,1,90,0,1
81673,-83.3333333333333,4,2,1,60,0,1
81756,-83.3333333333333,4,2,1,60,0,0
81840,-83.3333333333333,4,2,1,60,0,0
84340,-83.3333333333333,4,2,1,60,0,0
87006,-83.3333333333333,4,2,1,5,0,0

[Colours]
Combo1 : 240,80,80
Combo2 : 171,252,203
Combo3 : 128,128,255
Combo4 : 249,254,186

[HitObjects]
77,64,1674,5,6,3:2:0:0:
125,135,1840,2,0,P|178:112|150:43,1,138.12499367714
43,152,2340,5,2,0:1:0:0:
91,223,2507,2,0,P|144:200|116:131,1,138.12499367714
9,240,3007,5,2,0:0:0:0:
9,240,3173,2,0,P|44:260|61:291,1,55.2499974708558,0|2,0:0|0:1,0:0:0:0:
81,359,3507,2,0,B|124:350|124:350|153:356|153:356|189:348,2,110.499994941712
245,252,4340,5,2,0:0:0:0:
189,347,4507,2,0,L|324:318,1,138.12499367714
301,157,5007,5,2,0:1:0:0:
245,252,5173,2,0,L|380:223,1,138.12499367714
357,62,5673,5,2,3:1:0:0:
301,157,5840,2,0,L|355:146,1,55.2499974708558,0|2,0:0|0:1,0:0:0:0:
438,102,6173,2,0,P|465:93|513:146,2,110.499994941712
357,62,7007,5,6,3:2:0:0:
192,86,7507,1,6,3:2:0:0:
25,110,8007,1,6,3:2:0:0:
115,175,8340,5,2,0:1:0:0:
115,175,8507,2,0,P|158:177|187:157,1,55.2499974708558,0|2,0:0|0:1,0:0:0:0:
250,137,8840,2,0,P|215:178|209:233,1,110.499994941712
281,362,9507,5,0,0:0:0:0:
281,362,9673,2,0,L|345:368,1,55.2499974708558,2|0,0:0|0:0,0:0:0:0:
427,335,10007,1,2,0:1:0:0:
427,335,10173,1,0,0:0:0:0:
334,341,10340,2,0,L|278:346,1,55.2499974708558,2|0,0:1|0:0,0:0:0:0:
185,320,10673,1,2,0:1:0:0:
185,320,10840,1,0,0:0:0:0:
278,326,11007,2,0,L|333:331,1,55.2499974708558,2|0,0:0|0:0,0:0:0:0:
418,299,11340,1,2,0:1:0:0:
358,231,11507,1,0,0:0:0:0:
427,17,11840,2,0,L|506:5,1,76.4999976654053
502,5,12340,5,6,0:0:0:0:
498,94,14840,2,0,L|465:102,2,19.1249994163513,2|2|2,0:0|0:0|0:0,0:0:0:0:
256,192,16840,12,0,17590,0:0:0:0:
500,122,17673,6,0,P|442:137|408:198,1,127.500004863739,0|0,3:0|0:0,0:0:0:0:
402,186,18173,2,0,P|433:132|493:115,1,127.500004863739,2|2,0:0|0:0,0:0:0:0:
493,115,18673,1,0,0:0:0:0:
353,46,19007,6,0,L|215:28,1,127.500004863739,0|0,3:0|3:0,0:0:0:0:
225,43,19507,2,0,L|351:59,1,127.500004863739
351,59,20007,1,2,0:0:0:0:
163,153,20340,6,0,P|109:186|46:184,1,127.500004863739,0|0,3:0|3:0,0:0:0:0:
49,194,20840,2,0,P|111:195|165:162,1,127.500004863739
165,162,21340,1,0,3:0:0:0:
255,356,21673,2,0,B|238:313|238:313|266:227,1,127.500004863739,0|0,3:0|0:0,0:0:0:0:
275,235,22173,2,0,L|248:302,1,63.7500024318696,2|0,0:0|0:0,0:0:0:0:
192,216,22507,2,0,L|263:205,1,63.7500024318696,2|0,0:0|0:0,0:0:0:0:
375,179,22840,1,2,0:0:0:0:
375,179,23007,6,0,L|397:34,1,127.500004863739,2|0,3:0|3:0,0:0:0:0:
407,54,23507,2,0,L|387:180,1,127.500004863739
387,179,24009,1,2,0:0:0:0:
286,311,24371,6,0,P|235:348|172:348,1,127.500004863739,2|0,3:2|0:0,0:0:0:0:
170,337,24866,2,0,P|233:337|284:301,1,125.800003071289
284,301,25362,1,0,0:0:0:0:
89,231,25695,6,0,L|67:93,1,127.500004863739,0|0,3:0|0:0,0:0:0:0:
58,105,26195,2,0,L|79:231,1,127.500004863739
79,231,26695,1,0,0:0:0:0:
198,55,27008,6,0,B|264:28|264:28|342:36,1,127.500004863739,0|0,3:0|0:0,0:0:0:0:
323,47,27508,2,0,B|267:41|267:41|201:68,1,127.500004863739
383,173,28174,1,0,0:0:0:0:
383,173,28341,6,0,P|411:136|502:139,1,127.500004863739,2|0,3:2|0:0,0:0:0:0:
491,140,28841,2,0,P|429:138|386:183,1,127.500004863739
386,183,29341,1,0,0:0:0:0:
263,359,29673,6,0,L|281:228,1,127.500004863739,0|0,3:0|0:0,0:0:0:0:
267,229,30173,2,0,L|249:355,1,127.500004863739
249,355,30673,1,2,0:0:0:0:
31,158,31007,6,0,P|98:158|149:100,1,127.500004863739,0|0,3:0|0:0,0:0:0:0:
139,112,31507,2,0,P|91:152|28:150,1,127.500004863739
28,150,32007,1,0,3:0:0:0:
321,125,32340,6,0,L|474:109,1,127.500004863739,2|0,0:0|0:0,0:0:0:0:
450,99,32840,2,0,L|358:110,1,63.7500024318696,0|0,0:0|0:0,0:0:0:0:
296,116,33173,1,2,0:0:0:0:
68,60,33507,1,2,0:0:0:0:
68,60,33673,6,0,P|120:38|198:66,1,127.500004863739,2|0,3:0|3:0,0:0:0:0:
200,137,34173,2,0,P|234:181|227:264,1,127.500004863739,0|0,3:0|3:0,0:0:0:0:
162,308,34673,1,0,0:0:0:0:
162,308,35006,6,0,L|150:357,2,31.8750012159348,0|0|0,3:0|3:0|3:0,0:0:0:0:
234,250,35340,1,8,0:0:0:0:
322,210,35507,2,0,L|309:166,2,31.8750012159348,0|8|0,3:0|0:0|0:0,0:0:0:0:
389,281,35840,1,0,3:0:0:0:
475,254,36007,1,8,0:0:0:0:
475,254,36340,6,0,L|454:109,1,127.500004863739,0|8,3:0|0:0,0:0:0:0:
306,11,36923,1,8,0:0:0:0:
440,48,37173,2,0,P|408:51|378:42,1,63.7500024318696,0|0,3:0|3:0,0:0:0:0:
306,11,37506,2,0,P|243:9|201:44,1,95.6250036478044,8|0,0:0|0:0,0:0:0:0:
126,121,38006,1,8,0:0:0:0:
126,121,38173,2,0,P|77:127|41:114,1,63.7500024318696,2|0,0:0|3:0,0:0:0:0:
2,75,38506,1,0,3:0:0:0:
216,25,38673,1,8,0:0:0:0:
216,25,39006,6,0,L|197:129,1,85,6|0,3:2|0:0,0:0:0:0:
191,192,39340,1,8,0:0:0:0:
261,244,39506,2,0,P|309:260|345:249,1,85,0|2,0:0|0:1,0:0:0:0:
345,144,39840,2,0,P|303:135|265:151,1,85,0|8,3:0|0:0,0:0:0:0:
132,336,40173,1,0,0:0:0:0:
221,359,40340,6,0,L|187:171,1,170,2|8,3:2|0:0,0:0:0:0:
144,33,40840,2,0,B|106:29|106:29|89:76,1,85,0|2,0:0|0:1,0:0:0:0:
164,111,41173,1,0,3:0:0:0:
341,96,41340,1,8,0:0:0:0:
254,129,41506,1,2,0:1:0:0:
426,267,41673,6,0,P|364:272|341:177,1,170,2|8,3:2|0:0,0:0:0:0:
396,111,42173,2,0,L|494:119,1,85,2|2,0:1|0:1,0:0:0:0:
435,8,42506,1,0,3:0:0:0:
365,106,42673,1,8,0:0:0:0:
212,2,42840,6,0,P|261:70|281:152,1,170,2|2,0:1|0:1,0:0:0:0:
193,271,43340,2,0,B|184:230|184:230|227:206,1,85,8|2,0:0|0:1,0:0:0:0:
444,342,43673,1,0,3:0:0:0:
368,384,43840,2,0,B|317:384|317:384|274:264,1,170,0|0,3:0|0:0,0:0:0:0:
281,152,44256,1,0,0:0:0:0:
281,151,44340,6,0,P|241:168|199:173,1,85,6|0,3:2|0:0,0:0:0:0:
111,138,44673,1,8,0:0:0:0:
173,15,44840,2,0,L|185:100,1,85,0|2,0:0|0:1,0:0:0:0:
38,98,45173,2,0,L|50:13,1,85,0|8,3:0|0:0,0:0:0:0:
131,222,45506,5,0,0:0:0:0:
131,222,45590,1,0,0:0:0:0:
131,222,45673,2,0,B|102:295|102:295|110:336|110:336|81:403,1,170,2|8,3:2|0:0,0:0:0:0:
20,252,46173,1,0,0:0:0:0:
199,325,46340,1,2,0:1:0:0:
222,245,46506,2,0,B|181:236|181:236|142:264,1,85,0|8,3:0|0:0,0:0:0:0:
316,368,46840,5,2,0:1:0:0:
336,370,46923,1,2,0:1:0:0:
358,373,47006,2,0,P|369:320|348:175,1,170,2|8,3:2|0:0,0:0:0:0:
252,169,47506,1,2,0:1:0:0:
240,185,47590,1,2,0:1:0:0:
226,202,47673,2,0,P|266:238|402:292,1,170,2|8,0:1|0:0,0:0:0:0:
455,213,48173,1,2,0:1:0:0:
447,194,48256,1,2,0:1:0:0:
439,173,48340,2,0,P|387:189|272:280,1,170,2|8,3:2|0:0,0:0:0:0:
113,278,48840,5,2,0:1:0:0:
190,359,49006,2,0,P|197:301|228:259,1,85,0|0,3:0|3:0,0:0:0:0:
360,158,49340,1,8,0:0:0:0:
279,225,49506,5,0,0:0:0:0:
279,225,49590,1,0,0:0:0:0:
279,225,49673,2,0,P|279:161|222:34,1,170,6|8,3:2|0:0,0:0:0:0:
79,43,50173,2,0,L|162:28,1,85,0|2,0:0|0:1,0:0:0:0:
313,0,50506,1,0,3:0:0:0:
234,144,50673,2,0,P|247:100|237:47,1,85,8|0,0:0|0:0,0:0:0:0:
322,314,51006,6,0,P|306:257|335:141,1,170,2|8,3:2|0:0,0:0:0:0:
482,90,51506,1,0,0:0:0:0:
482,90,51590,1,0,0:0:0:0:
482,90,51673,2,0,B|456:127|456:127|396:132,1,85,2|0,0:1|3:0,0:0:0:0:
246,9,52006,1,8,0:0:0:0:
246,9,52340,5,2,3:2:0:0:
154,32,52506,1,2,0:1:0:0:
270,99,52673,1,8,0:0:0:0:
114,151,52840,2,0,P|180:110|274:100,1,170,2|0,0:1|3:0,0:0:0:0:
104,240,53340,2,0,P|65:223|23:216,1,85,8|2,0:0|0:1,0:0:0:0:
163,384,53673,6,0,B|211:376|211:376|275:260,1,170,2|8,3:2|0:0,0:0:0:0:
232,129,54173,1,2,0:1:0:0:
232,129,54256,1,2,0:1:0:0:
232,129,54340,1,0,3:0:0:0:
295,192,54506,1,0,3:0:0:0:
433,127,54673,2,0,B|387:112|387:112|349:132,1,85,8|0,0:0|0:0,0:0:0:0:
209,319,55006,6,0,P|156:337|161:238,1,170,6|8,3:2|0:0,0:0:0:0:
349,319,55506,1,0,0:0:0:0:
218,233,55673,1,2,0:1:0:0:
315,176,55840,2,0,L|294:-4,1,170,0|0,3:0|0:0,0:0:0:0:
221,35,56256,1,0,0:0:0:0:
225,39,56340,5,2,3:2:0:0:
2,13,56506,1,0,3:0:0:0:
19,93,56673,5,8,0:0:0:0:
226,57,56840,1,0,0:0:0:0:
219,138,57006,5,2,0:1:0:0:
21,106,57173,1,0,3:0:0:0:
45,188,57340,5,8,0:0:0:0:
215,159,57506,1,2,0:1:0:0:
80,347,57673,5,2,3:2:0:0:
159,289,57840,2,0,L|249:307,1,82.8749962062838,2|0,0:1|0:0,0:0:0:0:
239,384,58173,5,0,0:0:0:0:
318,326,58340,2,0,L|408:344,1,82.8749962062838,8|0,0:0|0:0,0:0:0:0:
475,380,58673,5,0,3:0:0:0:
386,255,58840,1,0,3:0:0:0:
497,193,59006,1,2,0:1:0:0:
508,298,59173,1,2,0:0:0:0:
337,323,59340,2,0,P|278:301|249:301,1,82.8749962062838,0|0,3:0|0:0,0:0:0:0:
175,327,59673,1,8,0:0:0:0:
3,183,59840,2,0,L|14:130,1,53.125,8|0,0:0|0:0,0:0:0:0:
13,130,60340,6,0,P|55:159|105:166,1,101.999996887207,6|0,3:2|0:0,0:0:0:0:
285,38,60673,1,8,0:0:0:0:
207,0,60840,2,0,B|170:34|170:34|170:34|195:200,1,203.999993774414,2|0,0:0|0:0,0:0:0:0:
377,297,61340,1,8,0:0:0:0:
282,261,61506,1,0,3:0:0:0:
282,261,61590,1,0,3:0:0:0:
282,261,61673,6,0,L|271:369,1,101.999996887207,2|0,3:0|0:0,0:0:0:0:
456,161,62006,2,0,L|467:269,1,101.999996887207,8|0,0:0|0:0,0:0:0:0:
248,132,62340,1,0,3:0:0:0:
335,83,62506,6,0,L|324:191,1,102
324,184,62840,1,0,3:0:0:0:
160,16,63006,6,0,P|109:20|66:47,1,101.999996887207,2|0,3:0|0:0,0:0:0:0:
24,130,63340,1,8,0:0:0:0:
145,303,63506,2,0,P|110:208|133:110,1,203.999993774414,2|0,0:0|0:0,0:0:0:0:
160,24,64006,1,8,0:0:0:0:
288,52,64173,5,0,3:0:0:0:
288,52,64256,1,0,3:0:0:0:
288,52,64340,2,0,B|241:30|241:30|170:47,1,101.999996887207,2|0,3:0|0:0,0:0:0:0:
368,194,64673,2,0,B|321:215|321:215|250:198,1,101.999996887207,8|0,0:0|0:0,0:0:0:0:
512,65,65006,1,0,3:0:0:0:
457,124,65173,6,0,B|352:105|352:105|401:92,1,136,0|0,0:0|3:0,0:0:0:0:
512,270,65673,6,0,P|513:328|424:281,1,203.999993774414,2|8,3:0|0:0,0:0:0:0:
380,97,66173,2,0,P|381:39|292:86,1,203.999993774414,2|0,0:0|0:0,0:0:0:0:
248,270,66673,1,8,0:0:0:0:
338,336,66840,1,0,3:0:0:0:
380,97,67006,6,0,P|381:39|292:86,1,203.999993774414,2|8,3:0|0:0,0:0:0:0:
248,270,67506,2,0,P|249:328|160:281,1,203.999993774414,2|0,0:0|0:0,0:0:0:0:
116,97,68006,1,8,0:0:0:0:
209,56,68173,1,0,3:0:0:0:
248,270,68340,6,0,P|249:328|160:281,1,203.999993774414,2|8,3:0|0:0,0:0:0:0:
116,97,68840,2,0,P|117:39|28:86,1,203.999993774414,2|0,0:0|0:0,0:0:0:0:
5,335,69340,1,8,0:0:0:0:
84,284,69506,1,2,0:0:0:0:
9,167,69673,6,0,L|85:155,3,50.9999984436036,10|2|0|2,3:0|0:0|3:0|0:0,0:0:0:0:
95,190,70006,2,0,L|171:202,3,50.9999984436036,2|2|2|2,0:0|0:0|0:0|0:0,0:0:0:0:
184,170,70340,2,0,L|257:158,1,50.9999984436036,2|2,3:2|3:2,0:0:0:0:
289,229,70506,2,0,L|362:241,1,50.9999984436036,2|2,3:2|3:2,0:0:0:0:
387,127,70673,2,0,L|460:115,1,50.9999984436036,2|2,3:2|3:2,0:0:0:0:
510,259,70840,5,2,3:2:0:0:
510,259,70923,1,2,3:2:0:0:
510,259,71006,2,0,P|451:265|405:306,1,101.999996887207,6|0,3:2|0:0,0:0:0:0:
260,384,71340,1,8,0:0:0:0:
345,359,71506,2,0,P|321:264|389:194,1,203.999993774414,2|0,0:0|0:0,0:0:0:0:
478,10,72006,1,8,0:0:0:0:
364,61,72173,5,0,3:0:0:0:
364,61,72256,1,0,3:0:0:0:
364,61,72340,2,0,L|484:76,1,101.999996887207,2|0,3:0|0:0,0:0:0:0:
224,197,72673,2,0,L|344:182,1,101.999996887207,8|2,0:0|0:0,0:0:0:0:
178,6,73006,1,0,3:0:0:0:
87,71,73173,6,0,L|207:86,1,102
188,83,73506,1,0,3:0:0:0:
37,224,73673,6,0,B|7:270|7:270|20:315,1,101.999996887207,2|0,3:0|0:0,0:0:0:0:
289,384,74006,1,8,0:0:0:0:
286,291,74173,2,0,B|227:321|227:321|81:281,1,203.999993774414,2|0,0:0|0:0,0:0:0:0:
31,94,74673,1,8,0:0:0:0:
134,121,74840,5,0,3:0:0:0:
134,121,74923,1,0,3:0:0:0:
134,121,75006,2,0,P|112:66|126:7,1,101.999996887207,2|0,3:0|0:0,0:0:0:0:
283,243,75340,2,0,P|305:188|291:129,1,101.999996887207,8|2,0:0|0:0,0:0:0:0:
170,291,75673,1,0,3:0:0:0:
111,353,75840,6,0,P|90:307|115:225,1,136,0|0,0:0|3:0,0:0:0:0:
311,329,76340,6,0,P|411:343|497:292,1,203.999993774414,2|8,3:0|0:0,0:0:0:0:
497,91,76840,2,0,P|411:40|311:54,1,203.999993774414,2|0,0:0|0:0,0:0:0:0:
228,144,77340,1,8,0:0:0:0:
287,248,77506,1,0,3:0:0:0:
311,54,77673,6,0,P|243:18|145:89,1,203.999993774414,2|8,3:0|0:0,0:0:0:0:
146,301,78173,2,0,P|220:364|311:330,1,203.999993774414,2|0,0:0|0:0,0:0:0:0:
228,144,78673,1,8,0:0:0:0:
287,248,78840,1,0,3:0:0:0:
120,223,79006,6,0,L|16:233,1,101.999996887207,10|2,3:0|0:1,0:0:0:0:
130,128,79340,1,0,3:0:0:0:
304,193,79506,2,0,L|200:183,1,101.999996887207,8|0,3:0|3:0,0:0:0:0:
314,288,79840,1,2,0:1:0:0:
479,137,80006,1,0,3:0:0:0:
396,227,80173,1,8,0:0:0:0:
472,365,80340,6,0,P|495:293|473:207,1,152.999995330811,6|8,3:0|0:0,0:0:0:0:
479,218,80673,1,8,0:0:0:0:
468,106,80840,2,0,P|408:59|319:51,1,152.999995330811,8|0,0:0|0:0,0:0:0:0:
333,48,81173,1,0,3:0:0:0:
225,21,81340,1,8,0:0:0:0:
190,19,81423,1,8,0:0:0:0:
160,30,81506,1,8,0:0:0:0:
138,51,81590,1,8,0:0:0:0:
127,80,81673,1,2,2:1:0:0:
256,192,81756,12,2,84340,0:1:0:0:
256,192,84423,12,2,87006,0:1:0:0:
