osu file format v14

[General]
AudioFilename: Namae no nai Kaibutsu - EGOIST.mp3
AudioLeadIn: 1500
PreviewTime: 60090
Countdown: 0
SampleSet: Soft
StackLeniency: 0.8
Mode: 0
LetterboxInBreaks: 0
WidescreenStoryboard: 0

[Editor]
Bookmarks: 38363
DistanceSpacing: 1.5
BeatDivisor: 4
GridSize: 32
TimelineZoom: 1.7

[Metadata]
Title:Namae no Nai Kaibutsu (TV Size)
TitleUnicode:名前のない怪物 (TV Size)
Artist:EGOIST
ArtistUnicode:EGOIST
Creator:Nevo
Version:Lince's Hard
Source:PSYCHO-PASS
Tags:japanese lasse frostwich synderes ggf gotogofast stack lince irohas yukiyo Gottagof4st chekito
BeatmapID:2157982
BeatmapSetID:1031560

[Difficulty]
HPDrainRate:4
CircleSize:3.9
OverallDifficulty:5.5
ApproachRate:8
SliderMultiplier:1.5
SliderTickRate:1

[Events]
//Background and Video events
0,0,"BG.jpg",0,0
Video,0,"nevo cute.avi"
//Break Periods
//Storyboard Layer 0 (Background)
//Storyboard Layer 1 (Fail)
//Storyboard Layer 2 (Pass)
//Storyboard Layer 3 (Foreground)
//Storyboard Layer 4 (Overlay)
//Storyboard Sound Samples

[TimingPoints]
1674,333.333333333333,4,2,1,70,1,0
1674,-100,4,2,1,70,0,0
6340,-100,4,2,1,70,0,0
7007,-100,4,2,1,70,0,0
7340,-100,4,2,1,70,0,0
7507,-100,4,2,1,70,0,0
7840,-100,4,2,1,70,0,0
9673,-100,4,2,1,70,0,0
10007,-100,4,2,1,70,0,0
11007,-100,4,2,1,70,0,0
11173,-100,4,2,1,70,0,0
12340,-100,4,2,1,40,0,0
16340,-100,4,2,1,40,0,0
16840,-100,4,2,1,40,0,0
17007,-100,4,2,1,40,0,0
17173,-100,4,2,1,40,0,0
17340,-100,4,2,1,40,0,0
17673,-133.333333333333,4,2,1,40,0,0
18007,-133.333333333333,4,2,1,40,0,0
18173,-133.333333333333,4,2,1,40,0,0
18340,-133.333333333333,4,2,1,40,0,0
18673,-133.333333333333,4,2,1,40,0,0
19007,-133.333333333333,4,2,1,40,0,0
19173,-133.333333333333,4,2,1,40,0,0
19840,-133.333333333333,4,2,1,40,0,0
20673,-133.333333333333,4,2,1,40,0,0
22173,-133.333333333333,4,2,1,40,0,0
22507,-133.333333333333,4,2,1,40,0,0
22673,-133.333333333333,4,2,1,40,0,0
23340,-133.333333333333,4,2,1,40,0,0
23658,375,4,2,1,40,1,0
23658,-133.333333333333,4,2,1,40,0,0
23681,-133.333333333333,4,2,1,40,0,0
24009,394.736842105263,4,2,1,40,1,0
24009,-133.333333333333,4,2,1,40,0,0
24173,-133.333333333333,4,2,1,40,0,0
24207,329.67032967033,4,2,1,40,1,0
24207,-133.333333333333,4,2,1,40,0,0
24426,-133.333333333333,4,2,1,40,0,0
24509,-133.333333333333,4,2,1,40,0,0
24674,-133.333333333333,4,2,1,40,0,0
25196,333.333333333333,4,2,1,40,1,0
25196,-133.333333333333,4,2,1,40,0,0
25362,333.333333333333,4,2,1,40,1,0
26008,-133.333333333333,4,2,1,40,0,0
27008,333.333333333333,4,2,1,40,1,0
27008,-133.333333333333,4,2,1,40,0,0
27508,-133.333333333333,4,2,1,40,0,0
27841,-133.333333333333,4,2,1,40,0,0
28341,-133.333333333333,4,2,1,40,0,0
28424,-133.333333333333,4,2,1,40,0,0
28674,-133.333333333333,4,2,1,40,0,0
29341,-133.333333333333,4,2,1,40,0,0
29507,333.333333333333,4,2,1,40,1,0
29507,-133.333333333333,4,2,1,40,0,0
29673,333.333333333333,4,2,1,40,1,0
29673,-133.333333333333,4,2,1,40,0,0
29840,-133.333333333333,4,2,1,40,0,0
30673,-133.333333333333,4,2,1,40,0,0
30840,-133.333333333333,4,2,1,40,0,0
31007,-133.333333333333,4,2,1,40,0,0
32173,-133.333333333333,4,2,1,40,0,0
32340,-133.333333333333,4,2,1,40,0,0
32673,-133.333333333333,4,2,1,40,0,0
33007,-133.333333333333,4,2,1,40,0,0
33340,-133.333333333333,4,2,1,40,0,0
33507,-133.333333333333,4,2,1,40,0,0
33673,-133.333333333333,4,2,1,60,0,0
34257,-133.333333333333,4,2,1,60,0,0
34340,-133.333333333333,4,2,1,60,0,0
34506,-133.333333333333,4,2,1,60,0,0
34673,-133.333333333333,4,2,1,60,0,0
34840,-133.333333333333,4,2,1,60,0,0
35007,-133.333333333333,4,2,1,60,0,0
35173,-133.333333333333,4,2,1,60,0,0
35840,-133.333333333333,4,2,1,60,0,0
36007,-133.333333333333,4,2,1,60,0,0
36340,-133.333333333333,4,2,1,60,0,0
36506,-133.333333333333,4,2,1,60,0,0
36673,-133.333333333333,4,2,1,60,0,0
36840,-133.333333333333,4,2,1,60,0,0
36923,-133.333333333333,4,2,1,60,0,0
37006,-133.333333333333,4,2,1,60,0,0
37173,-133.333333333333,4,2,1,60,0,0
37340,-133.333333333333,4,2,1,60,0,0
37506,-117.647058823529,4,2,1,60,0,0
37673,-117.647058823529,4,2,1,65,0,0
38006,-117.647058823529,4,2,1,65,0,0
38256,-117.647058823529,4,2,1,65,0,0
38340,-117.647058823529,4,2,1,65,0,0
38673,-117.647058823529,4,2,1,65,0,0
39006,-100,4,2,1,70,0,0
39673,-100,4,2,1,70,0,0
39840,-100,4,2,1,70,0,0
40173,-100,4,2,1,70,0,0
40340,-100,4,2,1,70,0,0
40840,-100,4,2,1,70,0,0
41006,-100,4,2,1,70,0,0
41506,-100,4,2,1,70,0,0
41673,-100,4,2,1,70,0,0
41840,-100,4,2,1,70,0,0
42006,-100,4,2,1,70,0,0
43173,-100,4,2,1,70,0,0
43340,-100,4,2,1,70,0,0
44173,-100,4,2,1,70,0,0
44340,-100,4,2,1,70,0,0
46840,-100,4,2,1,70,0,0
47006,-100,4,2,1,70,0,0
47673,-111.111111111111,4,2,1,70,0,0
48340,-125,4,2,1,70,0,0
48840,-100,4,2,1,70,0,0
49673,-100,4,2,1,70,0,0
54840,-100,4,2,1,70,0,0
55006,-100,4,2,1,75,0,0
56173,-100,4,2,1,75,0,0
57006,-100,4,2,1,75,0,0
57673,-100,4,2,1,75,0,0
59756,-100,4,2,1,75,0,0
60173,-100,4,2,1,75,0,0
60339,-90.9090909090909,4,2,1,90,0,1
61173,-90.9090909090909,4,2,1,90,0,1
61340,-90.9090909090909,4,2,1,90,0,1
61506,-90.9090909090909,4,2,1,90,0,1
61590,-90.9090909090909,4,2,1,90,0,1
61673,-90.9090909090909,4,2,1,90,0,1
63840,-90.9090909090909,4,2,1,90,0,1
64006,-90.9090909090909,4,2,1,90,0,1
67006,-90.9090909090909,4,2,1,90,0,1
67173,-90.9090909090909,4,2,1,90,0,1
69673,-90.9090909090909,4,2,1,90,0,1
69756,-90.9090909090909,4,2,1,90,0,1
69840,-90.9090909090909,4,2,1,90,0,1
69923,-90.9090909090909,4,2,1,90,0,1
70006,-90.9090909090909,4,2,1,90,0,1
70090,-90.9090909090909,4,2,1,90,0,1
70173,-90.9090909090909,4,2,1,90,0,1
70256,-90.9090909090909,4,2,1,90,0,1
70340,-90.9090909090909,4,2,1,90,0,1
70423,-90.9090909090909,4,2,1,90,0,1
70506,-90.9090909090909,4,2,1,90,0,1
70590,-90.9090909090909,4,2,1,90,0,1
70673,-90.9090909090909,4,2,1,90,0,1
70840,-90.9090909090909,4,2,1,90,0,1
71006,-90.9090909090909,4,2,1,90,0,1
71840,-90.9090909090909,4,2,1,90,0,1
72006,-90.9090909090909,4,2,1,90,0,1
72256,-90.9090909090909,4,2,1,90,0,1
72340,-90.9090909090909,4,2,1,90,0,1
74506,-90.9090909090909,4,2,1,90,0,1
74673,-90.9090909090909,4,2,1,90,0,1
74923,-90.9090909090909,4,2,1,90,0,1
75006,-90.9090909090909,4,2,1,90,0,1
80506,-90.9090909090909,4,2,1,90,0,1
80590,-90.9090909090909,4,2,1,90,0,1
81006,-90.9090909090909,4,2,1,90,0,1
81173,-90.9090909090909,4,2,1,90,0,1
81340,-90.9090909090909,4,2,1,90,0,1
81423,-90.9090909090909,4,2,1,90,0,1
81506,-90.9090909090909,4,2,1,90,0,1
81590,-90.9090909090909,4,2,1,90,0,1
81673,-90.9090909090909,4,2,1,60,0,1
81756,-100,4,2,1,60,0,0
81840,-100,4,2,1,60,0,0
84173,-100,4,2,1,60,0,0
87006,-100,4,2,1,5,0,0

[Colours]
Combo1 : 240,80,80
Combo2 : 171,252,203
Combo3 : 128,128,255
Combo4 : 249,254,186

[HitObjects]
256,192,1674,5,6,1:2:0:0:
256,192,1840,12,0,6340,2:0:0:0:
54,73,7007,6,0,B|109:81|109:81|130:117|130:117|192:126,1,150,6|0,1:2|0:0,0:0:0:0:
241,216,7507,2,0,B|299:207|299:207|315:170|315:170|386:160,1,150,6|0,1:2|0:0,0:0:0:0:
456,232,8007,1,6,1:0:0:0:
456,232,8340,6,0,P|458:187|485:151,2,75,0|0|0,0:0|0:0|0:0,0:0:0:0:
493,371,8840,2,0,P|434:347|335:358,1,150,0|0,0:0|0:0,0:0:0:0:
264,382,9340,1,0,0:0:0:0:
321,245,9673,6,0,B|312:188|312:188|334:158|334:158|329:86,1,150,2|0,2:0|0:0,0:0:0:0:
330,103,10173,1,0,0:0:0:0:
247,133,10340,2,0,L|159:128,1,75,0|0,0:0|0:0,0:0:0:0:
141,52,10673,2,0,L|57:58,1,75
6,121,11007,6,0,P|-7:162|-2:196,2,75,2|0|0,2:0|0:0|0:0,0:0:0:0:
86,196,11507,2,0,P|153:227|225:210,1,150
280,145,12007,2,0,P|308:94|324:151,1,150,0|6,0:0|2:0,0:0:0:0:
256,192,12423,12,0,16340,0:0:0:0:
256,192,16423,12,0,17340,0:0:0:0:
90,319,17673,6,0,B|134:337|134:337|210:311,1,112.500004291535,2|0,2:0|0:0,0:0:0:0:
286,267,18173,1,0,2:0:0:0:
286,267,18340,2,0,P|316:263|342:274,2,56.2500021457673,0|0|0,2:0|2:0|2:0,0:0:0:0:
406,345,18840,6,0,P|419:302|416:220,1,112.500004291535,2|0,2:0|0:0,0:0:0:0:
397,127,19340,1,0,0:0:0:0:
383,148,19673,2,0,L|312:146,1,56.2500021457673,0|0,0:0|2:0,0:0:0:0:
216,138,20007,1,0,2:0:0:0:
259,229,20173,1,0,2:0:0:0:
259,229,20340,6,0,P|214:237|143:204,1,112.500004291535,2|0,2:0|0:0,0:0:0:0:
108,109,20840,1,0,0:0:0:0:
54,172,21007,2,0,P|66:146|83:125,1,56.2500021457673,0|0,0:0|0:0,0:0:0:0:
182,67,21340,2,0,P|213:66|239:78,1,56.2500021457673,0|0,0:0|0:0,0:0:0:0:
321,149,21673,2,0,P|369:170|435:146,1,112.500004291535,0|0,0:0|0:0,0:0:0:0:
502,90,22173,6,0,B|477:126|477:126|485:204,1,112.500004291535,2|0,2:0|2:0,0:0:0:0:
511,293,22673,1,0,2:0:0:0:
511,293,23007,2,0,P|470:269|393:274,1,112.500004291535,0|0,2:0|0:0,0:0:0:0:
316,313,23507,1,0,2:0:0:0:
316,313,23658,2,0,L|323:372,1,56.2500021457673
229,313,24009,1,0,0:0:0:0:
229,313,24207,6,0,P|185:289|118:295,1,112.500004291535
47,258,24701,1,0,0:0:0:0:
30,273,25031,2,0,L|33:195,1,56.2500021457673,0|0,0:0|0:0,0:0:0:0:
71,134,25362,1,0,0:0:0:0:
71,134,25527,1,0,0:0:0:0:
156,196,25696,6,0,B|210:192|210:192|237:167|237:167|300:162,1,150,0|0,0:0|0:0,0:0:0:0:
369,230,26195,2,0,L|362:295,2,56.2500021457673,0|0|0,0:0|0:0|0:0,0:0:0:0:
433,152,26695,2,0,L|426:96,1,56.2500021457673,0|0,0:0|0:0,0:0:0:0:
364,31,27008,1,0,0:0:0:0:
129,227,27508,2,0,P|142:277|187:256,1,112.500004291535,2|0,2:0|0:0,0:0:0:0:
87,121,28174,1,0,2:0:0:0:
87,121,28341,6,0,P|43:155|13:203,1,112.500004291535,0|0,0:0|0:0,0:0:0:0:
3,220,28841,2,0,P|6:187|-3:155,2,56.2500021457673,0|0|0,2:0|2:0|0:0,0:0:0:0:
0,310,29341,1,0,2:0:0:0:
0,310,29507,6,0,B|41:334|41:334|125:315,1,112.500004291535,2|0,2:0|0:0,0:0:0:0:
191,290,30007,2,0,B|232:279|232:279|309:306,1,112.500004291535,0|0,0:0|2:0,0:0:0:0:
382,335,30507,1,0,0:0:0:0:
382,335,30673,2,0,P|391:309|391:275,1,56.2500021457673,0|0,0:0|0:0,0:0:0:0:
336,208,31007,6,0,L|325:88,1,112.500004291535,2|0,2:0|2:0,0:0:0:0:
303,105,31673,2,0,L|235:101,1,56.2500021457673,0|0,2:0|2:0,0:0:0:0:
185,168,32007,2,0,L|116:176,1,56.2500021457673,0|0,2:0|0:0,0:0:0:0:
46,138,32340,6,0,B|29:98|45:57|45:57|32:77|16:82,1,112.500004291535,2|0,2:0|2:0,0:0:0:0:
129,57,32840,1,0,2:0:0:0:
129,57,33007,2,0,L|199:50,1,56.2500021457673,2|2,2:0|2:0,0:0:0:0:
300,41,33340,2,0,P|294:82|300:109,1,56.2500021457673,0|0,0:0|2:0,0:0:0:0:
358,186,33673,6,0,B|405:183|405:183|429:202|429:202|482:200,1,112.500004291535,2|0,1:2|2:0,0:0:0:0:
381,275,34173,1,2,2:0:0:0:
381,275,34257,1,0,0:0:0:0:
381,275,34340,2,0,P|370:306|372:334,2,56.2500021457673,0|0|0,2:0|1:0|2:0,0:0:0:0:
358,186,34840,6,0,P|323:211|246:203,1,112.500004291535,2|0,2:0|2:0,0:0:0:0:
182,123,35340,2,0,P|152:120|147:193,1,112.500004291535,0|0,2:0|2:0,0:0:0:0:
186,276,35840,1,0,0:0:0:0:
186,276,36007,2,0,L|117:271,1,56.2500021457673,0|0,2:0|2:0,0:0:0:0:
245,352,36340,6,0,L|314:347,1,56.2500021457673,0|0,1:0|2:0,0:0:0:0:
364,262,36673,2,0,P|399:263|426:276,1,56.2500021457673,2|0,1:2|0:0,0:0:0:0:
438,287,36923,1,2,2:0:0:0:
449,302,37006,2,0,P|441:252|448:230,1,56.2500021457673,0|0,0:0|1:0,0:0:0:0:
479,164,37340,1,2,2:0:0:0:
432,73,37506,6,0,B|407:66|407:66|369:70,1,63.7500012159348,2|0,2:0|2:0,0:0:0:0:
349,76,37756,1,2,2:0:0:0:
328,82,37840,1,0,1:0:0:0:
302,162,38006,2,0,B|278:171|278:171|240:165,1,63.7500012159348,2|0,2:0|2:0,0:0:0:0:
219,160,38256,1,0,0:0:0:0:
198,154,38340,1,0,1:0:0:0:
94,152,38506,1,0,1:0:0:0:
138,234,38673,1,10,1:2:0:0:
138,234,39006,6,0,B|97:194|40:195|40:195|0:229,1,150,6|8,3:1|2:0,0:0:0:0:
73,336,39506,1,2,1:0:0:0:
73,336,39673,2,0,L|163:328,1,75,0|0,2:0|3:0,0:0:0:0:
243,320,40006,2,0,L|333:311,1,75,10|0,2:0|0:0,0:0:0:0:
423,360,40340,6,0,P|408:309|421:202,1,150,2|8,3:1|2:0,0:0:0:0:
497,114,40840,1,0,2:0:0:0:
497,114,41006,2,0,P|450:93|410:96,1,75,0|2,2:0|3:1,0:0:0:0:
348,143,41340,2,0,P|301:164|261:159,1,75,8|0,2:0|0:0,0:0:0:0:
196,117,41673,6,0,B|187:73|187:73|199:45,2,75,2|0|8,3:1|0:0|2:0,0:0:0:0:
164,218,42173,2,0,P|97:188|26:209,1,150,2|0,1:0|3:0,0:0:0:0:
6,224,42673,1,10,2:0:0:0:
6,224,42840,2,0,B|38:183|38:183|24:75,1,150,2|0,2:0|2:0,0:0:0:0:
124,0,43340,2,0,L|134:86,1,75,8|2,2:0|1:0,0:0:0:0:
145,177,43673,1,2,2:0:0:0:
145,177,43840,2,0,B|225:151|212:219|292:202,1,150,0|0,3:2|2:0,0:0:0:0:
364,128,44340,6,0,P|403:100|428:185,1,150,2|8,3:1|2:0,0:0:0:0:
388,256,44840,1,2,1:0:0:0:
388,256,45006,2,0,P|370:299|379:346,1,75,2|0,2:0|3:2,0:0:0:0:
281,379,45340,2,0,P|257:342|219:330,1,75,8|0,2:0|2:0,0:0:0:0:
120,352,45673,6,0,B|79:369|79:369|55:308|80:258,1,150,2|8,3:1|2:0,0:0:0:0:
137,181,46173,1,0,2:0:0:0:
235,192,46340,2,0,L|161:185,2,75,2|2|8,2:1|3:2|2:0,0:0:0:0:
271,98,46840,1,0,0:0:0:0:
271,98,46923,1,0,0:0:0:0:
271,98,47006,6,0,P|312:123|323:236,1,150,2|8,3:1|2:0,0:0:0:0:
250,314,47506,1,2,2:0:0:0:
250,314,47590,1,2,2:0:0:0:
250,314,47673,2,0,B|196:311|196:311|173:333|173:333|103:329,1,134.999995880127,2|8,2:1|2:0,0:0:0:0:
26,246,48173,1,2,2:0:0:0:
26,246,48256,1,2,2:0:0:0:
26,246,48340,2,0,P|16:205|82:192,1,120,2|8,3:1|2:0,0:0:0:0:
162,239,48840,1,2,1:0:0:0:
162,239,49006,2,0,L|254:247,2,75,10|0|8,2:0|3:0|2:0,0:0:0:0:
162,239,49673,6,0,P|183:191|173:80,1,150,6|8,3:1|2:0,0:0:0:0:
165,81,50173,2,0,P|197:124|291:158,1,150,2|2,1:0|3:2,0:0:0:0:
368,107,50673,2,0,P|410:104|444:122,1,75,8|2,2:0|2:0,0:0:0:0:
485,216,51006,6,0,P|421:254|347:254,1,150,2|8,3:1|2:0,0:0:0:0:
269,205,51506,1,0,2:0:0:0:
265,299,51673,2,0,P|253:263|258:226,1,75,2|2,1:0|3:2,0:0:0:0:
311,128,52006,1,8,2:0:0:0:
311,128,52173,1,0,2:1:0:0:
311,128,52340,6,0,B|281:114|281:114|231:126,1,75,2|0,3:1|2:1,0:0:0:0:
163,201,52673,2,0,B|133:215|133:215|83:206,1,75,10|2,2:0|1:0,0:0:0:0:
13,128,53006,2,0,P|6:77|98:80,2,150,0|10|2,2:1|2:1|3:1,0:0:0:0:
91,207,54006,1,8,2:0:0:0:
91,207,54173,2,0,B|93:255|61:293|61:293|91:268|118:275,1,150,2|0,2:1|3:0,0:0:0:0:
182,331,54673,2,0,P|226:339|261:324,1,75,8|0,2:0|0:0,0:0:0:0:
341,268,55006,6,0,P|411:264|432:330,1,150,0|8,3:0|2:0,0:0:0:0:
419,350,55506,1,2,1:0:0:0:
419,350,55673,1,2,2:0:0:0:
419,350,55840,2,0,L|417:262,1,75,0|8,3:0|2:0,0:0:0:0:
477,164,56173,1,2,2:1:0:0:
477,164,56340,6,0,P|483:112|393:76,1,150,2|10,3:2|2:0,0:0:0:0:
322,123,56840,1,2,2:0:0:0:
236,83,57006,2,0,L|241:4,1,75,2|2,3:1|3:2,0:0:0:0:
150,123,57340,2,0,L|154:200,1,75,10|2,2:1|3:2,0:0:0:0:
160,301,57673,5,2,2:0:0:0:
256,192,57756,12,2,59840,1:0:0:0:
111,96,60173,5,2,2:0:0:0:
111,96,60340,2,0,P|169:57|263:66,1,165.000005035401,6|10,3:1|2:0,0:0:0:0:
341,120,60840,2,0,B|329:186|329:186|305:205|305:205|294:273,1,165.000005035401,2|0,1:2|2:0,0:0:0:0:
387,264,61340,1,8,2:0:0:0:
315,359,61506,1,0,0:0:0:0:
315,359,61590,1,0,2:0:0:0:
315,359,61673,6,0,L|221:369,1,82.5000025177003,2|0,3:1|3:2,0:0:0:0:
173,301,62006,2,0,L|77:288,1,82.5000025177003,10|2,2:0|2:0,0:0:0:0:
18,342,62340,1,2,3:1:0:0:
14,256,62506,1,0,3:0:0:0:
165,181,62840,5,2,2:0:0:0:
165,181,63006,2,0,B|256:161|233:237|321:213,1,165.000005035401,2|10,3:1|2:0,0:0:0:0:
423,249,63506,2,0,P|407:168|422:87,1,165.000005035401,2|0,1:2|2:0,0:0:0:0:
422,88,64006,1,8,2:0:0:0:
360,31,64173,1,2,2:0:0:0:
360,31,64256,1,2,2:0:0:0:
360,31,64340,6,0,P|314:23|276:34,1,82.5000025177003,2|0,3:1|3:0,0:0:0:0:
216,89,64673,2,0,P|175:98|126:82,1,82.5000025177003,10|2,2:0|2:0,0:0:0:0:
79,22,65006,1,2,3:1:0:0:
48,107,65173,1,0,3:0:0:0:
29,122,65506,1,2,2:0:0:0:
29,122,65673,6,0,B|48:235|48:235|92:197,1,165.000005035401,2|10,3:1|2:0,0:0:0:0:
151,276,66173,2,0,P|205:245|309:259,1,165.000005035401,2|2,1:0|3:2,0:0:0:0:
387,309,66673,2,0,P|443:306|470:286,1,82.5000025177003,10|2,2:0|1:0,0:0:0:0:
429,181,67006,6,0,P|417:138|431:91,2,82.5000025177003,0|0|10,2:0|2:0|2:0,0:0:0:0:
429,181,67506,2,0,B|376:174|376:174|351:143|351:143|275:133,1,165.000005035401,2|2,1:0|3:2,0:0:0:0:
219,209,68006,2,0,L|305:220,1,82.5000025177003,10|2,2:0|2:0,0:0:0:0:
197,88,68340,6,0,P|185:44|199:4,2,82.5000025177003,2|0|10,1:0|1:0|1:2,0:0:0:0:
214,182,68840,2,0,P|150:191|59:122,1,165.000005035401,2|2,1:0|3:1,0:0:0:0:
53,139,69340,2,0,P|74:176|71:228,1,82.5000025177003,10|2,2:0|2:0,0:0:0:0:
24,289,69673,6,0,L|28:337,2,41.2500012588501,2|2|2,3:2|2:0|2:0,0:0:0:0:
122,323,70006,2,0,L|117:375,2,41.2500012588501,10|2|2,2:0|2:0|2:0,0:0:0:0:
183,257,70340,1,2,3:2:0:0:
199,251,70423,1,2,2:0:0:0:
216,249,70506,1,2,2:0:0:0:
232,250,70590,1,2,2:0:0:0:
247,256,70673,2,0,P|294:268|337:257,1,82.5000025177003,2|2,1:2|2:0,0:0:0:0:
409,171,71006,6,0,P|457:168|440:262,1,165.000005035401,6|10,3:1|2:0,0:0:0:0:
324,180,71506,2,0,P|315:98|329:17,1,165.000005035401,0|0,1:0|0:0,0:0:0:0:
343,16,72006,1,8,2:0:0:0:
241,54,72173,1,2,2:0:0:0:
241,54,72256,1,0,0:0:0:0:
241,54,72340,6,0,P|194:63|157:51,1,82.5000025177003,2|0,3:1|3:0,0:0:0:0:
92,4,72673,2,0,P|45:-5|5:8,1,82.5000025177003,10|2,2:0|2:0,0:0:0:0:
51,77,73006,1,2,3:1:0:0:
98,146,73173,1,0,3:0:0:0:
114,166,73506,5,2,2:0:0:0:
114,166,73673,2,0,B|177:164|177:164|200:193|200:193|273:189,1,165.000005035401,2|10,3:1|2:0,0:0:0:0:
367,149,74173,2,0,P|347:228|363:308,1,165.000005035401,2|0,1:0|2:0,0:0:0:0:
364,308,74673,1,8,2:0:0:0:
285,358,74840,1,2,2:0:0:0:
285,358,74923,1,0,0:0:0:0:
285,358,75006,6,0,B|249:347|249:347|204:351,1,82.5000025177003,2|0,3:1|3:0,0:0:0:0:
114,360,75340,2,0,B|69:364|69:364|33:353,1,82.5000025177003,10|2,2:0|2:0,0:0:0:0:
10,271,75673,1,2,3:1:0:0:
29,188,75840,1,0,3:0:0:0:
46,173,76173,1,2,2:0:0:0:
46,173,76340,6,0,P|90:148|201:169,1,165.000005035401,2|10,3:1|2:0,0:0:0:0:
231,260,76840,2,0,P|272:289|389:271,1,165.000005035401,2|2,1:0|3:2,0:0:0:0:
428,194,77340,2,0,B|478:185|478:185|512:200,1,82.5000025177003,10|2,2:0|1:0,0:0:0:0:
341,157,77673,6,0,B|326:104|353:49|353:49|330:69|304:73,1,165.000005035401,0|10,1:0|2:0,0:0:0:0:
229,119,78173,2,0,P|156:117|100:45,1,165.000005035401,2|2,1:0|3:2,0:0:0:0:
93,31,78673,2,0,P|108:70|98:128,1,82.5000025177003,10|2,2:0|2:0,0:0:0:0:
52,219,79006,6,0,P|59:282|127:236,1,165.000005035401,2|2,1:0|1:2,0:0:0:0:
178,339,79506,2,0,P|230:308|330:328,1,165.000005035401,2|2,1:0|3:1,0:0:0:0:
418,378,80006,2,0,L|428:279,1,82.5000025177003,10|2,2:0|2:0,0:0:0:0:
440,177,80340,5,2,3:1:0:0:
360,207,80506,1,0,2:0:0:0:
360,207,80590,1,0,1:0:0:0:
360,207,80673,2,0,P|318:188|269:195,1,82.5000025177003,10|2,2:0|1:2,0:0:0:0:
200,220,81006,1,0,2:0:0:0:
200,220,81173,1,0,1:0:0:0:
143,135,81340,2,0,L|150:80,4,41.2500012588501,0|0|0|0|4,1:0|1:0|1:0|1:0|1:0,0:0:0:0:
256,192,81756,12,0,84173,0:0:0:0:
256,192,84340,12,2,87006,2:0:0:0:
