osu file format v14

[General]
AudioFilename: Namae no nai Kaibutsu - EGOIST.mp3
AudioLeadIn: 1500
PreviewTime: 60090
Countdown: 0
SampleSet: Soft
StackLeniency: 0.7
Mode: 0
LetterboxInBreaks: 0
WidescreenStoryboard: 1

[Editor]
Bookmarks: 6863
DistanceSpacing: 1
BeatDivisor: 4
GridSize: 4
TimelineZoom: 1.7

[Metadata]
Title:Namae no Nai Kaibutsu (TV Size)
TitleUnicode:名前のない怪物 (TV Size)
Artist:EGOIST
ArtistUnicode:EGOIST
Creator:Nevo
Version:Irohas' Insane
Source:PSYCHO-PASS
Tags:japanese lasse frostwich synderes ggf gotogofast stack lince irohas yukiyo Gottagof4st chekito
BeatmapID:2158625
BeatmapSetID:1031560

[Difficulty]
HPDrainRate:6
CircleSize:4.1
OverallDifficulty:7
ApproachRate:9
SliderMultiplier:1.6
SliderTickRate:1

[Events]
//Background and Video events
0,0,"BG.jpg",0,0
Video,0,"nevo cute.avi"
//Break Periods
2,12707,14240
//Storyboard Layer 0 (Background)
//Storyboard Layer 1 (Fail)
//Storyboard Layer 2 (Pass)
//Storyboard Layer 3 (Foreground)
//Storyboard Layer 4 (Overlay)
//Storyboard Sound Samples

[TimingPoints]
1674,333.333333333333,4,2,1,45,1,0
1674,-166.666666666667,4,2,1,70,0,0
7007,-76.9230769230769,4,2,1,70,0,0
7090,-76.9230769230769,4,2,1,5,0,0
7507,-76.9230769230769,4,2,1,70,0,0
7590,-76.9230769230769,4,2,1,5,0,0
8007,-166.666666666667,4,2,1,70,0,0
11507,-250.000000000001,4,2,1,70,0,0
12340,-250.000000000001,4,2,1,40,0,0
14840,-250.000000000001,4,2,1,40,0,0
17673,-133.333333333333,4,2,1,40,0,0
18840,-133.333333333333,4,2,1,40,0,0
19673,-133.333333333333,4,2,1,40,0,0
23658,375,4,2,1,50,1,0
23658,-142.857142857143,4,2,1,40,0,0
24009,394.736842105263,4,2,1,45,1,0
24009,-100,4,2,1,40,0,0
24207,329.67032967033,4,2,1,50,1,0
24207,-133.333333333333,4,2,1,40,0,0
25196,333.333333333333,4,2,1,50,1,0
25196,-100,4,2,1,40,0,0
25362,333.333333333333,4,2,1,50,1,0
25362,-133.333333333333,4,2,1,40,0,0
27008,333.333333333333,4,2,1,45,1,0
27008,-133.333333333333,4,2,1,40,0,0
29507,333.333333333333,4,2,1,35,1,0
29507,-133.333333333333,4,2,1,40,0,0
29673,333.333333333333,4,2,1,45,1,0
30339,-133.333333333333,4,2,1,40,0,0
31007,-133.333333333333,4,2,1,40,0,0
33673,-125,4,2,1,60,0,0
34840,-125,4,2,1,30,0,0
35340,-117.647058823529,4,2,1,30,0,0
37673,-100,4,2,1,65,0,0
38173,-100,4,2,1,65,0,0
38673,-83.3333333333333,4,2,1,65,0,0
38756,-83.3333333333333,4,2,1,5,0,0
39006,-105.263157894737,4,2,1,70,0,0
40340,-100,4,2,1,70,0,0
41006,-105.263157894737,4,2,1,70,0,0
46006,-100,4,2,1,70,0,0
46340,-105.263157894737,4,2,1,70,0,0
51006,-142.857142857143,4,2,1,70,0,0
51340,-105.263157894737,4,2,1,70,0,0
52006,-105.263157894737,4,2,1,70,0,0
55006,-105.263157894737,4,2,1,75,0,0
57673,-166.666666666667,4,2,1,75,0,0
57840,-100,4,2,1,75,0,0
58506,-142.857142857143,4,2,1,75,0,0
59173,-100,4,2,1,75,0,0
59340,-142.857142857143,4,2,1,75,0,0
59506,-100,4,2,1,75,0,0
59840,-100,4,2,1,75,0,0
60173,-100,4,2,1,75,0,0
60339,-100,4,2,1,90,0,1
69673,-100,4,2,1,90,0,1
70173,-111.111111111111,4,2,1,90,0,1
71006,-100,4,2,1,90,0,1
81673,-100,4,2,1,60,0,1
81756,-200,4,2,1,40,0,0
84173,-200,4,2,1,20,0,0
84340,-200,4,2,1,40,0,0
87006,-200,4,2,1,5,0,0

[Colours]
Combo1 : 147,228,255
Combo2 : 241,202,173
Combo3 : 225,199,254

[HitObjects]
506,312,1674,5,6,3:2:0:0:
444,255,1840,2,0,P|386:246|335:318,1,144.287995605469,0|2,0:0|0:1,0:0:0:0:
228,243,2507,2,0,L|253:82,1,143.999995605469,0|2,0:0|0:0,0:0:0:0:
160,48,3173,2,0,L|95:60,1,48.0959985351562,0|2,0:0|0:1,0:0:0:0:
356,179,3507,6,0,L|455:163,2,96.0479970703124
287,243,4340,5,2,0:0:0:0:
336,327,4507,2,0,P|301:288|197:288,1,144.287995605469,0|2,0:0|0:1,0:0:0:0:
94,352,5173,2,0,P|88:312|71:203,1,144.287995605469,0|2,0:0|3:1,0:0:0:0:
0,152,5840,1,0,0:0:0:0:
73,93,6007,6,0,B|153:116|153:116|189:97|178:49,1,144.287995605469,2|0,0:1|0:0,0:0:0:0:
346,161,6840,1,0,0:0:0:0:
418,109,7007,6,0,P|451:104|492:97,1,52.4159976196288,6|0,3:2|0:0,0:0:0:0:
416,308,7507,2,0,P|449:313|490:320,1,52.4159976196288,6|0,3:2|0:0,0:0:0:0:
309,219,8007,6,0,B|212:199|227:277|113:263,1,192.095994140625,6|0,3:2|0:0,0:0:0:0:
55,200,8840,2,0,L|77:93,2,96.0479970703124
128,264,9673,5,2,0:0:0:0:
55,316,9840,2,0,L|-7:308,2,48.0959985351561
232,303,10340,5,0,0:0:0:0:
304,345,10507,2,0,L|366:337,2,48.0959985351561
167,384,11007,5,2,0:0:0:0:
243,83,11340,1,0,0:0:0:0:
177,151,11507,2,0,L|187:219,2,64.0319999999998
107,94,12340,5,6,0:0:0:0:
339,269,14840,6,0,L|334:246,2,16.032,2|2|2,0:0|0:0|0:0,0:0:0:0:
512,359,17673,6,0,P|464:327|396:332,1,120.240004577637,2|0,0:0|0:0,0:0:0:0:
339,269,18173,2,0,L|351:204,1,60.1200022888182
235,103,18507,2,0,P|246:138|250:166,1,60.1200022888182
168,246,18840,6,0,B|75:237|92:297|-2:295,1,180.000006866455,2|0,0:0|0:0,0:0:0:0:
258,384,19673,2,0,P|294:348|372:342,1,120.240004577637
360,338,20340,6,0,P|368:294|387:203,1,120.240004577637,2|0,0:0|0:0,0:0:0:0:
306,148,20840,2,0,L|244:157,2,60.1200022888182
396,79,21340,1,0,0:0:0:0:
396,79,21673,6,0,L|538:107,1,120.240004577637
418,183,22173,2,0,P|425:224|431:261,1,60.1200022888182
512,304,22507,2,0,P|505:345|499:382,1,60.1200022888182
308,246,22840,1,0,0:0:0:0:
364,351,23007,6,0,P|345:316|205:295,1,180.000006866455,2|0,0:0|0:0,0:0:0:0:
123,234,23658,2,0,L|140:134,1,83.9999974365235
173,141,24009,1,0,0:0:0:0:
25,286,24206,1,2,0:0:0:0:
25,286,24371,5,0,0:0:0:0:
264,160,24701,1,0,0:0:0:0:
120,0,25031,2,0,P|107:33|104:63,1,60.0000022888184
201,47,25362,1,0,0:0:0:0:
201,47,25695,6,0,B|298:30|298:30|320:74|377:76,1,180.000006866455,2|0,0:0|0:0,0:0:0:0:
496,138,26362,2,0,P|465:149|430:150,1,60.0000022888184
302,247,26695,2,0,P|331:249|361:260,1,60.0000022888184
448,368,27008,6,0,L|471:239,1,120.000004577637
327,335,27508,2,0,P|292:345|255:345,1,60.0000022888184
195,269,27841,2,0,L|206:207,1,60.0000022888184
140,138,28174,1,2,0:0:0:0:
0,286,28341,6,0,P|21:255|113:241,1,120.000004577637
195,269,28841,2,0,L|184:351,1,60.0000022888184
284,204,29174,2,0,P|278:171|279:139,1,60.0000022888184
375,84,29507,6,0,B|419:93|483:106|483:106|518:80|501:24,1,180.000006866455,2|0,0:0|0:0,0:0:0:0:
367,268,30339,1,0,0:0:0:0:
449,311,30507,2,0,L|459:242,2,60.0000022888184
512,380,31007,5,2,0:0:0:0:
254,243,31340,1,0,0:0:0:0:
64,343,31673,2,0,P|93:337|123:331,1,60.2400022888185
198,372,32007,1,0,0:0:0:0:
58,107,32340,6,0,B|13:138|-2:194|-2:194|40:224|36:270,1,180.000006866456,2|0,0:0|0:0,0:0:0:0:
198,372,33007,1,0,0:0:0:0:
279,329,33173,2,0,P|321:321|371:389,1,120.120004577637
472,336,33673,6,0,L|448:199,1,128,2|0,3:0|3:0,0:0:0:0:
384,148,34173,1,0,3:0:0:0:
474,35,34340,1,0,0:0:0:0:
304,73,34507,2,0,L|217:61,1,64,0|0,3:0|0:0,0:0:0:0:
153,100,34840,1,8,0:0:0:0:
45,62,35007,6,0,P|40:25|49:-5,1,64,0|0,0:0|3:0,0:0:0:0:
135,193,35340,2,0,L|115:312,1,102.000001945496,8|0,0:0|0:0,0:0:0:0:
142,320,35672,2,0,L|226:309,1,68.7253346303306,0|0,3:0|0:0,0:0:0:0:
375,368,36006,2,0,P|344:377|303:374,1,68.0000012969971,8|0,0:0|0:0,0:0:0:0:
419,262,36340,6,0,P|465:254|516:337,1,135.682669260661,0|8,3:0|0:0,0:0:0:0:
352,164,36922,2,0,L|365:90,1,68.7253346303306,8|0,0:0|0:0,0:0:0:0:
304,23,37173,1,0,3:0:0:0:
470,119,37340,1,0,3:0:0:0:
279,237,37506,2,0,P|241:255|168:247,1,102.000001945496,8|0,0:0|0:0,0:0:0:0:
110,191,37840,2,0,L|122:140,1,39.6266666666668,0|0,3:0|0:0,0:0:0:0:
189,106,38006,1,8,0:0:0:0:
0,36,38173,5,2,0:0:0:0:
18,47,38256,2,0,L|140:30,1,120,0|0,0:0|3:0,0:0:0:0:
344,151,38673,2,0,L|281:161,1,47.5519985351565,8|0,0:0|0:0,0:0:0:0:
282,149,39006,6,0,P|300:46|311:-18,1,151.999995941162,6|8,3:2|0:0,0:0:0:0:
157,130,39506,1,0,0:0:0:0:
152,136,39590,1,0,0:0:0:0:
147,141,39672,2,0,L|162:235,1,76.8106646372479,2|0,0:1|3:0,0:0:0:0:
266,349,40006,2,0,P|269:306|278:273,1,75.9999979705811,8|0,0:0|0:0,0:0:0:0:
360,225,40340,6,0,B|442:211|433:272|542:250,1,160,2|8,3:2|0:0,0:0:0:0:
343,115,40840,1,0,0:0:0:0:
461,30,41006,2,0,L|442:130,1,75.9999979705811,2|0,0:1|3:0,0:0:0:0:
247,26,41340,2,0,L|346:10,1,75.9999979705811,8|0,0:0|0:0,0:0:0:0:
178,172,41673,6,0,P|142:136|39:132,1,151.999995941162,2|8,3:2|0:0,0:0:0:0:
201,270,42173,2,0,L|297:255,1,75.9999979705811,2|0,0:1|0:0,0:0:0:0:
372,303,42506,1,0,3:0:0:0:
325,99,42673,1,8,0:0:0:0:
473,202,42840,1,2,0:1:0:0:
360,310,43006,2,0,L|374:219,1,75.9999979705811,2|2,3:2|0:1,0:0:0:0:
270,295,43340,1,8,0:0:0:0:
444,381,43506,1,2,0:1:0:0:
270,295,43673,6,0,P|230:284|193:283,1,75.9999979705811,0|0,3:0|3:0,0:0:0:0:
14,200,44006,1,8,0:0:0:0:
102,371,44173,1,0,0:0:0:0:
205,213,44340,6,0,P|187:110|176:46,1,151.645329274496,6|8,3:2|0:0,0:0:0:0:
333,187,44840,1,0,0:0:0:0:
338,193,44923,1,0,0:0:0:0:
343,198,45006,2,0,L|327:295,1,75.9999979705811,2|0,0:1|3:0,0:0:0:0:
395,96,45340,1,8,0:0:0:0:
205,213,45506,1,0,0:0:0:0:
440,349,45673,2,0,B|453:309|453:309|440:265,1,75.9999979705811,2|0,3:2|3:0,0:0:0:0:
174,313,46006,6,0,B|92:300|102:357|-1:347,1,160,8|2,0:0|0:1,0:0:0:0:
205,213,46506,1,0,3:0:0:0:
102,136,46673,5,8,0:0:0:0:
321,251,46840,1,0,0:0:0:0:
326,245,46923,1,0,0:0:0:0:
331,240,47006,2,0,B|399:225|399:225|427:268|482:261,1,151.999995941162,2|8,3:2|0:0,0:0:0:0:
321,57,47506,5,2,0:1:0:0:
315,51,47590,1,2,0:1:0:0:
307,48,47673,2,0,P|270:45|234:145,1,151.999995941162,2|8,0:1|0:0,0:0:0:0:
127,221,48173,5,2,0:1:0:0:
120,217,48256,1,2,0:1:0:0:
113,212,48340,2,0,P|120:168|130:115,1,75.9999979705811,2|0,3:2|0:0,0:0:0:0:
0,237,48673,1,8,0:0:0:0:
100,379,48840,1,2,0:1:0:0:
10,222,49006,1,0,3:0:0:0:
204,293,49173,2,0,L|300:277,1,75.9999979705811,0|8,3:0|0:0,0:0:0:0:
512,149,49506,1,0,0:0:0:0:
435,63,49673,6,0,P|417:166|406:234,1,151.999995941162,6|8,3:2|0:0,0:0:0:0:
493,293,50173,1,0,0:0:0:0:
291,179,50340,1,2,0:1:0:0:
338,384,50506,2,0,P|346:335|354:299,1,75.9999979705811,0|8,3:0|0:0,0:0:0:0:
203,238,50840,5,0,0:0:0:0:
198,234,50923,1,0,0:0:0:0:
193,231,51006,2,0,B|112:216|120:280|13:269,1,167.999994873047,2|0,3:2|0:0,0:0:0:0:
256,108,51673,2,0,P|302:105|324:208,1,151.999995941162,2|8,0:1|0:0,0:0:0:0:
337,190,52340,6,0,L|420:179,1,75.9999979705811,2|2,3:2|0:1,0:0:0:0:
289,295,52673,1,8,0:0:0:0:
365,384,52840,2,0,P|371:338|384:294,1,75.9999979705811,2|2,0:1|0:1,0:0:0:0:
181,156,53173,2,0,L|196:243,1,75.9999979705811,0|8,3:0|0:0,0:0:0:0:
308,185,53506,1,2,0:1:0:0:
137,327,53673,6,0,B|89:300|49:301|49:301|25:333|-23:331,1,151.645329274496,2|8,3:2|0:0,0:0:0:0:
192,231,54173,1,2,0:1:0:0:
283,295,54340,2,0,L|381:280,1,75.9999979705811,0|0,3:0|3:0,0:0:0:0:
454,338,54673,1,8,0:0:0:0:
355,180,54840,1,0,0:0:0:0:
349,174,54923,1,0,0:0:0:0:
343,168,55006,6,0,L|372:-6,1,151.999995941162,6|8,3:2|0:0,0:0:0:0:
456,165,55506,1,0,0:0:0:0:
250,81,55673,2,0,L|174:92,1,75.9999979705811,2|0,0:1|3:0,0:0:0:0:
9,14,56006,1,8,0:0:0:0:
89,247,56173,1,0,0:0:0:0:
10,182,56340,5,2,3:2:0:0:
95,147,56506,1,0,3:0:0:0:
179,186,56673,1,8,0:0:0:0:
205,271,56840,1,0,0:0:0:0:
115,333,57006,5,2,0:1:0:0:
179,186,57173,1,0,3:0:0:0:
320,238,57340,1,8,0:0:0:0:
279,373,57506,1,2,0:1:0:0:
213,281,57673,5,2,3:2:0:0:
388,342,57840,2,0,L|440:333,1,39.6266666666668,2|0,0:1|0:0,0:0:0:0:
501,366,58006,1,0,0:0:0:0:
501,366,58340,5,8,0:0:0:0:
440,259,58506,2,0,L|459:139,1,111.999996582031,0|0,0:0|3:0,0:0:0:0:
400,89,59006,1,0,0:0:0:0:
512,43,59173,6,0,L|460:34,1,39.6266666666668,2|0,0:0|0:0,0:0:0:0:
400,89,59340,1,0,3:0:0:0:
400,89,59673,5,8,0:0:0:0:
512,50,59840,1,8,0:0:0:0:
33,179,60173,5,0,0:0:0:0:
0,276,60340,2,0,B|89:252|89:252|116:288|162:287,1,159.626666666667,6|8,3:2|0:0,0:0:0:0:
249,211,60840,2,0,L|218:34,1,159.626666666667,2|0,0:0|0:0,0:0:0:0:
150,191,61340,1,8,0:0:0:0:
317,283,61506,1,0,0:0:0:0:
218,384,61672,6,0,P|212:337|204:291,1,80.8533333333335,2|0,3:0|0:0,0:0:0:0:
389,132,62006,2,0,P|392:178|401:226,1,80,8|0,0:0|0:0,0:0:0:0:
280,87,62340,1,0,3:0:0:0:
367,18,62506,2,0,L|458:27,1,80,0|8,0:0|0:0,0:0:0:0:
195,229,62840,1,0,3:0:0:0:
120,159,63006,6,0,L|149:-13,1,160,2|8,3:0|0:0,0:0:0:0:
2,252,63506,2,0,P|55:241|91:338,1,160,2|0,0:0|0:0,0:0:0:0:
180,379,64006,1,8,0:0:0:0:
288,303,64173,5,0,3:0:0:0:
292,298,64256,1,0,3:0:0:0:
296,294,64340,2,0,P|288:248|279:196,1,80,2|0,3:0|0:0,0:0:0:0:
438,87,64673,2,0,P|431:126|424:167,1,80,8|0,0:0|0:0,0:0:0:0:
507,4,65006,1,0,3:0:0:0:
302,116,65173,1,0,0:0:0:0:
492,256,65340,1,8,0:0:0:0:
348,0,65506,1,0,3:0:0:0:
187,123,65673,6,0,B|136:90|88:94|88:94|62:126|31:124,1,160,2|8,3:0|0:0,0:0:0:0:
224,234,66173,2,0,L|325:218,1,80,2|0,0:0|3:0,0:0:0:0:
475,322,66506,2,0,P|428:305|392:306,1,80,0|8,0:0|0:0,0:0:0:0:
280,363,66840,1,0,3:0:0:0:
432,186,67006,6,0,L|402:16,1,160,2|8,3:0|0:0,0:0:0:0:
255,239,67506,2,0,P|300:245|348:257,1,80,2|0,0:0|3:0,0:0:0:0:
234,17,67840,2,0,P|273:11|314:2,1,80,0|8,0:0|0:0,0:0:0:0:
173,128,68173,1,0,3:0:0:0:
84,92,68340,6,0,P|44:86|4:183,1,160,2|8,3:0|0:0,0:0:0:0:
105,279,68840,2,0,L|119:181,1,80,2|0,0:0|3:0,0:0:0:0:
210,263,69173,1,0,0:0:0:0:
79,361,69340,2,0,L|-22:346,1,80,8|2,0:0|0:0,0:0:0:0:
301,309,69673,5,10,3:0:0:0:
338,296,69756,1,2,0:0:0:0:
376,307,69840,1,0,3:0:0:0:
402,337,69923,1,2,0:0:0:0:
408,376,70006,1,2,0:0:0:0:
343,200,70173,6,0,P|350:156|362:113,1,71.9999978027344,2|2,0:0|3:2,0:0:0:0:
106,305,70506,2,0,P|99:261|86:216,1,71.9999978027344,2|2,3:2|3:2,0:0:0:0:
270,59,70840,1,2,3:2:0:0:
177,0,71006,6,0,L|200:168,1,160,6|8,3:2|0:0,0:0:0:0:
330,257,71506,2,0,B|419:233|419:233|446:269|491:269,1,160,2|0,0:0|0:0,0:0:0:0:
497,178,72006,1,8,0:0:0:0:
399,359,72173,1,0,3:0:0:0:
242,277,72340,6,0,L|148:295,1,80,2|0,3:0|0:0,0:0:0:0:
0,241,72673,2,0,P|12:288|16:322,1,80,8|2,0:0|0:0,0:0:0:0:
125,165,73006,1,0,3:0:0:0:
45,7,73173,2,0,P|31:54|34:93,1,80,0|8,0:0|0:0,0:0:0:0:
243,214,73506,1,0,3:0:0:0:
331,155,73673,6,0,P|379:142|436:244,1,160,2|8,3:0|0:0,0:0:0:0:
152,288,74173,2,0,B|69:273|79:336|-21:323,1,160,2|0,0:0|0:0,0:0:0:0:
169,139,74673,1,8,0:0:0:0:
301,289,74840,1,0,3:0:0:0:
220,367,75006,5,2,3:0:0:0:
398,212,75173,1,0,0:0:0:0:
500,307,75340,5,8,0:0:0:0:
295,163,75506,1,2,0:0:0:0:
421,99,75673,6,0,P|463:105|511:112,1,80,0|0,3:0|0:0,0:0:0:0:
219,233,76006,2,0,P|177:227|123:221,1,80,8|0,0:0|3:0,0:0:0:0:
17,150,76340,6,0,P|67:107|158:105,1,159.626666666667,2|8,3:0|0:0,0:0:0:0:
193,319,76840,2,0,P|141:363|52:364,1,160,2|0,0:0|0:0,0:0:0:0:
292,215,77340,2,0,L|397:229,1,80,8|0,0:0|3:0,0:0:0:0:
487,122,77673,6,0,P|509:161|513:199,1,80,2|0,3:0|0:0,0:0:0:0:
350,95,78006,1,8,0:0:0:0:
409,359,78173,2,0,P|416:310|424:273,1,80,2|0,0:0|3:0,0:0:0:0:
227,36,78506,2,0,P|221:85|214:120,1,80,0|8,0:0|0:0,0:0:0:0:
67,333,78840,1,0,3:0:0:0:
2,263,79006,6,0,B|91:239|91:239|118:275|162:274,1,160,10|0,3:0|3:0,0:0:0:0:
292,171,79506,2,0,L|274:299,1,120,8|0,3:0|0:0,0:0:0:0:
350,384,79840,2,0,B|363:339|363:339|354:294,1,80,2|0,0:1|3:0,0:0:0:0:
171,179,80173,1,8,0:0:0:0:
28,281,80340,6,0,L|114:267,1,80,6|0,3:0|3:0,0:0:0:0:
201,334,80590,1,8,0:0:0:0:
183,349,80673,2,0,B|144:366|144:366|96:360,1,80,8|8,0:0|0:0,0:0:0:0:
326,249,81006,2,0,L|422:263,1,80,8|0,0:0|3:0,0:0:0:0:
512,64,81340,1,8,0:0:0:0:
474,52,81423,1,8,0:0:0:0:
436,62,81506,1,8,0:0:0:0:
410,92,81590,1,8,0:0:0:0:
405,131,81673,5,2,2:1:0:0:
256,192,81756,12,0,84173,0:0:0:0:
256,192,84340,12,2,87006,0:1:0:0:
