osu file format v14

[General]
AudioFilename: Namae no nai Kaibutsu - EGOIST.mp3
AudioLeadIn: 1500
PreviewTime: 60090
Countdown: 0
SampleSet: Soft
StackLeniency: 0.4
Mode: 0
LetterboxInBreaks: 0
WidescreenStoryboard: 1

[Editor]
DistanceSpacing: 1
BeatDivisor: 4
GridSize: 32
TimelineZoom: 1.7

[Metadata]
Title:Namae no Nai Kaibutsu (TV Size)
TitleUnicode:名前のない怪物 (TV Size)
Artist:EGOIST
ArtistUnicode:EGOIST
Creator:Nevo
Version:Desire
Source:PSYCHO-PASS
Tags:japanese lasse frostwich synderes ggf gotogofast stack lince irohas yukiyo Gottagof4st chekito
BeatmapID:2157090
BeatmapSetID:1031560

[Difficulty]
HPDrainRate:6
CircleSize:4
OverallDifficulty:9
ApproachRate:9
SliderMultiplier:1.7
SliderTickRate:1

[Events]
//Background and Video events
0,0,"BG.jpg",0,0
Video,0,"nevo cute.avi"
//Break Periods
//Storyboard Layer 0 (Background)
//Storyboard Layer 1 (Fail)
//Storyboard Layer 2 (Pass)
//Storyboard Layer 3 (Foreground)
//Storyboard Layer 4 (Overlay)
//Storyboard Sound Samples

[TimingPoints]
1674,333.333333333333,4,2,1,70,1,0
1674,-100,4,2,1,70,0,0
3340,-100,4,2,1,70,0,0
3507,-100,4,2,1,70,0,0
3673,-100,4,2,1,70,0,0
3840,-100,4,2,1,70,0,0
4173,-100,4,2,1,70,0,0
4340,-100,4,2,1,70,0,0
6173,-100,4,2,1,70,0,0
6507,-100,4,2,1,70,0,0
6840,-100,4,2,1,70,0,0
7007,-100,4,2,1,70,0,0
7507,-100,4,2,1,70,0,0
8007,-100,4,2,1,70,0,0
9673,-100,4,2,1,70,0,0
11007,-100,4,2,1,70,0,0
12340,-100,4,2,1,40,0,0
14840,-133.333333333333,4,2,1,40,0,0
17007,-100,4,2,1,40,0,0
17173,-133.333333333333,4,2,1,40,0,0
17507,-133.333333333333,4,2,1,40,0,0
18340,-133.333333333333,4,2,1,40,0,0
18673,-133.333333333333,4,2,1,40,0,0
18840,-181.818181818181,4,2,1,40,0,0
19007,-181.818181818181,4,2,1,40,0,0
19173,-181.818181818181,4,2,1,40,0,0
20007,-133.333333333333,4,2,1,40,0,0
22173,-133.333333333333,4,2,1,40,0,0
22340,-133.333333333333,4,2,1,40,0,0
22673,-133.333333333333,4,2,1,40,0,0
23007,-133.333333333333,4,2,1,40,0,0
23658,375,4,2,1,40,1,0
23658,-125,4,2,1,40,0,0
24009,394.736842105263,4,2,1,40,1,0
24009,-133.333333333333,4,2,1,40,0,0
24173,-133.333333333333,4,2,1,40,0,0
24207,329.67032967033,4,2,1,40,1,0
24207,-133.333333333333,4,2,1,40,0,0
24227,-133.333333333333,4,2,1,40,0,0
24344,-133.333333333333,4,2,1,40,0,0
24426,-133.333333333333,4,2,1,40,0,0
24674,-133.333333333333,4,2,1,40,0,0
25196,333.333333333333,4,2,1,40,1,0
25196,-100,4,2,1,40,0,0
25362,333.333333333333,4,2,1,40,1,0
27008,333.333333333333,4,2,1,40,1,0
27008,-100,4,2,1,40,0,0
27508,-133.333333333333,4,2,1,40,0,0
27674,-133.333333333333,4,2,1,40,0,0
28174,-133.333333333333,4,2,1,40,0,0
28424,-133.333333333333,4,2,1,40,0,0
28507,-133.333333333333,4,2,1,40,0,0
28841,-133.333333333333,4,2,1,40,0,0
29341,-133.333333333333,4,2,1,40,0,0
29507,333.333333333333,4,2,1,40,1,0
29507,-133.333333333333,4,2,1,40,0,0
29673,333.333333333333,4,2,1,40,1,0
30340,-133.333333333333,4,2,1,40,0,0
31340,-133.333333333333,4,2,1,40,0,0
32340,-133.333333333333,4,2,1,40,0,0
32673,-133.333333333333,4,2,1,40,0,0
33007,-133.333333333333,4,2,1,40,0,0
33673,-133.333333333333,4,2,1,60,0,0
34340,-133.333333333333,4,2,1,60,0,0
34506,-133.333333333333,4,2,1,60,0,0
34673,-133.333333333333,4,2,1,60,0,0
34840,-133.333333333333,4,2,1,60,0,0
35006,-133.333333333333,4,2,1,60,0,0
35173,-133.333333333333,4,2,1,60,0,0
36340,-133.333333333333,4,2,1,60,0,0
36507,-133.333333333333,4,2,1,60,0,0
36673,-133.333333333333,4,2,1,60,0,0
37340,-133.333333333333,4,2,1,60,0,0
37673,-133.333333333333,4,2,1,65,0,0
38006,-133.333333333333,4,2,1,65,0,0
38340,-133.333333333333,4,2,1,65,0,0
38673,-133.333333333333,4,2,1,65,0,0
39006,-100,4,2,1,70,0,0
39173,-133.333333333333,4,2,1,70,0,0
39340,-100,4,2,1,70,0,0
39673,-100,4,2,1,70,0,0
39840,-100,4,2,1,70,0,0
40840,-100,4,2,1,70,0,0
41006,-100,4,2,1,70,0,0
43173,-100,4,2,1,70,0,0
43340,-100,4,2,1,70,0,0
44173,-100,4,2,1,70,0,0
44340,-100,4,2,1,70,0,0
45840,-100,4,2,1,70,0,0
46006,-100,4,2,1,70,0,0
47173,-100,4,2,1,70,0,0
47340,-100,4,2,1,70,0,0
49506,-100,4,2,1,70,0,0
49673,-100,4,2,1,70,0,0
52173,-100,4,2,1,70,0,0
52340,-100,4,2,1,70,0,0
55006,-100,4,2,1,75,0,0
55173,-100,4,2,1,75,0,0
55340,-100,4,2,1,75,0,0
56173,-100,4,2,1,75,0,0
57006,-100,4,2,1,75,0,0
57673,-100,4,2,1,75,0,0
58173,-100,4,2,1,75,0,0
58673,-100,4,2,1,75,0,0
59173,-100,4,2,1,75,0,0
59673,-100,4,2,1,75,0,0
60173,-100,4,2,1,75,0,0
60256,-100,4,2,1,75,0,0
60339,-100,4,2,1,90,0,1
60506,-100,4,2,1,90,0,1
60673,-83.3333333333333,4,2,1,90,0,1
61006,-83.3333333333333,4,2,1,90,0,1
61340,-83.3333333333333,4,2,1,90,0,1
61590,-83.3333333333333,4,2,1,90,0,1
61673,-83.3333333333333,4,2,1,90,0,1
63173,-83.3333333333333,4,2,1,90,0,1
63340,-83.3333333333333,4,2,1,90,0,1
63840,-83.3333333333333,4,2,1,90,0,1
64006,-83.3333333333333,4,2,1,90,0,1
65840,-83.3333333333333,4,2,1,90,0,1
66006,-83.3333333333333,4,2,1,90,0,1
67006,-83.3333333333333,4,2,1,90,0,1
67173,-83.3333333333333,4,2,1,90,0,1
69673,-83.3333333333333,4,2,1,90,0,1
69756,-83.3333333333333,4,2,1,90,0,1
69840,-83.3333333333333,4,2,1,90,0,1
69923,-83.3333333333333,4,2,1,90,0,1
70006,-83.3333333333333,4,2,1,90,0,1
70090,-83.3333333333333,4,2,1,90,0,1
70173,-83.3333333333333,4,2,1,90,0,1
70256,-83.3333333333333,4,2,1,90,0,1
70340,-83.3333333333333,4,2,1,90,0,1
70423,-83.3333333333333,4,2,1,90,0,1
70506,-83.3333333333333,4,2,1,90,0,1
70590,-83.3333333333333,4,2,1,90,0,1
70673,-83.3333333333333,4,2,1,90,0,1
70756,-83.3333333333333,4,2,1,90,0,1
70840,-83.3333333333333,4,2,1,90,0,1
70923,-83.3333333333333,4,2,1,90,0,1
71006,-83.3333333333333,4,2,1,90,0,1
71673,-83.3333333333333,4,2,1,90,0,1
72006,-83.3333333333333,4,2,1,90,0,1
73840,-83.3333333333333,4,2,1,90,0,1
74006,-83.3333333333333,4,2,1,90,0,1
74506,-83.3333333333333,4,2,1,90,0,1
74673,-83.3333333333333,4,2,1,90,0,1
76506,-83.3333333333333,4,2,1,90,0,1
76673,-83.3333333333333,4,2,1,90,0,1
80506,-83.3333333333333,4,2,1,90,0,1
80590,-83.3333333333333,4,2,1,90,0,1
80923,-83.3333333333333,4,2,1,90,0,1
81173,-83.3333333333333,4,2,1,90,0,1
81340,-83.3333333333333,4,2,1,90,0,1
81423,-83.3333333333333,4,2,1,90,0,1
81506,-83.3333333333333,4,2,1,90,0,1
81590,-83.3333333333333,4,2,1,90,0,1
81673,-83.3333333333333,4,2,1,60,0,1
81756,-83.3333333333333,4,2,1,60,0,0
81840,-83.3333333333333,4,2,1,60,0,0
84340,-83.3333333333333,4,2,1,60,0,0
87006,-83.3333333333333,4,2,1,5,0,0

[Colours]
Combo1 : 240,80,80
Combo2 : 171,252,203
Combo3 : 128,128,255
Combo4 : 249,254,186

[HitObjects]
148,303,1674,5,6,3:2:0:0:
378,252,1840,1,0,0:0:0:0:
389,270,2340,5,2,0:1:0:0:
125,192,2507,1,0,0:0:0:0:
113,210,3007,5,2,0:0:0:0:
349,145,3173,1,0,0:0:0:0:
170,89,3340,1,2,0:1:0:0:
224,281,3507,2,0,L|240:172,1,85,0|2,0:0|0:1,0:0:0:0:
475,301,3840,2,0,P|417:254|302:278,1,170
127,365,4340,5,2,0:0:0:0:
58,141,4507,1,0,0:0:0:0:
41,135,5007,5,2,0:1:0:0:
223,278,5173,1,0,0:0:0:0:
212,298,5673,5,2,3:1:0:0:
291,88,5840,1,0,0:0:0:0:
381,244,6007,1,2,0:1:0:0:
189,185,6173,2,0,L|298:172,1,85,0|2,0:0|0:1,0:0:0:0:
35,63,6507,2,0,L|234:86,1,170
446,160,7007,5,6,3:2:0:0:
75,306,7507,1,6,3:2:0:0:
447,360,8007,1,6,3:2:0:0:
256,192,8090,12,2,9673,0:0:0:0:
256,192,9757,12,2,11007,0:0:0:0:
256,192,11090,12,6,12340,0:0:0:0:
118,288,14840,6,0,L|127:333,2,31.8750012159348,2|2|2,0:0|0:0|0:0,0:0:0:0:
392,361,16840,2,0,P|375:318|410:253,1,95.6250036478048
444,217,17173,2,0,L|291:228,1,127.500004863739
246,184,17673,5,2,0:0:0:0:
292,56,18173,2,0,L|317:126,1,63.7500024318696
398,75,18507,2,0,L|391:155,1,63.7500024318696
438,239,18840,2,0,B|376:213|318:259|318:259|302:244|302:244|238:275|171:258,1,280.500008560181,2|0,0:0|0:0,0:0:0:0:
93,189,20007,2,0,L|83:267,1,63.7500024318696,0|0,0:0|0:0,0:0:0:0:
120,322,20340,5,2,0:0:0:0:
224,86,22173,2,0,P|255:83|306:95,1,63.7500024318696,0|0,0:0|0:0,0:0:0:0:
207,178,22507,2,0,P|175:183|144:177,1,63.7500024318696,0|0,0:0|0:0,0:0:0:0:
42,117,22840,1,0,0:0:0:0:
107,273,23007,6,0,P|125:172|128:68,1,191.250007295609,2|0,0:0|0:0,0:0:0:0:
215,57,23658,6,0,P|279:82|336:52,1,127.500004863739,0|0,0:0|0:0,0:0:0:0:
438,20,24207,2,0,B|422:94|454:144|454:144|382:127|331:154|331:154|405:189|396:281,1,382.500014591218,2|0,0:0|0:0,0:0:0:0:
318,350,25362,2,0,P|278:359|234:351,1,85.566666666667,0|0,0:0|0:0,0:0:0:0:
182,249,25695,5,2,0:0:0:0:
270,192,27508,6,0,L|283:280,1,64.0475024318697
377,244,27841,2,0,L|364:332,1,64.0475024318697,0|0,0:0|0:0,0:0:0:0:
295,375,28174,2,0,P|219:382|159:343,1,128.350004863739,2|0,0:0|0:0,0:0:0:0:
175,359,28841,2,0,P|178:326|166:286,1,64.0475024318697,0|0,0:0|0:0,0:0:0:0:
78,202,29174,2,0,P|74:172|87:129,1,64.0475024318697,0|0,0:0|0:0,0:0:0:0:
165,45,29507,6,0,B|237:-8|325:37|325:37|415:77|492:37,1,318.750012159348,2|0,0:0|0:0,0:0:0:0:
476,43,31006,6,0,L|486:113,1,63.7500024318696,2|0,0:0|0:0,0:0:0:0:
416,172,31340,2,0,L|414:235,1,63.8775024318694,0|0,0:0|0:0,0:0:0:0:
390,325,31673,1,0,0:0:0:0:
313,274,31840,1,0,0:0:0:0:
236,320,32007,1,0,0:0:0:0:
220,333,32340,6,0,P|201:279|202:194,1,127.755004863739,2|0,0:0|0:0,0:0:0:0:
249,131,32840,1,0,0:0:0:0:
161,89,33007,1,0,0:0:0:0:
279,47,33173,2,0,L|293:204,1,127.627504863739,0|0,0:0|0:0,0:0:0:0:
456,242,33673,6,0,P|397:223|329:251,1,127.627504863739,2|0,3:0|3:0,0:0:0:0:
242,315,34173,2,0,L|247:248,1,63.8775024318694,0|0,3:0|0:0,0:0:0:0:
163,263,34506,2,0,L|168:185,1,63.7500024318696,0|0,3:0|0:0,0:0:0:0:
63,83,34840,6,0,L|82:218,1,127.755004863739,8|0,0:0|3:0,0:0:0:0:
223,137,35340,2,0,P|173:115|153:115,1,63.8775024318694,8|0,0:0|3:0,0:0:0:0:
236,257,35673,2,0,L|377:241,1,127.627504863739,0|8,3:0|0:0,0:0:0:0:
489,171,36173,1,0,0:0:0:0:
494,359,36340,6,0,L|410:351,1,63.8775024318694,0|0,3:0|3:0,0:0:0:0:
280,337,36673,2,0,L|174:350,2,95.6250036478042,8|8|0,0:0|0:0|3:0,0:0:0:0:
336,260,37340,1,0,3:0:0:0:
433,338,37506,6,0,L|424:245,1,64.2600024318694,8|0,0:0|3:0,0:0:0:0:
426,274,37756,1,0,0:0:0:0:
426,274,37840,1,0,3:0:0:0:
304,180,38006,2,0,L|310:117,1,64.2600024318694,8|2,0:0|0:0,0:0:0:0:
329,3,38340,1,0,3:0:0:0:
169,68,38506,1,0,3:0:0:0:
380,71,38673,1,8,0:0:0:0:
372,85,39006,6,0,L|281:75,1,85,6|0,3:2|0:0,0:0:0:0:
139,212,39340,2,0,L|242:203,1,85.1699999999998,8|0,0:0|0:0,0:0:0:0:
61,139,39673,1,2,0:1:0:0:
98,305,39840,1,0,3:0:0:0:
50,106,40006,1,8,0:0:0:0:
39,92,40340,6,0,P|92:65|191:111,1,170.34,2|8,3:2|0:0,0:0:0:0:
272,235,40840,1,0,0:0:0:0:
305,70,41006,1,2,0:1:0:0:
108,162,41173,1,0,3:0:0:0:
382,130,41340,1,8,0:0:0:0:
393,145,41673,6,0,L|381:325,1,170.17,2|8,3:2|0:0,0:0:0:0:
138,283,42173,2,0,P|187:223|281:244,1,170.17,2|0,0:1|3:0,0:0:0:0:
370,354,42673,1,8,0:0:0:0:
225,308,42840,1,2,0:1:0:0:
417,187,43006,6,0,L|410:291,1,85.6799999999998,2|2,3:2|0:1,0:0:0:0:
265,150,43340,2,0,L|272:254,1,85.1699999999998,8|2,0:0|0:1,0:0:0:0:
505,134,43673,1,0,3:0:0:0:
355,108,43840,1,0,3:0:0:0:
499,49,44006,2,0,L|506:153,1,85.6799999999998,8|0,0:0|0:0,0:0:0:0:
267,74,44340,6,0,P|294:37|412:31,1,170,6|8,3:2|0:0,0:0:0:0:
279,161,44840,2,0,L|174:149,1,85.1699999999998,0|2,0:0|0:1,0:0:0:0:
137,236,45173,1,0,3:0:0:0:
26,104,45340,2,0,L|110:94,1,85.1699999999998,8|0,0:0|0:0,0:0:0:0:
65,305,45673,6,0,P|38:252|43:208,1,85.1699999999998,2|0,3:2|3:0,0:0:0:0:
222,291,46006,2,0,L|212:389,1,85,8|0,0:0|0:0,0:0:0:0:
137,236,46340,1,2,0:1:0:0:
298,223,46506,1,0,3:0:0:0:
90,142,46673,1,8,0:0:0:0:
79,160,47006,6,0,L|65:42,1,85,2|2,3:2|0:1,0:0:0:0:
214,10,47340,2,0,L|200:128,1,85.1699999999998,8|2,0:0|0:1,0:0:0:0:
222,126,47590,1,2,0:1:0:0:
221,126,47673,2,0,P|259:108|301:103,1,85.1699999999998,2|0,0:1|3:0,0:0:0:0:
476,226,48006,2,0,P|434:220|395:202,1,85.6799999999998,8|2,0:0|0:1,0:0:0:0:
367,171,48256,1,2,0:1:0:0:
367,171,48340,6,0,L|384:351,1,170,2|8,3:2|0:0,0:0:0:0:
211,306,48840,1,2,0:1:0:0:
285,243,49006,1,0,3:0:0:0:
112,299,49173,1,0,3:0:0:0:
298,351,49340,2,0,L|401:337,1,85.1699999999998,8|0,0:0|0:0,0:0:0:0:
512,233,49673,6,0,P|453:262|364:185,1,170.17,6|8,3:2|0:0,0:0:0:0:
252,67,50173,1,0,0:0:0:0:
450,173,50340,1,2,0:1:0:0:
285,243,50506,2,0,L|270:159,1,85,0|8,3:0|0:0,0:0:0:0:
371,95,50840,1,0,0:0:0:0:
191,215,51006,6,0,B|150:237|97:213|97:213|52:192|0:224,1,170,2|8,3:2|0:0,0:0:0:0:
93,313,51506,1,0,0:0:0:0:
148,126,51673,2,0,P|142:71|112:28,1,85.1699999999998,2|0,0:1|3:0,0:0:0:0:
26,194,52006,2,0,P|70:188|124:203,1,85.6799999999998,8|2,0:0|0:1,0:0:0:0:
270,275,52340,6,0,P|314:281|368:266,1,85.1699999999998,2|2,3:2|0:1,0:0:0:0:
395,146,52673,1,8,0:0:0:0:
307,195,52840,1,2,0:1:0:0:
433,320,53006,2,0,L|438:228,1,85,2|0,0:1|3:0,0:0:0:0:
512,116,53340,2,0,L|507:24,1,85.1699999999998,8|2,0:0|0:1,0:0:0:0:
267,96,53673,6,0,P|330:59|423:94,1,170.17,2|8,3:2|0:0,0:0:0:0:
224,197,54173,1,2,0:1:0:0:
164,72,54340,1,0,3:0:0:0:
342,161,54506,1,0,3:0:0:0:
315,299,54673,1,8,0:0:0:0:
306,315,55006,6,0,L|405:302,1,85,6|0,3:2|0:0,0:0:0:0:
224,197,55340,2,0,L|125:184,1,85.1699999999998,8|0,0:0|0:0,0:0:0:0:
50,253,55673,1,2,0:1:0:0:
187,109,55840,1,0,3:0:0:0:
36,10,56006,2,0,P|36:58|46:115,1,85.6799999999998,8|0,0:0|0:0,0:0:0:0:
242,30,56340,6,0,L|124:14,1,85.1699999999998,2|0,3:2|3:0,0:0:0:0:
306,172,56673,2,0,L|424:156,1,85.1699999999998,8|0,0:0|0:0,0:0:0:0:
494,76,57006,1,2,0:1:0:0:
482,251,57173,1,0,3:0:0:0:
402,71,57340,1,8,0:0:0:0:
491,163,57506,1,2,0:1:0:0:
304,311,57673,5,2,3:2:0:0:
323,135,57840,1,2,0:1:0:0:
310,118,58173,5,0,0:0:0:0:
392,348,58340,1,8,0:0:0:0:
385,363,58673,5,0,3:0:0:0:
430,85,58840,1,0,3:0:0:0:
440,70,59173,5,2,0:0:0:0:
297,293,59340,1,0,3:0:0:0:
289,312,59673,5,8,0:0:0:0:
226,59,59840,1,8,0:0:0:0:
215,77,60173,2,0,L|206:143,1,42.67
147,179,60340,6,0,P|207:160|271:161,1,85.3399968872068,6|0,3:2|0:0,0:0:0:0:
433,222,60673,1,8,0:0:0:0:
309,361,60840,2,0,B|284:368|254:382|254:382|249:303|311:247,1,204.203993774414,2|0,0:0|0:0,0:0:0:0:
512,144,61340,2,0,B|520:101|520:101|394:135,1,152.999995330811,8|0,0:0|0:0,0:0:0:0:
329,173,61673,5,2,3:0:0:0:
503,243,61840,1,0,0:0:0:0:
387,332,62006,1,8,0:0:0:0:
244,198,62173,1,0,0:0:0:0:
145,288,62340,1,0,3:0:0:0:
265,384,62506,2,0,P|249:237|249:237,1,101.999996887207,0|8,0:0|0:0,0:0:0:0:
191,122,62840,1,0,3:0:0:0:
390,236,63006,6,0,P|458:201|467:141,1,101.999996887207,2|0,3:0|0:0,0:0:0:0:
290,56,63340,1,8,0:0:0:0:
373,262,63506,2,0,P|459:228|489:119,1,205.019993774414,2|0,0:0|0:0,0:0:0:0:
112,86,64006,2,0,B|44:101|44:101|10:137,1,101.999996887207,8|0,0:0|3:0,0:0:0:0:
30,159,64256,1,0,3:0:0:0:
39,183,64340,5,2,3:0:0:0:
189,130,64506,1,0,0:0:0:0:
313,259,64673,1,8,0:0:0:0:
482,187,64840,1,0,0:0:0:0:
332,134,65006,1,0,3:0:0:0:
208,263,65173,1,0,0:0:0:0:
39,191,65340,1,8,0:0:0:0:
256,192,65506,1,0,3:0:0:0:
111,369,65673,6,0,L|107:261,1,102.203996887207,2|0,3:0|0:0,0:0:0:0:
107,113,66006,1,8,0:0:0:0:
215,283,66173,2,0,P|265:285|314:272,1,102.203996887207,0|2,3:0|0:0,0:0:0:0:
417,181,66506,1,0,0:0:0:0:
439,372,66673,2,0,P|388:374|339:361,1,102.203996887207,8|0,0:0|3:0,0:0:0:0:
92,213,67006,6,0,L|109:96,1,102.815996887207,2|0,3:0|0:0,0:0:0:0:
280,59,67340,1,8,0:0:0:0:
222,278,67506,2,0,L|205:161,1,102.815996887207,2|0,0:0|3:0,0:0:0:0:
179,23,67840,1,0,0:0:0:0:
349,205,68006,1,8,0:0:0:0:
103,198,68173,1,0,3:0:0:0:
294,119,68340,6,0,P|353:103|409:120,1,102.203996887207,2|0,3:0|0:0,0:0:0:0:
509,230,68673,1,8,0:0:0:0:
459,14,68840,2,0,P|400:-2|344:15,1,102.203996887207,2|0,0:0|3:0,0:0:0:0:
199,145,69173,1,0,0:0:0:0:
379,85,69340,1,8,0:0:0:0:
156,34,69506,1,2,0:0:0:0:
206,251,69673,5,10,3:0:0:0:
229,261,69756,1,2,0:0:0:0:
254,265,69840,1,0,3:0:0:0:
279,263,69923,1,2,0:0:0:0:
303,254,70006,1,2,0:0:0:0:
326,243,70090,1,2,0:0:0:0:
351,239,70173,1,2,0:0:0:0:
376,241,70256,1,2,0:0:0:0:
406,259,70340,5,2,3:2:0:0:
371,221,70423,1,2,3:2:0:0:
325,200,70506,1,2,3:2:0:0:
274,198,70590,1,2,3:2:0:0:
226,215,70673,1,2,3:2:0:0:
192,253,70756,1,2,3:2:0:0:
146,274,70840,1,2,3:2:0:0:
95,276,70923,1,2,3:2:0:0:
47,258,71006,6,0,B|27:150|27:150|43:80,1,154.223995330811,6|0,3:2|0:0,0:0:0:0:
79,30,71340,2,0,L|57:129,1,102.203996887207,8|2,0:0|0:0,0:0:0:0:
298,124,71673,2,0,P|240:90|153:108,1,153.611995330811,0|0,3:0|0:0,0:0:0:0:
128,185,72006,2,0,L|150:284,1,102.815996887207,8|0,0:0|3:0,0:0:0:0:
292,368,72340,5,2,3:0:0:0:
24,372,72506,1,0,0:0:0:0:
272,219,72673,1,8,0:0:0:0:
4,275,72840,1,2,0:0:0:0:
177,384,73006,1,0,3:0:0:0:
195,108,73173,2,0,L|187:209,1,102.203996887207,0|8,0:0|0:0,0:0:0:0:
345,125,73506,1,0,3:0:0:0:
443,358,73673,6,0,L|430:230,1,102.203996887207,2|0,3:0|0:0,0:0:0:0:
480,128,74006,1,8,0:0:0:0:
297,303,74173,2,0,P|229:317|159:186,1,204.203993774414,2|0,0:0|0:0,0:0:0:0:
211,55,74673,1,8,0:0:0:0:
287,201,74840,2,0,L|241:230,1,51.2039984436035,0|0,3:0|3:0,0:0:0:0:
86,303,75006,5,2,3:0:0:0:
152,135,75173,1,0,0:0:0:0:
32,33,75340,1,8,0:0:0:0:
33,215,75506,1,2,0:0:0:0:
187,282,75673,1,0,3:0:0:0:
332,168,75840,1,0,0:0:0:0:
152,135,76006,1,8,0:0:0:0:
271,347,76173,1,0,3:0:0:0:
247,50,76340,6,0,L|258:172,1,102.203996887207,2|0,3:0|0:0,0:0:0:0:
435,310,76673,1,8,0:0:0:0:
467,25,76840,2,0,L|456:147,1,102.203996887207,2|0,0:0|3:0,0:0:0:0:
263,274,77173,1,0,0:0:0:0:
497,213,77340,1,8,0:0:0:0:
240,178,77506,1,0,3:0:0:0:
369,327,77673,6,0,L|380:205,1,102.203996887207,2|0,3:0|0:0,0:0:0:0:
362,84,78006,1,8,0:0:0:0:
177,356,78173,2,0,L|166:234,1,102.203996887207,2|0,0:0|3:0,0:0:0:0:
73,71,78506,1,0,0:0:0:0:
291,166,78673,1,8,0:0:0:0:
40,223,78840,1,0,3:0:0:0:
265,64,79006,6,0,P|346:73|379:102,1,101.999996887207,10|2,3:0|0:1,0:0:0:0:
303,267,79340,1,0,3:0:0:0:
165,25,79506,2,0,P|84:34|51:63,1,101.999996887207,8|0,3:0|3:0,0:0:0:0:
88,247,79840,1,2,0:1:0:0:
206,117,80006,1,0,3:0:0:0:
200,342,80173,1,8,0:0:0:0:
20,163,80340,6,0,L|130:149,1,102.203996887207,6|0,3:0|3:0,0:0:0:0:
206,117,80590,1,8,0:0:0:0:
206,117,80673,2,0,L|316:131,1,102.203996887207,8|8,0:0|0:0,0:0:0:0:
372,192,80923,1,0,0:0:0:0:
372,192,81006,1,8,0:0:0:0:
331,29,81173,1,0,3:0:0:0:
239,211,81340,1,8,0:0:0:0:
241,236,81423,1,8,0:0:0:0:
243,261,81506,1,8,0:0:0:0:
246,287,81590,1,8,0:0:0:0:
248,312,81673,1,2,2:1:0:0:
256,192,81756,12,2,84340,0:1:0:0:
256,192,84423,12,2,87006,0:1:0:0:
