osu file format v14

[General]
AudioFilename: audio.mp3
AudioLeadIn: 0
PreviewTime: 229224
Countdown: 0
SampleSet: Soft
StackLeniency: 0.5
Mode: 0
LetterboxInBreaks: 0
WidescreenStoryboard: 0

[Editor]
DistanceSpacing: 1
BeatDivisor: 8
GridSize: 16
TimelineZoom: 0.8000002

[Metadata]
Title:Kimi Sora Kiseki
TitleUnicode:キミソラキセキ
Artist:EGOIST
ArtistUnicode:EGOIST
Creator:Mitatsh
Version:Blooming
Source:
Tags:chelly The Everlasting Guilty Crown ryo supercell track 2
BeatmapID:1523739
BeatmapSetID:721598

[Difficulty]
HPDrainRate:5
CircleSize:4.5
OverallDifficulty:5
ApproachRate:8
SliderMultiplier:1.9
SliderTickRate:1

[Events]
//Background and Video events
0,0,"share.jpg",0,0
//Break Periods
2,207208,211575
//Storyboard Layer 0 (Background)
//Storyboard Layer 1 (Fail)
//Storyboard Layer 2 (Pass)
//Storyboard Layer 3 (Foreground)
//Storyboard Sound Samples

[TimingPoints]
617,759.493670886076,4,2,0,25,1,0
46186,-200,4,2,0,25,0,0
47515,-100,4,2,0,25,0,0
50363,-200,4,2,0,25,0,0
52262,-100,4,2,0,25,0,0
61376,-100,4,2,0,40,0,1
85680,-100,4,2,0,60,0,0
92895,-200,4,2,0,60,0,0
93654,-100,4,2,0,25,0,0
94034,-100,4,2,0,60,0,0
97072,-100,4,2,0,80,0,0
97832,-100,4,3,0,60,0,0
135427,-200,4,2,0,45,0,0
136186,-100,4,2,0,25,0,0
136566,-100,4,2,0,60,0,0
143401,-100,4,3,0,55,0,0
146439,-100,4,3,0,60,0,1
170743,-100,4,2,0,60,0,0
171882,-200,4,3,0,60,0,0
172642,-100,4,3,0,60,0,0
174920,-200,4,3,0,60,0,0
175680,-100,4,3,0,60,0,0
204541,-200,4,3,0,60,0,0
204920,-100,4,3,0,60,0,0
220490,-200,4,3,0,60,0,0
221249,-100,4,3,0,60,0,0
230743,-200,4,3,0,60,0,0
231123,-100,4,3,0,60,0,0
231503,-100,4,3,0,60,0,1
254287,-100,4,3,0,60,0,0
255806,-100,4,3,0,60,0,1
280395,-200,4,2,0,20,0,0
290838,-190.47619047619,4,2,0,20,0,0

[HitObjects]
176,120,617,6,0,P|208:172|216:216,1,95
412,72,1376,1,0,0:0:0:0:
487,130,1756,2,0,P|412:163|376:260,1,190
323,338,2895,1,2,0:0:0:0:
108,112,3654,5,0,0:0:0:0:
187,60,4034,2,0,P|199:140|283:200,1,190,2|0,0:0|0:0,0:0:0:0:
396,300,5173,1,0,0:0:0:0:
462,231,5553,1,0,0:0:0:0:
390,293,5933,1,2,0:0:0:0:
385,155,6313,1,0,0:0:0:0:
347,68,6692,6,0,P|265:71|196:149,1,190
122,208,7832,2,0,P|193:248|292:218,1,190,2|0,0:0|0:0,0:0:0:0:
260,129,8971,1,2,0:0:0:0:
355,132,9351,1,0,0:0:0:0:
292,277,9730,6,0,B|302:214|336:220|336:220|303:195|303:159|303:159|339:151|347:108,1,190
68,120,11249,2,0,B|92:135|92:135|35:189|46:242|46:242|121:202,1,190
255,183,12768,5,0,0:0:0:0:
183,133,14477,1,0,0:0:0:0:
183,133,14667,2,0,L|130:167,2,47.5,0|0|2,0:0|0:0|0:0,0:0:0:0:
255,193,15806,5,0,0:0:0:0:
412,290,17705,5,0,0:0:0:0:
259,342,18085,1,0,0:0:0:0:
387,117,18844,1,0,0:0:0:0:
104,204,20553,1,0,0:0:0:0:
104,204,20743,2,0,L|150:171,2,47.5,0|0|2,0:0|0:0|0:0,0:0:0:0:
278,76,21882,2,0,P|358:87|419:169,1,190
200,125,23781,5,0,0:0:0:0:
276,98,23971,1,0,0:0:0:0:
271,178,24161,2,0,L|228:215,2,47.5
438,95,24920,6,0,B|392:144|392:144|431:164|474:132|474:132|458:186|507:182,1,190
310,193,26629,1,0,0:0:0:0:
310,193,26819,2,0,L|289:151,2,47.5,0|0|2,0:0|0:0|0:0,0:0:0:0:
358,296,27958,1,0,0:0:0:0:
146,115,29857,5,0,0:0:0:0:
227,79,30237,1,0,0:0:0:0:
285,145,30617,1,0,0:0:0:0:
357,83,30996,2,0,P|432:116|468:213,1,190
146,226,32705,1,0,0:0:0:0:
146,226,32895,2,0,L|91:271,2,47.5,0|0|2,0:0|0:0|0:0,0:0:0:0:
400,75,34034,2,0,P|351:57|300:58,1,95
277,92,34604,1,0,0:0:0:0:
128,140,35933,5,0,0:0:0:0:
97,214,36123,1,0,0:0:0:0:
223,196,36313,2,0,L|176:202,2,47.5
445,210,37072,5,0,0:0:0:0:
330,141,37832,1,0,0:0:0:0:
238,237,38591,1,0,0:0:0:0:
110,197,39351,1,0,0:0:0:0:
365,85,40110,5,0,0:0:0:0:
241,135,40870,1,0,0:0:0:0:
173,249,41629,1,0,0:0:0:0:
210,376,42389,1,0,0:0:0:0:
408,124,42768,5,0,0:0:0:0:
408,124,42958,1,0,0:0:0:0:
408,124,43148,2,0,B|368:88|368:88|284:68|240:160|240:160,1,190
136,200,44477,5,0,0:0:0:0:
189,247,44667,2,0,B|245:255|277:215|277:215,1,95
346,214,45237,1,0,0:0:0:0:
496,266,45806,1,0,0:0:0:0:
496,266,45996,2,0,B|464:218|484:130|484:130|440:98|396:102|396:102|352:146|376:186|376:186,1,285
112,176,47515,2,0,P|112:236|124:244,1,47.5
256,320,48085,2,0,B|253:294|253:294|263:288|263:288|266:276|266:276|279:271|279:271|283:251,1,71.25
287,91,48844,6,0,L|256:157,1,47.5
190,200,49224,2,0,P|158:144|158:96,1,95
286,200,49794,2,0,P|225:177|194:140,1,95
350,136,50363,2,0,P|287:153|241:141,1,95,0|0,3:0|0:0,0:0:0:0:
286,200,52262,2,0,B|227:195|190:236,1,95
272,322,53022,1,0,0:0:0:0:
218,139,54161,5,0,0:0:0:0:
271,199,54351,1,0,0:0:0:0:
194,224,54541,2,0,L|147:234,2,47.5
412,96,55300,2,0,B|384:144|408:204|408:204|348:224|344:272|344:272|324:272,1,190
217,130,57009,1,0,0:0:0:0:
217,130,57199,2,0,L|175:154,2,47.5
256,192,57673,12,0,58338,0:0:0:0:
283,82,60237,5,0,0:0:0:0:
381,184,60617,2,0,P|337:160|265:164,1,95
152,266,61376,2,0,P|231:284|318:228,1,190,0|0,0:3|0:3,0:3:0:0:
147,52,62895,2,0,P|214:97|232:199,1,190,0|0,0:3|0:3,0:3:0:0:
233,200,64414,2,0,L|164:203,1,47.5
114,208,64794,1,0,0:0:0:0:
114,208,65363,1,0,0:0:0:0:
114,208,65933,2,0,P|164:272|266:284,1,190
338,244,66882,6,0,P|376:202|414:198,1,95
477,150,67452,2,0,P|446:113|403:100,1,95
320,124,68022,2,0,B|275:103|275:103|168:146,1,142.5
231,307,69161,1,0,0:0:0:0:
231,307,69351,2,0,L|281:286,2,47.5,0|0|2,0:0|0:0|0:0,0:0:0:0:
257,223,70490,2,0,L|277:149,1,47.5
287,112,70870,1,0,0:0:0:0:
287,112,71439,1,0,0:0:0:0:
287,112,72009,2,0,P|212:80|117:119,1,190
205,176,73148,5,0,0:0:0:0:
83,241,73528,2,0,P|163:252|224:334,1,190
332,167,75237,1,0,0:0:0:0:
332,167,75427,2,0,L|249:163,2,47.5,0|0|2,0:0|0:0|0:0,0:0:0:0:
123,263,76186,1,0,0:0:0:0:
123,263,76566,2,0,P|188:256|237:276,1,95
192,335,77325,2,0,P|257:342|306:322,1,95
287,251,78085,2,0,L|353:197,1,47.5
377,178,78465,5,0,0:0:0:0:
377,178,79034,1,0,0:0:0:0:
377,178,79604,2,0,P|312:112|219:112,1,190
117,174,81313,5,0,0:0:0:0:
117,174,81503,2,0,L|70:153,2,47.5,0|0|2,0:0|0:0|0:0,0:0:0:0:
81,257,82262,1,0,0:0:0:0:
157,299,82642,2,0,P|233:271|326:315,1,190,0|0,0:0|0:0,3:0:0:0:
388,201,83971,1,0,0:0:0:0:
388,201,84161,2,0,P|318:139|226:146,1,190
156,222,85300,1,0,0:0:0:0:
156,222,85680,5,0,0:0:0:0:
229,253,85870,2,0,L|277:281,2,47.5
306,199,86439,1,0,0:0:0:0:
383,182,86629,2,0,L|438:177,2,47.5
201,149,87199,1,0,0:0:0:0:
128,118,87389,2,0,L|86:94,2,47.5
321,112,87958,1,0,0:0:0:0:
391,76,88148,2,0,L|443:57,2,47.5
257,204,88718,5,0,0:0:0:0:
331,234,88908,2,0,L|379:262,2,47.5
171,243,89477,1,0,0:0:0:0:
92,254,89667,2,0,L|38:268,2,47.5
208,159,90237,5,0,0:0:0:0:
302,165,90427,1,0,0:0:0:0:
249,244,90617,1,0,0:0:0:0:
218,147,90806,1,0,0:0:0:0:
302,165,90996,2,0,P|360:136|413:138,1,95
433,218,91566,1,0,0:0:0:0:
396,307,91756,6,0,P|331:314|287:295,1,95
433,218,92326,2,0,P|387:265|341:279,1,95
399,134,92895,2,0,P|390:198|361:236,1,95,0|0,3:0|0:0,0:0:0:0:
256,132,94034,1,0,0:0:0:0:
176,147,94224,1,0,0:0:0:0:
184,227,94414,1,0,0:0:0:0:
132,289,94604,1,0,0:0:0:0:
53,269,94794,2,0,B|18:166|110:144|51:63|51:63|137:90|128:75,1,285
235,194,96313,5,0,0:0:0:0:
306,156,96503,1,0,0:0:0:0:
359,96,96692,1,0,0:0:0:0:
400,165,96882,1,0,0:0:0:0:
455,223,97072,5,0,0:0:0:0:
326,300,97262,1,0,0:0:0:0:
133,298,97832,2,0,P|143:239|72:133,1,190,0|8,0:0|0:0,0:0:0:0:
172,92,98971,2,0,P|183:130|211:172,1,47.5
306,155,99541,5,0,0:0:0:0:
306,155,99730,2,0,L|337:104,2,47.5,0|0|8,0:0|0:0|0:0,0:0:0:0:
276,319,100490,1,0,0:0:0:0:
322,253,100680,1,0,0:0:0:0:
395,288,100870,1,0,0:0:0:0:
452,179,101249,6,0,P|428:147|411:99,1,47.5
410,60,101629,1,2,0:0:0:0:
363,194,102009,2,0,P|352:232|324:274,1,47.5
235,284,102579,1,0,0:0:0:0:
164,323,102768,2,0,P|157:262|116:223,1,95,0|2,0:0|0:0,0:0:0:0:
85,72,103528,1,0,0:0:0:0:
156,109,103718,1,0,0:0:0:0:
205,45,103908,1,0,0:0:0:0:
220,238,104287,6,0,P|231:276|259:318,1,47.5
299,331,104667,1,8,0:0:0:0:
357,196,105047,6,0,P|346:158|318:116,1,47.5
191,50,105617,1,0,0:0:0:0:
158,123,105806,2,0,P|151:184|110:223,1,95,0|8,0:0|0:0,0:0:0:0:
266,332,106566,1,0,0:0:0:0:
374,165,106946,2,8,P|359:120|370:74,1,95,0|0,0:0|0:0,0:0:0:0:
444,43,107515,1,0,0:0:0:0:
475,117,107705,1,2,0:0:0:0:
464,259,108085,6,0,P|455:281|443:301,1,47.5
299,290,108654,1,0,0:0:0:0:
223,319,108844,2,8,P|176:313|139:284,1,95,0|2,0:0|0:0,0:0:0:0:
87,118,109604,1,0,0:0:0:0:
135,53,109794,1,0,0:0:0:0:
206,90,109984,1,0,0:0:0:0:
318,87,110363,6,0,P|326:109|338:129,1,47.5
408,170,110743,1,8,0:0:0:0:
384,313,111123,6,0,P|360:315|337:314,1,47.5
216,220,111692,5,0,0:0:0:0:
135,222,111882,2,0,P|123:201|114:179,1,47.5
125,98,112262,1,8,0:0:0:0:
257,134,112642,1,0,0:0:0:0:
393,62,113022,2,8,P|390:108|412:150,1,95,0|0,0:0|0:0,0:0:0:0:
471,205,113591,1,0,0:0:0:0:
426,272,113781,1,2,0:0:0:0:
284,273,114161,5,0,0:0:0:0:
284,273,114730,1,0,0:0:0:0:
250,199,114920,2,8,P|296:195|338:217,1,95,0|2,0:0|0:0,0:0:0:0:
191,63,115680,2,0,P|202:83|211:105,1,47.5
171,172,116060,1,0,0:0:0:0:
346,108,116439,1,0,0:0:0:0:
422,242,116819,1,8,0:0:0:0:
216,257,117199,6,8,P|239:217|281:195,1,95,0|0,0:0|0:0,0:0:0:0:
333,256,117768,1,0,0:0:0:0:
383,192,117958,6,8,P|359:152|317:130,1,95,0|8,0:0|0:0,0:0:0:0:
115,89,118718,2,0,P|104:109|95:131,1,47.5
109,211,119098,6,8,P|132:171|174:149,1,95,0|0,0:0|0:0,0:0:0:0:
231,205,119667,1,0,0:0:0:0:
287,147,119857,1,2,0:0:0:0:
427,227,120237,2,0,P|416:247|407:269,1,47.5
224,318,120806,1,0,0:0:0:0:
145,293,120996,6,8,P|139:247|109:210,1,95,0|2,3:0|3:0,3:0:0:0:
83,140,121566,1,0,0:0:0:0:
132,76,121756,1,0,0:0:0:0:
291,145,122135,6,8,P|334:162|381:153,1,95,8|8,3:0|3:0,3:0:0:0:
438,97,122705,1,0,0:0:0:0:
475,168,122895,1,0,0:0:0:0:
321,272,123275,6,0,P|274:275|236:303,1,95,8|8,3:0|3:0,3:0:0:0:
236,303,124034,1,0,0:0:0:0:
206,173,124414,1,0,0:0:0:0:
370,187,124794,1,0,0:0:0:0:
370,187,125173,6,0,P|326:170|280:178,1,95,8|8,3:0|3:0,3:0:0:0:
302,256,125743,2,0,P|279:260|255:262,1,47.5
127,185,126313,6,0,P|81:171|50:136,1,95,8|8,3:0|3:0,3:0:0:0:
97,71,126882,1,0,0:0:0:0:
165,114,127072,6,0,P|208:131|254:123,1,95,8|8,3:0|3:0,3:0:0:0:
422,155,127832,5,0,0:0:0:0:
396,231,128022,1,0,0:0:0:0:
326,271,128211,6,0,P|279:278|236:261,1,95,8|8,3:0|3:0,3:0:0:0:
165,114,128971,1,0,0:0:0:0:
84,211,129351,2,0,P|91:233|100:255,1,47.5
65,328,129730,6,0,P|111:335|154:318,1,95,8|8,3:0|3:0,3:0:0:0:
175,238,130300,2,0,B|220:217|220:217|327:260,1,142.5
391,264,131060,1,0,0:0:0:0:
455,208,131249,2,0,P|433:152|317:97,1,190
227,177,132389,1,0,0:0:0:0:
17,289,132958,1,0,0:0:0:0:
87,250,133148,6,0,P|120:282|165:292,1,95,8|8,3:0|3:0,3:0:0:0:
219,229,133718,2,0,P|226:251|235:273,1,47.5
313,293,134098,1,0,0:0:0:0:
339,216,134287,6,0,P|274:223|230:204,1,95
217,141,134857,2,0,P|176:193|169:240,1,95
294,153,135427,2,0,P|268:93|230:64,1,95,0|0,3:0|0:0,0:0:0:0:
107,105,136566,1,0,0:0:0:0:
115,266,136946,1,0,0:0:0:0:
193,246,137136,1,0,0:0:0:0:
228,319,137326,1,0,0:0:0:0:
364,251,137705,2,0,P|371:229|376:205,1,47.5
365,125,138085,1,0,0:0:0:0:
179,72,138654,6,0,P|201:87|226:93,1,47.5
301,101,139034,1,0,0:0:0:0:
237,160,139224,6,0,P|215:175|190:181,1,47.5
115,189,139604,1,0,0:0:0:0:
159,264,139794,1,0,0:0:0:0:
122,335,139984,1,0,0:0:0:0:
201,349,140173,1,0,0:0:0:0:
241,278,140363,6,0,P|278:249|324:245,1,95,8|8,3:0|3:0,3:0:0:0:
394,287,140933,1,0,0:0:0:0:
436,218,141123,1,0,0:0:0:0:
327,71,141503,6,0,P|304:85|289:106,1,47.5,4|0,3:3|3:3,3:3:0:0:
308,181,141882,1,2,0:0:0:0:
230,159,142072,1,2,0:0:0:0:
187,227,142262,6,0,P|140:220|97:240,1,95,8|8,3:0|3:0,3:0:0:0:
33,91,143022,6,0,P|47:72|67:59,1,47.5,0|0,3:3|3:3,3:3:0:0:
129,98,143401,5,0,0:0:0:0:
272,88,143971,2,0,L|323:92,1,47.5,8|4,0:0|0:0,0:0:0:0:
408,173,144541,1,2,0:0:0:0:
249,186,144730,1,2,0:0:0:0:
130,283,144920,2,4,L|192:300,1,47.5
341,172,145585,1,2,0:0:0:0:
341,172,145680,1,2,0:0:0:0:
341,172,145870,2,0,P|345:122|370:105,1,47.5,4|0,0:0|0:0,0:0:0:0:
435,91,146249,1,0,0:0:0:0:
435,91,146439,6,0,P|439:150|353:244,1,190,2|0,0:0|0:0,0:0:0:0:
206,266,147579,1,0,0:0:0:0:
75,184,147958,6,0,P|93:164|117:154,1,47.5,0|0,3:3|3:3,3:3:0:0:
153,85,148338,1,0,0:0:0:0:
227,117,148528,1,0,0:0:0:0:
290,66,148718,1,0,0:0:0:0:
358,107,148908,6,0,P|402:122|431:158,1,95,0|0,3:0|3:0,3:0:0:0:
484,219,149477,6,0,P|439:234|410:270,1,95,0|0,3:0|3:0,3:0:0:0:
420,351,150047,1,0,0:0:0:0:
347,315,150237,6,0,P|331:296|311:284,1,47.5,0|0,3:3|3:3,3:3:0:0:
289,206,150617,1,0,0:0:0:0:
209,197,150806,1,0,0:0:0:0:
169,126,150996,6,0,P|153:107|133:95,1,47.5,0|0,3:3|3:3,3:3:0:0:
85,161,151376,6,0,P|50:129|38:84,1,95,0|0,3:0|3:0,3:3:0:0:
97,28,151946,1,0,0:0:0:0:
239,51,152325,1,0,0:0:0:0:
239,51,152515,6,0,P|270:85|277:132,1,95,0|0,3:0|3:0,3:3:0:0:
301,209,153085,1,0,0:0:0:0:
375,176,153275,1,0,0:0:0:0:
366,341,153654,6,0,P|346:327|323:321,1,47.5,0|0,3:3|3:3,3:3:0:0:
246,346,154034,1,0,0:0:0:0:
190,286,154224,1,0,0:0:0:0:
190,286,154414,6,0,P|166:245|169:198,1,95,0|0,3:0|3:0,3:3:0:0:
232,147,154984,6,0,P|278:149|319:126,1,95,0|0,3:0|3:0,3:3:0:0:
366,60,155553,6,0,P|398:93|408:139,1,95,0|0,3:0|3:0,3:3:0:0:
376,213,156123,1,0,0:0:0:0:
404,288,156313,6,0,P|380:289|358:299,1,47.5,0|0,3:3|3:3,3:3:0:0:
320,370,156692,1,0,0:0:0:0:
231,287,156882,6,0,P|240:308|242:332,1,47.5,0|0,3:3|3:3,3:3:0:0:
163,351,157262,1,0,0:0:0:0:
106,293,157452,6,0,P|115:247|148:213,1,95,0|0,3:0|3:0,3:3:0:0:
223,245,158022,1,0,0:0:0:0:
277,185,158211,1,0,0:0:0:0:
187,52,158591,6,0,P|140:52|100:77,1,95,0|0,3:0|3:0,3:3:0:0:
80,156,159161,1,0,0:0:0:0:
159,142,159351,1,0,0:0:0:0:
106,293,159730,6,0,P|127:283|151:281,1,47.5,0|0,3:3|3:3,3:3:0:0:
225,315,160110,1,0,0:0:0:0:
284,259,160300,1,0,0:0:0:0:
284,259,160490,6,0,P|302:215|340:189,1,95,0|0,3:0|3:0,3:3:0:0:
488,137,161249,1,0,0:0:0:0:
500,216,161439,1,0,0:0:0:0:
488,137,161629,2,0,P|432:99|366:100,1,95
380,171,162199,2,0,B|287:176|287:176|255:214,1,142.5
299,275,162958,1,0,0:0:0:0:
143,319,163338,5,0,0:0:0:0:
143,319,163528,2,0,P|121:276|119:229,1,95
159,158,164098,1,0,0:0:0:0:
98,105,164287,1,0,0:0:0:0:
258,53,164667,2,0,P|286:90|328:112,1,95
401,148,165237,1,0,0:0:0:0:
375,224,165427,1,0,0:0:0:0:
223,236,165806,6,0,P|205:252|195:273,1,47.5,0|0,3:3|3:3,3:3:0:0:
68,253,166376,1,0,0:0:0:0:
68,253,166566,2,0,P|108:228|134:189,1,95
228,60,167325,6,0,P|238:81|255:97,1,47.5,0|0,3:3|3:3,3:3:0:0:
335,83,167705,2,0,P|355:125|356:172,1,95
404,237,168275,1,0,0:0:0:0:
337,283,168465,1,0,0:0:0:0:
126,177,168844,5,0,0:0:0:0:
98,253,169034,1,0,0:0:0:0:
178,244,169224,6,0,P|192:225|212:212,1,47.5,0|0,3:3|3:3,3:3:0:0:
281,254,169604,1,0,0:0:0:0:
331,190,169794,1,0,0:0:0:0:
268,139,169984,2,0,B|214:155|109:156|174:97|206:77,1,142.5
235,52,170743,6,0,P|265:109|264:157,1,95
347,152,171313,6,0,P|343:217|364:260,1,95,0|0,0:0|0:0,3:0:0:0:
267,138,171882,6,0,P|260:91|235:52,1,95
94,177,173022,2,0,L|81:144,3,23.75
143,177,173401,2,0,L|145:200,3,23.75
157,239,173781,6,0,P|222:241|263:266,1,95
321,219,174351,6,0,P|276:171|264:124,1,95
198,82,174920,6,0,P|195:147|170:188,1,95
49,162,176060,1,0,0:0:0:0:
312,71,176439,6,0,P|327:88|335:110,1,47.5,0|0,3:3|3:3,3:3:0:0:
407,149,176819,1,0,0:0:0:0:
248,226,177199,5,0,0:0:0:0:
263,214,177579,1,0,0:0:0:0:
279,258,177958,1,0,0:0:0:0:
205,213,178338,1,0,0:0:0:0:
301,135,178718,1,0,0:0:0:0:
243,265,179098,1,0,0:0:0:0:
400,229,179477,1,0,0:0:0:0:
226,152,179857,5,0,0:0:0:0:
283,208,180047,1,0,0:0:0:0:
345,156,180237,1,0,0:0:0:0:
400,229,180427,1,0,0:0:0:0:
453,168,180617,1,0,0:0:0:0:
345,280,180806,1,0,0:0:0:0:
247,156,180996,1,0,0:0:0:0:
143,273,181186,1,0,0:0:0:0:
241,225,181376,5,0,0:0:0:0:
316,195,181566,1,0,0:0:0:0:
238,216,181756,1,0,0:0:0:0:
317,202,181946,1,0,0:0:0:0:
234,208,182135,2,0,P|219:181|220:154,1,47.5
277,116,182515,2,0,L|307:118,3,23.75
326,86,182895,6,0,P|367:108|396:145,1,95
324,300,183654,1,0,0:0:0:0:
279,174,184034,1,0,0:0:0:0:
414,284,184414,6,0,P|370:301|323:299,1,95,0|0,0:0|0:0,3:0:0:0:
99,205,185173,1,8,0:0:0:0:
279,174,185553,1,0,0:0:0:0:
142,286,185933,6,0,P|111:250|98:204,1,95,0|0,0:0|0:0,3:0:0:0:
217,53,186692,1,0,0:0:0:0:
98,204,187072,1,0,3:0:0:0:
217,53,187452,6,0,P|254:81|276:122,1,95,0|0,0:0|0:0,3:0:0:0:
216,295,188211,1,0,0:0:0:0:
279,245,188401,1,0,0:0:0:0:
344,292,188591,1,0,0:0:0:0:
424,281,188781,1,0,0:0:0:0:
466,211,188971,6,0,P|446:156|387:124,1,95
239,84,189730,1,0,0:0:0:0:
238,201,190110,1,0,0:0:0:0:
126,142,190490,2,0,P|71:162|39:221,1,95
172,309,191249,5,0,0:0:0:0:
251,296,191439,1,0,0:0:0:0:
172,309,191629,1,0,0:0:0:0:
251,296,191819,1,0,0:0:0:0:
251,296,192009,2,0,P|305:275|337:216,1,95
257,208,192579,2,0,P|289:173|334:160,1,95
383,224,193148,2,0,P|424:182|428:115,1,95
303,52,193718,2,0,P|339:83|354:128,1,95
291,178,194287,5,0,0:0:0:0:
214,202,194477,1,0,0:0:0:0:
207,282,194667,1,0,0:0:0:0:
128,300,194857,1,0,0:0:0:0:
135,220,195047,6,0,P|126:173|143:128,1,95
353,77,195806,1,0,0:0:0:0:
262,205,196186,1,0,0:0:0:0:
444,139,196566,2,0,P|465:181|461:228,1,95
262,205,197325,1,0,0:0:0:0:
444,139,197705,1,0,0:0:0:0:
317,276,198085,2,0,P|278:247|260:203,1,95
269,56,198844,1,0,0:0:0:0:
330,208,199224,1,0,0:0:0:0:
46,230,199604,6,0,L|87:177,1,47.5
145,224,199984,2,0,L|181:181,1,47.5
117,131,200363,6,0,L|146:93,1,47.5
216,125,200743,2,0,L|246:88,1,47.5
304,145,201123,1,0,0:0:0:0:
241,215,201313,1,0,0:0:0:0:
346,206,201503,1,0,0:0:0:0:
251,87,201692,1,0,0:0:0:0:
241,215,201882,2,0,P|250:250|285:282,1,47.5
362,300,202262,1,0,0:0:0:0:
346,206,202452,1,0,0:0:0:0:
272,129,202642,5,0,0:0:0:0:
198,96,202832,1,0,0:0:0:0:
192,176,203022,1,0,0:0:0:0:
115,150,203211,1,0,0:0:0:0:
121,230,203401,1,0,0:0:0:0:
40,225,203591,1,0,0:0:0:0:
86,291,203781,1,0,0:0:0:0:
30,349,203971,1,0,0:0:0:0:
86,291,204161,6,0,L|157:262,1,47.5
196,314,204541,6,0,L|261:289,1,47.5
320,309,205110,1,0,0:0:0:0:
360,239,205300,2,0,L|374:211,3,23.75
377,177,205680,1,0,0:0:0:0:
365,138,205775,1,0,0:0:0:0:
330,117,205870,1,0,0:0:0:0:
289,117,205965,5,0,0:0:0:0:
274,135,206059,1,0,0:0:0:0:
260,154,206154,1,0,0:0:0:0:
251,176,206249,1,0,0:0:0:0:
247,199,206344,1,0,0:0:0:0:
249,222,206439,2,0,P|283:268|366:303,1,142.5
256,192,212325,12,0,213085,0:0:0:0:
325,129,213275,5,0,0:0:0:0:
439,259,213654,1,0,0:0:0:0:
366,295,213844,1,0,0:0:0:0:
177,217,214224,5,0,0:0:0:0:
250,181,214414,1,0,0:0:0:0:
177,217,214604,1,0,0:0:0:0:
253,243,214794,2,0,P|298:208|347:206,1,95
331,284,215363,2,0,P|377:275|412:244,1,95
405,163,215933,1,0,0:0:0:0:
334,203,216123,5,0,0:0:0:0:
333,202,216313,2,0,P|294:175|248:172,1,95,0|0,0:0|0:0,3:0:0:0:
174,206,216882,1,0,0:0:0:0:
193,127,217072,1,0,0:0:0:0:
80,320,217642,5,0,0:0:0:0:
79,319,217832,2,0,P|122:301|168:310,1,95,0|0,0:0|0:0,3:0:0:0:
241,346,218401,1,0,0:0:0:0:
297,288,218591,1,0,0:0:0:0:
285,83,218971,1,0,0:0:0:0:
229,141,219161,1,0,0:0:0:0:
311,152,219351,6,0,P|341:209|340:257,1,95
181,193,219920,6,0,P|151:136|152:88,1,95
179,286,220490,6,0,P|235:256|284:257,1,95
326,307,221439,1,0,0:0:0:0:
326,307,221629,1,0,0:0:0:0:
387,111,222009,5,0,0:0:0:0:
318,67,222199,1,0,0:0:0:0:
263,126,222389,2,0,P|224:152|205:195,1,95,0|0,3:0|3:0,3:0:0:0:
173,269,222958,1,0,0:0:0:0:
93,283,223148,1,0,0:0:0:0:
103,98,223528,1,0,0:0:0:0:
103,98,223718,1,0,0:0:0:0:
180,88,223908,2,0,P|226:95|262:125,1,95,0|0,3:0|3:0,3:0:0:0:
243,203,224477,2,0,P|289:198|327:171,1,95,0|0,3:0|3:0,3:0:0:0:
440,55,225427,6,0,P|460:156|414:248,1,190
138,280,226566,5,0,0:0:0:0:
216,300,226756,1,0,0:0:0:0:
264,235,226946,1,0,0:0:0:0:
186,212,227135,2,0,P|192:188|201:166,1,47.5
281,155,227515,1,0,0:0:0:0:
249,80,227705,2,0,P|293:63|339:73,1,95,0|0,3:0|3:0,3:0:0:0:
402,124,228275,1,0,0:0:0:0:
381,97,229477,5,0,0:0:0:0:
295,227,229794,1,0,0:0:0:0:
182,259,230047,1,0,0:0:0:0:
119,196,230300,1,0,0:0:0:0:
136,122,230553,1,0,0:0:0:0:
172,104,230743,2,0,P|205:122|227:138,1,47.5
381,331,231503,6,0,P|279:313|210:237,1,190
287,211,232452,1,0,0:0:0:0:
244,142,232642,2,0,P|290:137|328:110,1,95,0|0,3:0|3:0,3:0:0:0:
396,154,233211,1,0,0:0:0:0:
396,154,233401,2,0,P|423:191|427:238,1,95,0|0,3:0|3:0,3:0:0:0:
361,285,233971,1,0,0:0:0:0:
375,364,234161,1,0,0:0:0:0:
89,250,234541,6,0,P|129:273|176:272,1,95,0|0,3:0|3:0,3:0:0:0:
214,200,235110,1,0,0:0:0:0:
293,212,235300,1,0,0:0:0:0:
432,74,235680,1,0,0:0:0:0:
360,111,235870,6,0,P|336:106|313:110,1,47.5,0|0,3:3|3:3,3:3:0:0:
235,133,236249,1,0,0:0:0:0:
235,133,236439,6,0,P|196:159|177:202,1,95,0|0,3:0|3:0,3:0:0:0:
241,290,237009,2,0,B|211:284|201:333|149:326,1,95
66,167,237579,6,0,P|124:82|222:51,1,190
379,75,238718,1,0,0:0:0:0:
392,154,238908,1,0,0:0:0:0:
319,189,239098,6,0,P|295:229|296:276,1,95,0|0,3:0|3:0,3:0:0:0:
369,241,239667,6,0,P|392:200|391:153,1,95,0|0,3:0|3:0,3:0:0:0:
221,48,240427,1,0,0:0:0:0:
221,48,240617,6,0,P|182:74|163:117,1,95,0|0,3:0|3:0,3:0:0:0:
233,158,241186,6,0,P|194:184|175:227,1,95,0|0,3:0|3:0,3:0:0:0:
213,299,241756,6,0,P|190:306|171:320,1,47.5,0|0,3:3|3:3,3:3:0:0:
236,369,242135,1,0,0:0:0:0:
368,188,242515,1,0,0:0:0:0:
371,164,242610,1,0,0:0:0:0:
374,140,242705,1,0,0:0:0:0:
378,116,242800,1,0,0:0:0:0:
382,92,242895,2,0,P|351:43|301:30,1,95
95,154,243654,6,0,P|100:200|129:237,1,95,8|0,3:0|3:0,3:0:0:0:
201,275,244224,1,0,0:0:0:0:
271,236,244414,1,0,0:0:0:0:
432,124,244794,1,0,0:0:0:0:
390,54,244984,1,0,0:0:0:0:
432,124,245173,6,0,P|446:168|435:214,1,95,0|0,3:0|3:0,3:0:0:0:
387,279,245743,1,0,0:0:0:0:
440,339,245933,1,0,0:0:0:0:
266,148,246313,5,0,0:0:0:0:
266,148,246503,1,0,0:0:0:0:
266,148,246692,2,0,P|200:166|159:217,1,95
146,257,247262,2,0,B|238:248|238:248|269:209,1,142.5
180,183,248021,1,0,0:0:0:0:
397,82,248401,1,0,0:0:0:0:
433,154,248591,6,0,P|447:198|436:244,1,95,0|0,3:0|3:0,3:0:0:0:
357,260,249161,1,0,0:0:0:0:
290,213,249351,1,0,0:0:0:0:
91,277,249730,2,0,L|127:233,1,47.5
202,239,250110,1,0,0:0:0:0:
150,176,250300,1,0,0:0:0:0:
169,97,250490,6,0,P|210:118|235:158,1,95,0|0,3:0|3:0,3:0:0:0:
313,134,251060,1,0,0:0:0:0:
457,67,251439,5,0,0:0:0:0:
457,67,251629,6,0,P|471:111|460:157,1,95,0|0,3:0|3:0,3:0:0:0:
410,293,252389,1,0,0:0:0:0:
341,249,252579,1,0,0:0:0:0:
260,243,252768,2,0,L|246:288,1,47.5,0|0,3:0|3:0,0:0:0:0:
172,255,253148,6,0,P|127:269|81:258,1,95,0|0,3:0|3:0,3:0:0:0:
80,177,253718,1,0,0:0:0:0:
159,162,253908,1,0,0:0:0:0:
358,79,254287,2,0,B|381:124|384:168|384:168|344:220|265:220,1,190
223,200,255237,1,0,0:0:0:0:
206,279,255427,1,0,0:0:0:0:
223,200,255617,1,0,0:0:0:0:
147,226,255806,6,0,P|105:204|80:164,1,95,0|0,3:0|3:0,3:0:0:0:
150,123,256376,1,0,0:0:0:0:
125,46,256566,1,0,0:0:0:0:
375,122,256946,1,0,0:0:0:0:
426,59,257135,1,0,0:0:0:0:
375,122,257325,6,0,P|333:143|308:183,1,95,0|0,3:0|3:0,3:0:0:0:
309,264,257895,6,0,P|267:242|242:202,1,95,0|0,3:0|3:0,3:0:0:0:
177,154,258465,1,0,0:0:0:0:
105,190,258654,1,0,0:0:0:0:
52,264,258844,6,0,P|98:275|143:261,1,95,0|0,3:0|3:0,3:0:0:0:
200,318,259414,1,0,0:0:0:0:
288,242,259604,2,0,L|275:288,1,47.5,0|0,3:0|3:0,0:0:0:0:
349,188,259984,1,0,0:0:0:0:
369,265,260173,2,0,L|355:310,1,47.5,0|0,3:0|3:0,0:0:0:0:
436,315,260553,1,0,0:0:0:0:
500,266,260743,1,0,0:0:0:0:
271,79,261123,6,0,P|224:86|189:117,1,95,0|0,3:0|3:0,3:0:0:0:
114,315,261882,2,0,P|160:307|195:276,1,95,0|0,3:0|3:0,3:0:0:0:
160,203,262452,1,0,0:0:0:0:
238,183,262642,1,0,0:0:0:0:
370,282,263022,5,0,0:0:0:0:
419,218,263211,1,0,0:0:0:0:
341,195,263401,2,0,L|354:149,1,47.5,0|0,3:0|3:0,0:0:0:0:
291,90,263781,1,0,0:0:0:0:
370,73,263971,1,0,0:0:0:0:
434,138,264161,2,0,P|411:96|370:73,1,95,0|0,3:0|3:0,3:0:0:0:
67,256,264920,6,0,L|107:231,1,47.5,0|0,3:0|3:0,0:0:0:0:
189,233,265300,1,0,0:0:0:0:
234,166,265490,1,0,0:0:0:0:
313,178,265680,2,0,P|312:224|288:265,1,95,0|0,3:0|3:0,3:0:0:0:
223,312,266249,1,0,0:0:0:0:
170,116,266819,2,0,P|206:86|252:80,1,95,0|0,3:0|3:0,3:0:0:0:
350,189,267579,1,0,0:0:0:0:
189,233,267958,6,0,P|205:188|241:159,1,95,0|0,3:0|3:0,3:0:0:0:
314,123,268528,1,0,0:0:0:0:
297,262,268718,2,0,P|313:217|349:188,1,95,0|0,3:0|3:0,3:0:0:0:
426,214,269287,1,0,0:0:0:0:
456,288,269477,1,0,0:0:0:0:
426,214,269667,1,0,0:0:0:0:
472,147,269857,2,0,P|427:130|398:94,1,95,0|0,3:0|3:0,3:0:0:0:
152,134,270617,5,0,0:0:0:0:
218,88,270806,1,0,0:0:0:0:
282,136,270996,2,0,P|326:151|356:187,1,95,0|0,3:0|3:0,3:0:0:0:
392,259,271566,1,0,0:0:0:0:
350,328,271756,2,0,P|305:312|275:276,1,95,0|0,3:0|3:0,3:0:0:0:
194,274,272325,1,0,0:0:0:0:
97,84,272705,5,0,0:0:0:0:
97,84,272895,2,0,P|141:99|171:135,1,95,0|0,3:0|3:0,3:0:0:0:
241,176,273465,1,0,0:0:0:0:
308,132,273654,1,0,0:0:0:0:
103,269,274034,2,0,P|147:283|193:273,1,95,0|0,3:0|3:0,3:0:0:0:
272,292,274604,1,0,0:0:0:0:
326,232,274794,1,0,0:0:0:0:
331,74,275173,6,0,L|304:113,1,47.5,0|0,3:0|3:0,0:0:0:0:
449,233,275743,1,0,0:0:0:0:
449,233,275933,2,0,P|406:253|381:293,1,95,8|0,3:0|3:0,3:0:0:0:
384,374,276503,1,0,0:0:0:0:
457,341,276692,1,0,0:0:0:0:
446,99,277072,6,0,P|365:146|325:231,1,190,0|0,3:0|3:0,3:0:0:0:
107,286,278211,1,0,0:0:0:0:
107,286,278401,1,0,0:0:0:0:
107,286,278591,2,0,B|150:268|150:268|187:275|187:275|208:252|249:262,1,142.5
313,296,279351,1,0,0:0:0:0:
422,178,279825,1,0,0:0:0:0:
123,57,280395,6,0,P|154:114|231:155,1,142.5
446,143,282104,2,0,B|406:158|403:193|403:193|372:233|324:224,1,154.375
133,288,283813,2,0,B|136:255|157:237|157:237|146:208|171:180,1,118.75
246,78,285617,1,0,0:0:0:0:
395,155,286376,5,0,0:0:0:0:
348,244,286851,1,0,0:0:0:0:
232,280,287325,2,0,B|228:237|192:213|192:213|226:171|264:180,1,154.375
281,191,288749,1,0,0:0:0:0:
343,174,289034,1,0,0:0:0:0:
441,187,289414,1,0,0:0:0:0:
395,277,289889,2,0,P|376:257|339:247,1,59.375
258,158,290838,2,0,B|242:87|161:-1|-1:218|194:205|240:272|257:319|257:319|273:272|322:208|513:223|352:1|274:88|261:157,1,785.531226027489
