osu file format v14

[General]
AudioFilename: audio.mp3
AudioLeadIn: 0
PreviewTime: 54966
Countdown: 0
SampleSet: Normal
StackLeniency: 0.7
Mode: 3
LetterboxInBreaks: 0
SpecialStyle: 0
WidescreenStoryboard: 1

[Editor]
Bookmarks: 171547,194861,227776
DistanceSpacing: 1.6
BeatDivisor: 4
GridSize: 4
TimelineZoom: 1.7

[Metadata]
Title:KABANERI OF THE IRON FORTRESS
TitleUnicode:KABANERI OF THE IRON FORTRESS
Artist:EGOIST
ArtistUnicode:EGOIST
Creator:Wonki
Version:Normal // 4K
Source:
Tags:Fontes LordRaika Kim_GodSSI 甲鉄城のカバネリ koutetsujou no kabaneri kabaneri of the iron fortress supercell
BeatmapID:1291449
BeatmapSetID:611325

[Difficulty]
HPDrainRate:7
CircleSize:4
OverallDifficulty:7
ApproachRate:5
SliderMultiplier:1.4
SliderTickRate:1

[Events]
//Background and Video events
0,0,"56838849_p0.jpg",0,0
//Break Periods
2,227976,240290
//Storyboard Layer 0 (Background)
//Storyboard Layer 1 (Fail)
//Storyboard Layer 2 (Pass)
//Storyboard Layer 3 (Foreground)
//Storyboard Sound Samples

[TimingPoints]
119,342.857142857143,4,1,66,32,1,0
54976,-100,4,1,66,32,0,1
68690,-100,4,1,66,32,0,0
97319,-100,4,2,66,15,0,0
108290,-100,4,1,66,32,0,0
140004,-100,4,1,66,32,0,1
153719,-100,4,1,66,32,0,0
227861,-100,4,1,66,12,0,0
240119,-100,4,1,66,12,0,0
241490,-100,4,1,66,32,0,0
244233,-100,4,1,66,32,0,1
257947,-100,4,1,66,32,0,0

[HitObjects]
64,192,804,5,4,2:0:0:0:
448,192,804,128,4,1490:1:0:0:0:
192,192,1490,128,0,2176:0:0:0:0:
64,192,2176,128,0,2861:0:0:0:0:
448,192,2861,1,0,0:0:0:0:
320,192,3090,1,0,0:0:0:0:
64,192,3319,1,0,0:0:0:0:
192,192,3547,128,0,4233:0:0:0:0:
320,192,4233,128,0,4919:0:0:0:0:
448,192,4919,128,0,5604:0:0:0:0:
192,192,5604,128,0,6290:0:0:0:0:
64,192,6290,128,0,9033:0:0:0:0:
320,192,6976,128,0,9033:0:0:0:0:
448,192,9719,128,0,11776:0:0:0:0:
320,192,11090,128,0,11776:0:0:0:0:
64,192,11776,1,0,0:0:0:0:
192,192,11947,1,0,0:0:0:0:
320,192,12290,1,0,0:0:0:100:
192,192,12461,1,2,2:0:0:65:
64,192,12461,128,2,15204:2:0:0:65:
448,192,12633,1,2,2:0:0:65:
192,192,13147,1,0,0:0:0:0:
320,192,13490,1,0,0:0:0:0:
448,192,13833,1,0,0:0:0:0:
320,192,14176,1,8,2:0:0:0:
192,192,14519,1,0,0:0:0:0:
448,192,14861,1,8,2:0:0:0:
192,192,15204,128,0,17947:0:0:0:0:
320,192,15204,1,0,0:0:0:0:
64,192,15547,1,8,2:0:0:0:
448,192,15890,1,0,0:0:0:0:
320,192,16233,1,0,0:0:0:0:
64,192,16576,1,0,0:0:0:0:
320,192,16919,1,8,2:0:0:0:
448,192,17261,1,0,0:0:0:0:
64,192,17604,1,0,0:0:0:0:
320,192,17947,128,8,20690:2:0:0:0:
448,192,17947,1,0,0:0:0:0:
64,192,18290,1,0,0:0:0:0:
192,192,18633,1,0,0:0:0:0:
448,192,18976,1,0,0:0:0:0:
192,192,19319,1,0,0:0:0:0:
64,192,19661,1,8,2:0:0:0:
448,192,20004,1,0,0:0:0:0:
192,192,20347,1,8,2:0:0:0:
448,192,20690,128,2,22061:1:0:0:0:
64,192,20690,1,0,0:0:0:0:
192,192,21033,1,8,2:0:0:0:
320,192,21376,1,0,0:0:0:0:
64,192,21719,1,0,0:0:0:0:
64,192,22061,128,0,23433:0:0:0:0:
192,192,22061,1,0,0:0:0:0:
320,192,22404,1,0,0:0:0:0:
448,192,22747,1,0,0:0:0:0:
320,192,23090,1,0,0:0:0:0:
192,192,23433,1,2,2:0:0:65:
448,192,23433,128,2,26176:2:0:0:65:
64,192,23604,1,2,2:0:0:65:
320,192,24119,1,8,2:0:0:0:
64,192,24461,1,2,2:0:0:65:
320,192,24633,1,2,2:0:0:65:
64,192,25147,1,8,2:0:0:0:
320,192,25490,1,0,0:0:0:0:
192,192,25833,1,8,2:0:0:0:
320,192,26176,128,0,28919:0:0:0:0:
64,192,26176,1,0,0:0:0:0:
448,192,26519,1,8,2:0:0:0:
192,192,26861,1,0,0:0:0:0:
64,192,27204,1,8,2:0:0:0:
192,192,27547,1,0,0:0:0:0:
448,192,27890,1,8,2:0:0:0:
64,192,28233,1,0,0:0:0:0:
448,192,28576,1,8,2:0:0:0:
192,192,28919,128,2,30976:2:0:0:65:
64,192,28919,1,0,0:0:0:0:
448,192,29090,1,2,2:0:0:65:
320,192,29604,1,0,0:0:0:0:
448,192,29947,1,2,2:0:0:65:
64,192,30119,1,2,2:0:0:65:
320,192,30633,1,0,0:0:0:0:
64,192,30976,1,0,0:0:0:0:
448,192,30976,128,0,31661:0:0:0:0:
192,192,31319,1,0,0:0:0:0:
320,192,31661,1,2,2:0:0:65:
64,192,31661,1,0,0:0:0:0:
320,192,31833,1,2,2:0:0:65:
64,192,33033,1,2,0:0:0:0:
64,192,33204,1,2,0:0:0:0:
320,192,34404,1,2,0:0:0:0:
320,192,34576,1,2,0:0:0:0:
192,192,35776,1,2,0:0:0:0:
192,192,35947,1,2,0:0:0:0:
448,192,37147,1,2,0:0:0:0:
448,192,37319,1,2,0:0:0:0:
64,192,38519,1,2,0:0:0:0:
64,192,38690,1,2,0:0:0:0:
320,192,39890,1,2,0:0:0:0:
320,192,40061,1,2,0:0:0:0:
192,192,41261,1,2,0:0:0:0:
192,192,41433,1,2,0:0:0:0:
64,192,42633,1,4,2:0:0:0:
448,192,42633,1,4,1:0:0:0:
192,192,42976,1,0,0:0:0:0:
448,192,43319,1,0,0:0:0:0:
320,192,43661,1,0,0:0:0:0:
192,192,44004,1,2,2:0:0:0:
448,192,44347,1,0,0:0:0:0:
64,192,44690,1,0,0:0:0:0:
320,192,45033,1,0,0:0:0:0:
192,192,45376,1,2,2:0:0:0:
448,192,45719,1,0,0:0:0:0:
64,192,46061,1,0,0:0:0:0:
192,192,46404,1,0,0:0:0:0:
320,192,46747,1,2,2:0:0:0:
64,192,47090,1,0,0:0:0:0:
448,192,47433,1,0,0:0:0:0:
320,192,47776,1,0,0:0:0:0:
64,192,48119,1,2,2:0:0:0:
448,192,48290,1,0,0:0:0:0:
64,192,48461,1,0,0:0:0:0:
320,192,48804,1,0,0:0:0:0:
192,192,49147,1,0,0:0:0:0:
320,192,49319,1,0,0:0:0:0:
448,192,49490,1,2,2:0:0:0:
192,192,49833,1,0,0:0:0:0:
320,192,50176,1,0,0:0:0:0:
64,192,50519,1,0,0:0:0:0:
448,192,50861,1,2,2:0:0:0:
320,192,51204,1,0,0:0:0:0:
192,192,51547,1,0,0:0:0:0:
64,192,51890,1,0,0:0:0:0:
320,192,52233,1,2,2:0:0:0:
64,192,52576,1,0,0:0:0:0:
448,192,52919,1,0,0:0:0:0:
192,192,53261,1,0,0:0:0:0:
320,192,53604,1,8,1:0:0:0:
448,192,53604,1,2,2:0:0:0:
192,192,53833,1,2,1:0:0:0:
64,192,53833,1,2,2:0:0:0:
320,192,54061,1,2,2:0:0:0:
448,192,54061,1,2,1:0:0:0:
192,192,54290,1,8,1:0:0:0:
64,192,54290,1,2,2:0:0:0:
448,192,54461,128,0,54976:0:0:0:0:
64,192,54976,1,4,1:0:0:0:
320,192,54976,1,4,1:0:0:0:
448,192,55319,1,2,1:0:0:0:
192,192,55661,1,8,2:0:0:0:
64,192,55661,1,8,1:0:0:0:
320,192,56004,1,2,1:0:0:0:
64,192,56347,1,2,1:0:0:0:
448,192,56690,1,2,1:0:0:0:
192,192,57033,1,8,2:0:0:0:
64,192,57033,1,8,1:0:0:0:
320,192,57376,1,2,1:0:0:0:
64,192,57719,1,2,1:0:0:0:
192,192,58061,1,2,1:0:0:0:
320,192,58404,1,8,2:0:0:0:
448,192,58404,1,8,1:0:0:0:
64,192,58747,1,2,1:0:0:0:
320,192,59090,1,2,1:0:0:0:
192,192,59433,1,2,1:0:0:0:
64,192,59776,1,8,1:0:0:0:
448,192,59776,1,8,2:0:0:0:
320,192,60119,1,2,1:0:0:0:
192,192,60461,1,2,1:0:0:0:
448,192,60804,1,2,1:0:0:0:
64,192,61147,1,8,2:0:0:0:
192,192,61147,1,8,1:0:0:0:
320,192,61490,1,2,1:0:0:0:
64,192,61833,1,2,1:0:0:0:
192,192,62004,1,0,0:0:0:0:
448,192,62176,1,2,1:0:0:0:
320,192,62519,1,8,1:0:0:0:
64,192,62519,1,8,2:0:0:0:
448,192,62861,1,2,1:0:0:0:
192,192,63204,1,2,1:0:0:0:
320,192,63547,1,2,1:0:0:0:
64,192,63890,1,8,2:0:0:0:
448,192,63890,1,8,1:0:0:0:
192,192,64233,1,2,1:0:0:0:
320,192,64576,1,2,1:0:0:0:
192,192,64747,1,0,0:0:0:0:
64,192,64919,1,2,1:0:0:0:
320,192,65261,1,8,1:0:0:0:
448,192,65261,1,8,2:0:0:0:
192,192,65604,1,2,1:0:0:0:
320,192,65776,1,8,2:0:0:0:
448,192,65947,1,4,1:0:0:0:
64,192,65947,1,4,2:0:0:0:
320,192,66290,1,2,1:0:0:0:
64,192,66290,1,0,0:0:0:0:
192,192,66633,1,8,2:0:0:0:
448,192,66633,1,8,1:0:0:0:
64,192,66976,1,2,1:0:0:0:
192,192,66976,1,0,0:0:0:0:
320,192,67319,1,2,1:0:0:0:
448,192,67319,1,0,0:0:0:0:
192,192,67661,1,2,1:0:0:0:
320,192,67661,1,0,0:0:0:0:
64,192,68004,1,8,1:0:0:0:
448,192,68004,1,8,2:0:0:0:
320,192,68347,1,2,1:0:0:0:
64,192,68347,1,0,0:0:0:0:
192,192,68690,1,2,2:0:0:0:
64,192,68690,1,0,0:0:0:0:
448,192,68861,1,2,2:0:0:0:
64,192,71490,1,4,1:0:0:0:
448,192,71490,1,4,2:0:0:0:
192,192,71776,1,2,1:0:0:0:
448,192,72119,1,8,2:0:0:0:
64,192,72119,1,8,1:0:0:0:
320,192,72461,1,2,1:0:0:0:
192,192,72804,1,2,1:0:0:0:
320,192,73147,1,2,1:0:0:0:
448,192,73490,1,8,2:0:0:0:
64,192,73490,1,8,1:0:0:0:
192,192,73833,1,2,1:0:0:0:
320,192,74176,1,4,2:0:0:0:
448,192,74176,1,4,1:0:0:0:
320,192,74433,1,0,0:0:0:0:
448,192,74433,1,0,0:0:0:0:
64,192,74633,1,0,0:0:0:0:
192,192,74747,1,0,0:0:0:0:
320,192,74861,1,8,1:0:0:0:
64,192,75547,1,4,1:0:0:0:
320,192,75547,1,4,2:0:0:0:
320,192,75804,1,0,0:0:0:0:
64,192,75804,1,0,0:0:0:0:
448,192,76004,1,0,0:0:0:0:
320,192,76119,1,0,0:0:0:0:
192,192,76233,1,8,2:0:0:0:
192,192,76919,1,4,2:0:0:0:
448,192,76919,1,4,2:0:0:0:
320,192,77147,1,0,0:0:0:0:
192,192,77376,1,0,0:0:0:0:
320,192,77490,1,0,0:0:0:0:
64,192,77604,1,4,1:0:0:0:
448,192,77604,1,4,1:0:0:0:
192,192,77833,1,0,0:0:0:0:
320,192,78061,1,0,0:0:0:0:
192,192,78176,1,0,0:0:0:0:
64,192,78290,1,4,2:0:0:0:
448,192,78290,1,4,2:0:0:0:
320,192,78519,1,0,0:0:0:0:
192,192,78747,1,0,0:0:0:0:
64,192,78976,1,4,1:0:0:0:
448,192,78976,128,4,79661:1:0:0:0:
192,192,79661,1,4,2:0:0:0:
64,192,79661,1,4,1:0:0:0:
64,192,80347,1,8,2:0:0:0:
448,192,80347,1,8,1:0:0:0:
192,192,81033,1,2,1:0:0:0:
192,192,81376,1,2,1:0:0:0:
64,192,81719,1,8,2:0:0:0:
448,192,81719,1,8,1:0:0:0:
320,192,82404,1,2,1:0:0:0:
192,192,83090,1,8,1:0:0:0:
64,192,83090,1,8,2:0:0:0:
448,192,83776,1,2,1:0:0:0:
448,192,84119,1,2,1:0:0:0:
192,192,84461,1,8,1:0:0:0:
64,192,84461,128,8,85147:2:0:0:0:
320,192,85147,1,8,1:0:0:0:
448,192,85147,1,12,2:0:0:0:
192,192,85376,1,2,1:0:0:0:
320,192,85376,1,2,2:0:0:0:
192,192,85604,1,2,1:0:0:0:
64,192,85604,1,2,2:0:0:0:
64,192,85833,1,8,2:0:0:0:
448,192,85833,1,8,1:0:0:0:
192,192,86061,1,2,2:0:0:0:
448,192,86061,1,2,1:0:0:0:
320,192,86290,1,2,1:0:0:0:
448,192,86290,1,2,2:0:0:0:
192,192,86519,1,4,2:0:0:0:
64,192,86519,128,4,87890:1:0:0:0:
448,192,87890,128,0,89261:0:0:0:0:
192,192,89261,128,0,90633:0:0:0:0:
320,192,90633,128,0,92004:0:0:0:0:
64,192,92004,128,2,93376:1:0:0:0:
320,192,93376,128,0,94747:0:0:0:0:
448,192,94747,128,0,96119:0:0:0:0:
192,192,96119,128,0,97147:0:0:0:0:
320,192,97490,1,2,2:0:0:65:
64,192,97490,128,2,100233:2:0:0:65:
448,192,97661,1,2,2:0:0:65:
192,192,98176,1,0,0:0:0:0:
320,192,98519,1,0,0:0:0:0:
448,192,98861,1,0,0:0:0:0:
192,192,99204,1,0,0:0:0:0:
448,192,99547,1,0,0:0:0:0:
320,192,99890,1,0,0:0:0:0:
448,192,100233,128,0,102976:0:0:0:0:
192,192,100233,1,0,0:0:0:0:
320,192,100576,1,0,0:0:0:0:
64,192,100919,1,0,0:0:0:0:
192,192,101261,1,0,0:0:0:0:
320,192,101604,1,0,0:0:0:0:
64,192,101947,1,0,0:0:0:0:
320,192,102290,1,0,0:0:0:0:
64,192,102633,1,0,0:0:0:0:
192,192,102976,128,0,105719:0:0:0:0:
320,192,102976,1,0,0:0:0:0:
64,192,103319,1,0,0:0:0:0:
448,192,103661,1,0,0:0:0:0:
320,192,104004,1,0,0:0:0:0:
64,192,104347,1,0,0:0:0:0:
320,192,104690,1,0,0:0:0:0:
448,192,105033,1,0,0:0:0:0:
64,192,105376,1,0,0:0:0:0:
320,192,105719,128,0,107090:0:0:0:0:
448,192,105719,1,0,0:0:0:0:
64,192,106061,1,0,0:0:0:0:
448,192,106404,1,0,0:0:0:0:
192,192,106747,1,0,0:0:0:0:
64,192,107090,128,0,108461:0:0:0:0:
448,192,107090,1,0,0:0:0:0:
320,192,107433,1,0,0:0:0:0:
192,192,107776,1,0,0:0:0:0:
320,192,108119,1,0,0:0:0:0:
192,192,108461,1,2,2:0:0:65:
448,192,108461,128,2,111204:2:0:0:65:
64,192,108633,1,2,2:0:0:65:
320,192,109147,1,8,2:0:0:0:
64,192,109490,1,2,2:0:0:65:
320,192,109661,1,2,2:0:0:65:
64,192,110176,1,8,2:0:0:0:
192,192,110519,1,0,0:0:0:0:
320,192,110861,1,8,2:0:0:0:
192,192,111204,128,0,113947:0:0:0:0:
64,192,111204,1,0,0:0:0:0:
448,192,111547,1,8,2:0:0:0:
320,192,111890,1,0,0:0:0:0:
64,192,112233,1,8,2:0:0:0:
448,192,112576,1,0,0:0:0:0:
320,192,112919,1,8,2:0:0:0:
64,192,113261,1,0,0:0:0:0:
320,192,113604,1,8,2:0:0:0:
64,192,113947,128,2,116690:2:0:0:65:
448,192,113947,1,0,0:0:0:0:
320,192,114119,1,2,2:0:0:65:
448,192,114633,1,0,0:0:0:0:
192,192,114976,1,2,2:0:0:65:
448,192,115147,1,2,2:0:0:65:
192,192,115661,1,0,0:0:0:0:
448,192,116004,1,0,0:0:0:0:
320,192,116347,1,0,0:0:0:0:
192,192,116690,1,2,2:0:0:65:
448,192,116690,1,0,0:0:0:0:
448,192,116861,1,2,2:0:0:65:
64,192,118061,1,2,0:0:0:0:
64,192,118233,1,2,0:0:0:0:
320,192,119433,1,2,0:0:0:0:
320,192,119604,1,2,0:0:0:0:
192,192,120804,1,2,0:0:0:0:
192,192,120976,1,2,0:0:0:0:
448,192,122176,1,2,0:0:0:0:
448,192,122347,1,2,0:0:0:0:
320,192,123547,1,2,0:0:0:0:
320,192,123719,1,2,0:0:0:0:
64,192,124919,1,2,0:0:0:0:
64,192,125090,1,2,0:0:0:0:
192,192,126290,1,2,0:0:0:0:
192,192,126461,1,2,0:0:0:0:
64,192,127661,1,4,2:0:0:0:
448,192,127661,1,4,1:0:0:0:
320,192,128004,1,0,0:0:0:0:
192,192,128347,1,0,0:0:0:0:
448,192,128690,1,0,0:0:0:0:
64,192,129033,1,2,2:0:0:0:
192,192,129376,1,0,0:0:0:0:
320,192,129719,1,0,0:0:0:0:
64,192,130061,1,0,0:0:0:0:
448,192,130404,1,2,2:0:0:0:
320,192,130747,1,0,0:0:0:0:
192,192,131090,1,0,0:0:0:0:
320,192,131433,1,0,0:0:0:0:
448,192,131776,1,2,2:0:0:0:
64,192,132119,1,0,0:0:0:0:
192,192,132461,1,0,0:0:0:0:
320,192,132804,1,0,0:0:0:0:
448,192,133147,1,2,2:0:0:0:
64,192,133319,1,0,0:0:0:0:
448,192,133490,1,0,0:0:0:0:
320,192,133833,1,0,0:0:0:0:
192,192,134176,1,0,0:0:0:0:
320,192,134347,1,0,0:0:0:0:
448,192,134519,1,2,2:0:0:0:
64,192,134861,1,0,0:0:0:0:
192,192,135204,1,0,0:0:0:0:
320,192,135547,1,0,0:0:0:0:
448,192,135890,1,2,2:0:0:0:
320,192,136061,1,0,0:0:0:0:
192,192,136233,1,0,0:0:0:0:
64,192,136576,1,0,0:0:0:0:
192,192,136919,1,0,0:0:0:0:
448,192,137261,1,2,2:0:0:0:
320,192,137604,1,0,0:0:0:0:
192,192,137947,1,0,0:0:0:0:
64,192,138290,1,0,0:0:0:0:
320,192,138633,1,8,1:0:0:0:
448,192,138633,1,2,2:0:0:0:
192,192,138861,1,2,1:0:0:0:
64,192,138861,1,2,2:0:0:0:
320,192,139090,1,2,2:0:0:0:
448,192,139090,1,2,1:0:0:0:
192,192,139319,1,8,1:0:0:0:
64,192,139319,1,2,2:0:0:0:
448,192,139490,128,0,140004:0:0:0:0:
192,192,140004,1,4,1:0:0:0:
64,192,140004,1,4,1:0:0:0:
448,192,140347,1,2,1:0:0:0:
320,192,140690,1,8,2:0:0:0:
64,192,140690,1,8,1:0:0:0:
192,192,141033,1,2,1:0:0:0:
320,192,141376,1,2,1:0:0:0:
192,192,141719,1,2,1:0:0:0:
64,192,142061,1,8,2:0:0:0:
448,192,142061,1,8,1:0:0:0:
320,192,142404,1,2,1:0:0:0:
192,192,142747,1,2,1:0:0:0:
320,192,143090,1,2,1:0:0:0:
448,192,143433,1,8,2:0:0:0:
64,192,143433,1,8,1:0:0:0:
192,192,143776,1,2,1:0:0:0:
320,192,144119,1,2,1:0:0:0:
192,192,144461,1,2,1:0:0:0:
64,192,144804,1,8,1:0:0:0:
448,192,144804,1,8,2:0:0:0:
320,192,145147,1,2,1:0:0:0:
192,192,145490,1,2,1:0:0:0:
320,192,145833,1,2,1:0:0:0:
64,192,146176,1,8,2:0:0:0:
192,192,146176,1,8,1:0:0:0:
448,192,146519,1,2,1:0:0:0:
192,192,146861,1,2,1:0:0:0:
320,192,147033,1,0,0:0:0:0:
64,192,147204,1,2,1:0:0:0:
320,192,147547,1,8,1:0:0:0:
448,192,147547,1,8,2:0:0:0:
192,192,147890,1,2,1:0:0:0:
64,192,148233,1,2,1:0:0:0:
448,192,148576,1,2,1:0:0:0:
192,192,148919,1,8,2:0:0:0:
64,192,148919,1,8,1:0:0:0:
448,192,149261,1,2,1:0:0:0:
192,192,149604,1,2,1:0:0:0:
64,192,149947,1,2,1:0:0:0:
320,192,150290,1,8,1:0:0:0:
448,192,150290,1,8,2:0:0:0:
192,192,150633,1,2,1:0:0:0:
64,192,150976,1,4,1:0:0:0:
448,192,150976,1,4,2:0:0:0:
320,192,151319,1,2,1:0:0:0:
192,192,151319,1,0,0:0:0:0:
64,192,151661,1,8,2:0:0:0:
192,192,151661,1,8,1:0:0:0:
320,192,152004,1,2,1:0:0:0:
448,192,152004,1,0,0:0:0:0:
64,192,152347,1,2,1:0:0:0:
320,192,152347,1,0,0:0:0:0:
192,192,152690,1,2,1:0:0:0:
448,192,152690,1,0,0:0:0:0:
192,192,153033,1,8,1:0:0:0:
64,192,153033,1,8,2:0:0:0:
320,192,153376,1,2,1:0:0:0:
448,192,153376,1,0,0:0:0:0:
192,192,153719,1,2,2:0:0:0:
64,192,153719,1,0,0:0:0:0:
320,192,153890,1,2,2:0:0:0:
64,192,156519,1,4,1:0:0:0:
448,192,156519,1,4,2:0:0:0:
192,192,156804,1,2,1:0:0:0:
320,192,157147,1,8,2:0:0:0:
448,192,157147,1,8,1:0:0:0:
192,192,157490,1,2,1:0:0:0:
64,192,157833,1,2,1:0:0:0:
320,192,158176,1,2,1:0:0:0:
64,192,158519,1,8,2:0:0:0:
448,192,158519,1,8,1:0:0:0:
192,192,158861,1,2,1:0:0:0:
320,192,159204,1,4,2:0:0:0:
448,192,159204,1,4,1:0:0:0:
320,192,159461,1,0,0:0:0:0:
448,192,159461,1,0,0:0:0:0:
192,192,159661,1,0,0:0:0:0:
320,192,159776,1,0,0:0:0:0:
448,192,159890,1,8,1:0:0:0:
192,192,160576,1,4,1:0:0:0:
64,192,160576,1,4,2:0:0:0:
64,192,160833,1,0,0:0:0:0:
192,192,160833,1,0,0:0:0:0:
448,192,161033,1,0,0:0:0:0:
320,192,161147,1,0,0:0:0:0:
192,192,161261,1,8,2:0:0:0:
64,192,161947,1,4,2:0:0:0:
448,192,161947,1,4,2:0:0:0:
320,192,162176,1,0,0:0:0:0:
192,192,162404,1,0,0:0:0:0:
320,192,162519,1,0,0:0:0:0:
64,192,162633,1,4,1:0:0:0:
448,192,162633,1,4,1:0:0:0:
192,192,162861,1,0,0:0:0:0:
320,192,163090,1,0,0:0:0:0:
192,192,163204,1,0,0:0:0:0:
64,192,163319,1,4,2:0:0:0:
448,192,163319,1,4,2:0:0:0:
320,192,163547,1,0,0:0:0:0:
192,192,163776,1,0,0:0:0:0:
64,192,164004,1,4,1:0:0:0:
448,192,164004,128,4,164690:1:0:0:0:
192,192,164690,1,4,2:0:0:0:
64,192,164690,1,4,1:0:0:0:
448,192,165376,1,8,2:0:0:0:
64,192,165376,1,8,1:0:0:0:
320,192,166061,1,2,1:0:0:0:
320,192,166404,1,2,1:0:0:0:
448,192,166747,1,8,2:0:0:0:
64,192,166747,1,8,1:0:0:0:
192,192,167433,1,2,1:0:0:0:
320,192,168119,1,8,1:0:0:0:
448,192,168119,1,8,2:0:0:0:
64,192,168804,1,2,1:0:0:0:
64,192,169147,1,2,1:0:0:0:
320,192,169490,1,8,1:0:0:0:
448,192,169490,128,8,170176:2:0:0:0:
192,192,170176,1,8,1:0:0:0:
64,192,170176,1,12,2:0:0:0:
320,192,170404,1,2,1:0:0:0:
192,192,170404,1,2,2:0:0:0:
320,192,170633,1,2,1:0:0:0:
448,192,170633,1,2,2:0:0:0:
448,192,170861,1,8,2:0:0:0:
64,192,170861,1,8,1:0:0:0:
320,192,171090,1,2,2:0:0:0:
64,192,171090,1,2,1:0:0:0:
192,192,171319,1,2,1:0:0:0:
64,192,171319,1,2,2:0:0:0:
448,192,171547,128,4,172919:2:0:0:0:
192,192,172919,1,2,1:0:0:0:
64,192,172919,1,2,2:0:0:0:
448,192,173090,1,2,1:0:0:0:
320,192,174633,1,2,2:0:0:0:
448,192,174633,1,0,0:0:0:0:
192,192,175147,1,2,2:0:0:0:
64,192,175147,1,0,0:0:0:0:
64,192,178404,1,2,2:0:0:0:
448,192,178404,1,0,0:0:0:0:
320,192,178576,1,2,2:0:0:0:
192,192,180119,1,2,2:0:0:0:
448,192,180119,1,0,0:0:0:0:
64,192,180633,1,2,2:0:0:0:
320,192,180633,1,0,0:0:0:0:
64,192,182519,128,0,183890:0:0:0:0:
320,192,183890,1,2,2:0:0:0:
448,192,183890,1,0,0:0:0:0:
64,192,184061,1,2,2:0:0:0:
64,192,186633,1,2,2:0:0:0:
320,192,186633,1,0,0:0:0:0:
192,192,186804,1,2,2:0:0:0:
320,192,189376,1,6,2:0:0:0:
448,192,189376,1,4,1:0:0:0:
64,192,190061,1,0,0:0:0:0:
192,192,190290,1,0,0:0:0:0:
320,192,190519,1,0,0:0:0:0:
448,192,190747,1,2,1:0:0:0:
192,192,191090,1,0,0:0:0:0:
320,192,191433,1,0,0:0:0:0:
192,192,191661,1,0,0:0:0:0:
64,192,191890,1,0,0:0:0:0:
448,192,192119,1,0,0:0:0:0:
192,192,192804,1,0,0:0:0:0:
320,192,193033,1,0,0:0:0:0:
448,192,193261,1,0,0:0:0:0:
64,192,193490,1,0,0:0:0:0:
192,192,193833,1,0,0:0:0:0:
448,192,194176,1,4,2:0:0:0:
320,192,194404,1,0,0:0:0:0:
192,192,194633,1,0,0:0:0:0:
64,192,194861,128,6,196233:2:0:0:0:
448,192,194861,1,4,2:0:0:0:
448,192,196233,128,2,196919:1:0:0:0:
192,192,196919,128,8,197604:2:0:0:0:
320,192,197604,128,2,198633:1:0:0:0:
64,192,198633,1,0,0:0:0:0:
192,192,198804,1,0,0:0:0:0:
320,192,198976,1,2,1:0:0:0:
192,192,199147,1,0,0:0:0:0:
64,192,199319,128,2,199661:1:0:0:0:
448,192,199661,1,8,2:0:0:0:
320,192,200004,128,0,200347:0:0:0:0:
192,192,200347,128,2,201033:1:0:0:0:
448,192,201033,1,8,2:0:0:0:
64,192,201376,1,0,0:0:0:0:
192,192,201547,1,0,0:0:0:0:
448,192,201719,128,2,202061:1:0:0:0:
192,192,202061,128,2,202404:1:0:0:0:
320,192,202404,128,8,202747:2:0:0:0:
64,192,202747,128,0,203090:0:0:0:0:
192,192,203090,1,2,2:0:0:0:
448,192,203090,128,2,203604:1:0:0:0:
64,192,203776,128,0,204004:0:0:0:0:
192,192,204004,128,0,204233:0:0:0:0:
320,192,204233,128,0,204461:0:0:0:0:
448,192,204461,128,2,205147:1:0:0:0:
64,192,204461,1,0,0:0:0:0:
192,192,205147,1,0,0:0:0:0:
64,192,205833,1,4,2:0:0:0:
448,192,205833,1,4,1:0:0:0:
192,192,206519,1,8,2:0:0:0:
448,192,206519,1,0,0:0:0:0:
64,192,207204,1,2,1:0:0:0:
64,192,207547,1,2,1:0:0:0:
320,192,207890,1,8,2:0:0:0:
448,192,207890,1,0,0:0:0:0:
192,192,208576,1,2,1:0:0:0:
64,192,209261,1,8,2:0:0:0:
448,192,209261,1,0,0:0:0:0:
320,192,209947,1,2,1:0:0:0:
320,192,210290,1,2,1:0:0:0:
192,192,210633,1,8,2:0:0:0:
64,192,210633,1,0,0:0:0:0:
192,192,211319,1,4,2:0:0:0:
448,192,211319,1,4,1:0:0:0:
64,192,212004,1,8,2:0:0:0:
320,192,212004,1,0,0:0:0:0:
192,192,212690,1,2,1:0:0:0:
192,192,213033,1,2,1:0:0:0:
64,192,213376,1,8,2:0:0:0:
448,192,213376,1,0,0:0:0:0:
320,192,214061,1,2,1:0:0:0:
192,192,214747,1,8,2:0:0:0:
448,192,214747,1,0,0:0:0:0:
64,192,215433,1,2,1:0:0:0:
64,192,215776,1,2,1:0:0:0:
320,192,216119,1,8,2:0:0:0:
448,192,216119,1,0,0:0:0:0:
448,192,216804,1,4,2:0:0:0:
64,192,216804,128,4,221947:1:0:0:0:
448,192,217490,1,8,2:0:0:0:
192,192,218176,1,2,1:0:0:0:
320,192,218519,1,2,1:0:0:0:
448,192,218861,1,8,2:0:0:0:
192,192,219547,1,2,1:0:0:0:
448,192,220233,1,8,2:0:0:0:
320,192,220919,1,2,1:0:0:0:
320,192,221261,1,2,1:0:0:0:
448,192,221604,1,8,2:0:0:0:
64,192,222290,1,4,2:0:0:0:
448,192,222290,1,4,1:0:0:0:
192,192,222633,1,0,0:0:0:0:
320,192,222976,1,8,2:0:0:0:
448,192,222976,1,0,0:0:0:0:
192,192,223319,1,0,0:0:0:0:
64,192,223661,1,2,1:0:0:0:
64,192,224004,1,2,1:0:0:0:
320,192,224347,1,8,2:0:0:0:
448,192,224347,1,0,0:0:0:0:
192,192,224690,1,0,0:0:0:0:
64,192,225033,1,2,1:0:0:0:
192,192,225376,1,0,0:0:0:0:
320,192,225719,1,8,2:0:0:0:
448,192,225719,1,0,0:0:0:0:
64,192,226061,1,0,0:0:0:0:
320,192,226404,1,2,1:0:0:0:
320,192,226747,1,2,1:0:0:0:
64,192,227090,1,8,2:0:0:0:
448,192,227090,128,0,227776:0:0:0:0:
192,192,227776,1,4,2:0:0:0:
64,192,227776,1,4,1:0:0:0:
320,192,241490,5,8,1:0:0:0:
448,192,241490,1,2,2:0:0:0:
320,192,241719,1,2,1:0:0:0:
448,192,241719,1,2,2:0:0:0:
64,192,241947,128,2,242176:2:0:0:0:
192,192,242176,1,8,1:0:0:0:
448,192,242176,1,2,2:0:0:0:
320,192,242404,1,8,1:0:0:0:
192,192,242633,1,2,1:0:0:0:
64,192,242861,1,10,2:0:0:0:
448,192,242861,1,8,2:0:0:0:
448,192,243090,1,10,2:0:0:0:
448,192,243319,1,10,2:0:0:0:
448,192,243547,1,10,2:0:0:0:
64,192,243547,1,8,2:0:0:0:
192,192,243719,128,0,244233:0:0:0:0:
64,192,244233,1,4,1:0:0:0:
448,192,244233,1,4,1:0:0:0:
320,192,244490,1,0,0:0:0:0:
64,192,244576,1,2,1:0:0:0:
192,192,244747,1,0,0:0:0:0:
320,192,244919,1,8,2:0:0:0:
448,192,244919,1,8,1:0:0:0:
64,192,245090,1,0,0:0:0:0:
448,192,245261,1,2,1:0:0:0:
320,192,245433,1,0,0:0:0:0:
192,192,245604,1,2,1:0:0:0:
448,192,245776,1,0,0:0:0:0:
64,192,245947,1,2,1:0:0:0:
192,192,246119,1,0,0:0:0:0:
320,192,246290,1,8,2:0:0:0:
448,192,246290,1,8,1:0:0:0:
64,192,246461,1,0,0:0:0:0:
320,192,246633,1,2,1:0:0:0:
192,192,246804,1,0,0:0:0:0:
448,192,246976,1,2,1:0:0:0:
64,192,247147,1,0,0:0:0:0:
192,192,247319,1,2,1:0:0:0:
320,192,247490,1,0,0:0:0:0:
64,192,247661,1,8,2:0:0:0:
448,192,247661,1,8,1:0:0:0:
192,192,247833,1,0,0:0:0:0:
320,192,248004,1,2,1:0:0:0:
192,192,248176,1,0,0:0:0:0:
64,192,248347,1,2,1:0:0:0:
448,192,248519,1,0,0:0:0:0:
320,192,248690,1,2,1:0:0:0:
192,192,248861,1,0,0:0:0:0:
64,192,249033,1,8,1:0:0:0:
448,192,249033,1,8,2:0:0:0:
320,192,249204,1,0,0:0:0:0:
192,192,249376,1,2,1:0:0:0:
448,192,249547,1,0,0:0:0:0:
64,192,249719,1,2,1:0:0:0:
192,192,249890,1,0,0:0:0:0:
448,192,250061,1,2,1:0:0:0:
320,192,250233,1,0,0:0:0:0:
192,192,250404,1,8,2:0:0:0:
64,192,250404,1,8,1:0:0:0:
448,192,250576,1,0,0:0:0:0:
64,192,250747,1,2,1:0:0:0:
192,192,250919,1,0,0:0:0:0:
320,192,251090,1,2,1:0:0:0:
64,192,251261,1,0,0:0:0:0:
448,192,251433,1,2,1:0:0:0:
192,192,251604,1,0,0:0:0:0:
320,192,251776,1,8,1:0:0:0:
64,192,251776,1,8,2:0:0:0:
448,192,251947,1,0,0:0:0:0:
64,192,252119,1,2,1:0:0:0:
192,192,252290,1,0,0:0:0:0:
320,192,252461,1,2,1:0:0:0:
64,192,252633,1,0,0:0:0:0:
192,192,252804,1,2,1:0:0:0:
320,192,252976,1,0,0:0:0:0:
448,192,253147,1,8,2:0:0:0:
64,192,253147,1,8,1:0:0:0:
192,192,253319,1,0,0:0:0:0:
320,192,253490,1,2,1:0:0:0:
192,192,253661,1,0,0:0:0:0:
64,192,253833,1,2,1:0:0:0:
320,192,254004,1,0,0:0:0:0:
192,192,254176,1,2,1:0:0:0:
448,192,254347,1,0,0:0:0:0:
192,192,254519,1,8,1:0:0:0:
64,192,254519,1,8,2:0:0:0:
320,192,254690,1,8,3:0:0:0:
448,192,254861,1,2,1:0:0:0:
192,192,255033,1,8,2:0:0:0:
64,192,255204,1,4,1:0:0:0:
320,192,255204,1,4,2:0:0:0:
448,192,255376,1,0,0:0:0:0:
320,192,255547,1,2,1:0:0:0:
192,192,255719,1,0,0:0:0:0:
64,192,255890,1,8,2:0:0:0:
192,192,256061,1,0,0:0:0:0:
448,192,256233,1,2,1:0:0:0:
320,192,256404,1,0,0:0:0:0:
192,192,256576,1,2,1:0:0:0:
448,192,256747,1,8,2:0:0:0:
320,192,256833,1,2,1:0:0:0:
192,192,256919,1,2,1:0:0:0:
320,192,257090,1,8,2:0:0:0:
448,192,257261,1,8,1:0:0:0:
64,192,257433,1,0,0:0:0:0:
192,192,257604,1,2,1:0:0:0:
320,192,257776,1,2,1:0:0:0:
64,192,257947,1,2,2:0:0:0:
448,192,257947,1,0,0:0:0:0:
192,192,258119,1,2,2:0:0:0:
64,192,260747,1,4,1:0:0:0:
192,192,260747,1,4,2:0:0:0:
320,192,261033,1,2,1:0:0:0:
64,192,261376,1,8,2:0:0:0:
448,192,261376,1,8,1:0:0:0:
192,192,261719,1,2,1:0:0:0:
320,192,262061,1,2,1:0:0:0:
448,192,262061,1,0,0:0:0:0:
64,192,262404,1,2,1:0:0:0:
320,192,262747,1,8,2:0:0:0:
448,192,262747,1,8,1:0:0:0:
64,192,262919,1,0,0:0:0:0:
192,192,263090,1,2,1:0:0:0:
320,192,263261,1,0,0:0:0:0:
64,192,263433,1,4,2:0:0:0:
448,192,263433,1,4,1:0:0:0:
192,192,263690,1,0,0:0:0:0:
320,192,263690,1,0,0:0:0:0:
448,192,263890,1,0,0:0:0:0:
320,192,264004,1,0,0:0:0:0:
192,192,264119,1,8,1:0:0:0:
64,192,264119,1,8,2:0:0:0:
64,192,264804,1,4,1:0:0:0:
320,192,264804,1,4,2:0:0:0:
192,192,265061,1,0,0:0:0:0:
448,192,265061,1,0,0:0:0:0:
64,192,265261,1,0,0:0:0:0:
192,192,265376,1,0,0:0:0:0:
320,192,265490,1,8,2:0:0:0:
448,192,265490,1,8,1:0:0:0:
448,192,266176,1,4,2:0:0:0:
320,192,266176,1,4,2:0:0:0:
192,192,266404,1,0,0:0:0:0:
64,192,266404,1,0,0:0:0:0:
448,192,266633,1,0,0:0:0:0:
320,192,266747,1,0,0:0:0:0:
192,192,266861,1,4,1:0:0:0:
64,192,266861,1,4,1:0:0:0:
320,192,267090,1,0,0:0:0:0:
448,192,267090,1,0,0:0:0:0:
64,192,267319,1,0,0:0:0:0:
192,192,267433,1,0,0:0:0:0:
320,192,267547,1,4,2:0:0:0:
448,192,267547,1,4,2:0:0:0:
320,192,267776,1,0,0:0:0:0:
448,192,267776,1,0,0:0:0:0:
320,192,268004,1,0,0:0:0:0:
448,192,268004,1,0,0:0:0:0:
64,192,268233,1,4,1:0:0:0:
192,192,268233,1,4,1:0:0:0:
448,192,268404,1,0,0:0:0:0:
320,192,268519,1,0,0:0:0:0:
192,192,268633,128,0,268919:0:0:0:0:
64,192,268919,128,4,271661:2:0:0:0:
448,192,268919,128,4,271661:1:0:0:0:
320,192,269604,1,8,2:0:0:0:
192,192,270290,1,2,1:0:0:0:
192,192,270633,1,2,1:0:0:0:
320,192,270976,1,8,2:0:0:0:
192,192,271661,1,2,1:0:0:0:
64,192,272347,1,8,1:0:0:0:
448,192,272347,1,8,2:0:0:0:
320,192,273033,1,2,1:0:0:0:
320,192,273376,1,2,1:0:0:0:
192,192,273719,1,8,1:0:0:0:
64,192,273719,1,8,2:0:0:0:
64,192,274404,1,12,1:0:0:0:
448,192,274404,128,4,275090:2:0:0:0:
192,192,275090,128,0,275776:0:0:0:0:
64,192,275776,128,0,276461:0:0:0:0:
448,192,276461,1,0,0:0:0:0:
320,192,276690,1,0,0:0:0:0:
64,192,276919,1,0,0:0:0:0:
192,192,277147,128,0,277833:0:0:0:0:
320,192,277833,128,0,278519:0:0:0:0:
448,192,278519,128,0,279204:0:0:0:0:
192,192,279204,128,0,279890:0:0:0:0:
64,192,279890,128,0,282633:0:0:0:0:
448,192,280576,128,0,282633:0:0:0:0:
192,192,282633,1,2,1:0:0:0:
320,192,282633,1,2,2:0:0:0:
