osu file format v14

[General]
AudioFilename: audio.mp3
AudioLeadIn: 0
PreviewTime: 54966
Countdown: 0
SampleSet: Normal
StackLeniency: 0.7
Mode: 3
LetterboxInBreaks: 0
SpecialStyle: 0
WidescreenStoryboard: 0

[Editor]
Bookmarks: 171547,194861,227776
DistanceSpacing: 1.6
BeatDivisor: 4
GridSize: 4
TimelineZoom: 1.7

[Metadata]
Title:KABANERI OF THE IRON FORTRESS
TitleUnicode:KABANERI OF THE IRON FORTRESS
Artist:EGOIST
ArtistUnicode:EGOIST
Creator:Wonki
Version:KABANERI // 4K
Source:
Tags:Fontes LordRaika Kim_GodSSI 甲鉄城のカバネリ koutetsujou no kabaneri kabaneri of the iron fortress supercell
BeatmapID:1290576
BeatmapSetID:611325

[Difficulty]
HPDrainRate:8.5
CircleSize:4
OverallDifficulty:8.5
ApproachRate:5
SliderMultiplier:1.4
SliderTickRate:1

[Events]
//Background and Video events
0,0,"56838849_p0.jpg",0,0
//Break Periods
//Storyboard Layer 0 (Background)
//Storyboard Layer 1 (Fail)
//Storyboard Layer 2 (Pass)
//Storyboard Layer 3 (Foreground)
//Storyboard Sound Samples

[TimingPoints]
119,342.857142857143,4,1,66,32,1,0
12290,-117.647058823529,4,1,66,32,0,0
31661,-19.4552529182879,4,1,66,32,0,0
31683,-212.765957446809,4,1,66,32,0,0
31833,-19.4552529182879,4,1,66,32,0,0
31855,-212.765957446809,4,1,66,32,0,0
31876,-117.647058823529,4,1,66,32,0,0
33033,-19.4552529182879,4,1,66,32,0,0
33055,-212.765957446809,4,1,66,32,0,0
33204,-19.4552529182879,4,1,66,32,0,0
33226,-212.765957446809,4,1,66,32,0,0
33247,-117.647058823529,4,1,66,32,0,0
34404,-19.4552529182879,4,1,66,32,0,0
34426,-212.765957446809,4,1,66,32,0,0
34576,-19.4552529182879,4,1,66,32,0,0
34598,-212.765957446809,4,1,66,32,0,0
34619,-117.647058823529,4,1,66,32,0,0
35776,-19.4552529182879,4,1,66,32,0,0
35798,-212.765957446809,4,1,66,32,0,0
35948,-19.4552529182879,4,1,66,32,0,0
35970,-212.765957446809,4,1,66,32,0,0
35990,-117.647058823529,4,1,66,32,0,0
37147,-19.4552529182879,4,1,66,32,0,0
37169,-212.765957446809,4,1,66,32,0,0
37319,-19.4552529182879,4,1,66,32,0,0
37341,-212.765957446809,4,1,66,32,0,0
37361,-117.647058823529,4,1,66,32,0,0
38519,-19.4552529182879,4,1,66,32,0,0
38541,-212.765957446809,4,1,66,32,0,0
38691,-19.4552529182879,4,1,66,32,0,0
38713,-212.765957446809,4,1,66,32,0,0
38733,-117.647058823529,4,1,66,32,0,0
39890,-19.4552529182879,4,1,66,32,0,0
39912,-212.765957446809,4,1,66,32,0,0
40062,-19.4552529182879,4,1,66,32,0,0
40084,-212.765957446809,4,1,66,32,0,0
40104,-117.647058823529,4,1,66,32,0,0
41261,-19.4552529182879,4,1,66,32,0,0
41283,-212.765957446809,4,1,66,32,0,0
41433,-19.4552529182879,4,1,66,32,0,0
41455,-212.765957446809,4,1,66,32,0,0
41476,-117.647058823529,4,1,66,32,0,0
42633,-111.111111111111,4,1,66,32,0,0
45376,-105.263157894737,4,1,66,32,0,0
48119,-100,4,1,66,32,0,0
50861,-95.2380952380952,4,1,66,32,0,0
52233,-90.9090909090909,4,1,66,32,0,0
52576,-86.9565217391304,4,1,66,32,0,0
52919,-85.1063829787234,4,1,66,32,0,0
53261,-83.3333333333333,4,1,66,32,0,0
53604,-41.6666666666667,4,1,66,32,0,0
53661,-166.666666666667,4,1,66,32,0,0
53833,-41.6666666666667,4,1,66,32,0,0
53890,-166.666666666667,4,1,66,32,0,0
54061,-41.6666666666667,4,1,66,32,0,0
54118,-166.666666666667,4,1,66,32,0,0
54290,-41.6666666666667,4,1,66,32,0,0
54347,-166.666666666667,4,1,66,32,0,0
54461,-100,4,1,66,32,0,0
54976,-100,4,1,66,32,0,1
68690,-19.2307692307692,4,1,66,32,0,0
68711,-200,4,1,66,32,0,0
68861,-19.2307692307692,4,1,66,32,0,0
70576,-100,4,1,66,32,0,0
74176,-41.1522633744856,4,1,66,32,0,0
74219,-149.253731343284,4,1,66,32,0,0
74433,-41.1522633744856,4,1,66,32,0,0
74476,-149.253731343284,4,1,66,32,0,0
74633,-100,4,1,66,32,0,0
74861,-19.2307692307692,4,1,66,32,0,0
75033,-156.25,4,1,66,32,0,0
75376,-100,4,1,66,32,0,0
75547,-41.1522633744856,4,1,66,32,0,0
75590,-149.253731343284,4,1,66,32,0,0
75804,-41.1522633744856,4,1,66,32,0,0
75847,-149.253731343284,4,1,66,32,0,0
76004,-100,4,1,66,32,0,0
76233,-19.2307692307692,4,1,66,32,0,0
76405,-138.888888888889,4,1,66,32,0,0
76919,-41.1522633744856,4,1,66,32,0,0
76976,-149.253731343284,4,1,66,32,0,0
77147,-41.1522633744856,4,1,66,32,0,0
77204,-149.253731343284,4,1,66,32,0,0
77376,-100,4,1,66,32,0,0
77604,-41.1522633744856,4,1,66,32,0,0
77661,-149.253731343284,4,1,66,32,0,0
77833,-41.1522633744856,4,1,66,32,0,0
77890,-149.253731343284,4,1,66,32,0,0
78061,-100,4,1,66,32,0,0
78290,-41.1522633744856,4,1,66,32,0,0
78347,-149.253731343284,4,1,66,32,0,0
78519,-41.1522633744856,4,1,66,32,0,0
78576,-149.253731343284,4,1,66,32,0,0
78747,-41.1522633744856,4,1,66,32,0,0
78804,-149.253731343284,4,1,66,32,0,0
78976,-100,4,1,66,32,0,0
80347,-57.1428571428571,4,1,66,32,0,0
80404,-117.647058823529,4,1,66,32,0,0
80576,-57.1428571428571,4,1,66,32,0,0
80633,-117.647058823529,4,1,66,32,0,0
80804,-57.1428571428571,4,1,66,32,0,0
80861,-117.647058823529,4,1,66,32,0,0
81033,-100,4,1,66,32,0,0
81719,-57.1428571428571,4,1,66,32,0,0
81776,-117.647058823529,4,1,66,32,0,0
81948,-57.1428571428571,4,1,66,32,0,0
82005,-117.647058823529,4,1,66,32,0,0
82176,-57.1428571428571,4,1,66,32,0,0
82233,-117.647058823529,4,1,66,32,0,0
82405,-100,4,1,66,32,0,0
85147,-41.6666666666667,4,1,66,32,0,0
85204,-166.666666666667,4,1,66,32,0,0
85376,-41.6666666666667,4,1,66,32,0,0
85433,-166.666666666667,4,1,66,32,0,0
85604,-41.6666666666667,4,1,66,32,0,0
85661,-166.666666666667,4,1,66,32,0,0
85833,-41.6666666666667,4,1,66,32,0,0
85890,-166.666666666667,4,1,66,32,0,0
86061,-41.6666666666667,4,1,66,32,0,0
86118,-166.666666666667,4,1,66,32,0,0
86290,-41.6666666666667,4,1,66,32,0,0
86347,-166.666666666667,4,1,66,32,0,0
86519,-117.647058823529,4,1,66,32,0,0
91833,-60.6060606060606,4,1,66,32,0,0
91876,-2000,4,1,66,32,0,0
91919,-60.6060606060606,4,1,66,32,0,0
91962,-2000,4,1,66,32,0,0
92004,-200,4,1,66,32,0,0
92090,-192.307692307692,4,1,66,32,0,0
92176,-185.185185185185,4,1,66,32,0,0
92261,-181.818181818182,4,1,66,32,0,0
92347,-175.438596491228,4,1,66,32,0,0
92433,-169.491525423729,4,1,66,32,0,0
92519,-163.934426229508,4,1,66,32,0,0
92604,-158.730158730159,4,1,66,32,0,0
92690,-153.846153846154,4,1,66,32,0,0
92776,-149.253731343284,4,1,66,32,0,0
92861,-142.857142857143,4,1,66,32,0,0
92947,-138.888888888889,4,1,66,32,0,0
93033,-135.135135135135,4,1,66,32,0,0
93119,-131.578947368421,4,1,66,32,0,0
93204,-128.205128205128,4,1,66,32,0,0
93290,-125,4,1,66,32,0,0
93376,-121.951219512195,4,1,66,32,0,0
93461,-119.047619047619,4,1,66,32,0,0
93547,-116.279069767442,4,1,66,32,0,0
93633,-113.636363636364,4,1,66,32,0,0
93719,-111.111111111111,4,1,66,32,0,0
93804,-109.89010989011,4,1,66,32,0,0
93890,-108.695652173913,4,1,66,32,0,0
93976,-107.52688172043,4,1,66,32,0,0
94061,-106.382978723404,4,1,66,32,0,0
94147,-105.263157894737,4,1,66,32,0,0
94233,-104.166666666667,4,1,66,32,0,0
94319,-103.092783505155,4,1,66,32,0,0
94404,-102.040816326531,4,1,66,32,0,0
94490,-101.010101010101,4,1,66,32,0,0
94576,-100,4,1,66,32,0,0
94661,-99.009900990099,4,1,66,32,0,0
94747,-98.0392156862745,4,1,66,32,0,0
94833,-97.0873786407767,4,1,66,32,0,0
94919,-96.1538461538461,4,1,66,32,0,0
95004,-95.2380952380952,4,1,66,32,0,0
95090,-94.3396226415094,4,1,66,32,0,0
95176,-93.4579439252336,4,1,66,32,0,0
95261,-92.5925925925926,4,1,66,32,0,0
95347,-91.743119266055,4,1,66,32,0,0
95433,-90.9090909090909,4,1,66,32,0,0
95519,-90.0900900900901,4,1,66,32,0,0
95604,-89.2857142857143,4,1,66,32,0,0
95690,-88.4955752212389,4,1,66,32,0,0
95776,-87.719298245614,4,1,66,32,0,0
95861,-86.9565217391304,4,1,66,32,0,0
95947,-86.2068965517241,4,1,66,32,0,0
96033,-85.4700854700855,4,1,66,32,0,0
96119,-84.7457627118644,4,1,66,32,0,0
96204,-84.0336134453781,4,1,66,32,0,0
96290,-83.3333333333333,4,1,66,32,0,0
96376,-81.9672131147541,4,1,66,32,0,0
96461,-80.6451612903226,4,1,66,32,0,0
96547,-79.3650793650794,4,1,66,32,0,0
96633,-78.125,4,1,66,32,0,0
96719,-76.9230769230769,4,1,66,32,0,0
96804,-75.7575757575758,4,1,66,32,0,0
96890,-74.6268656716418,4,1,66,32,0,0
96976,-73.5294117647059,4,1,66,32,0,0
97061,-72.463768115942,4,1,66,32,0,0
97147,-71.4285714285714,4,1,66,32,0,0
97233,-100,4,1,66,32,0,0
97319,-117.647058823529,4,2,66,15,0,0
108290,-117.647058823529,4,1,66,32,0,0
116690,-19.4552529182879,4,1,66,32,0,0
116712,-212.765957446809,4,1,66,32,0,0
116862,-19.4552529182879,4,1,66,32,0,0
116884,-212.765957446809,4,1,66,32,0,0
116904,-117.647058823529,4,1,66,32,0,0
118062,-19.4552529182879,4,1,66,32,0,0
118084,-212.765957446809,4,1,66,32,0,0
118233,-19.4552529182879,4,1,66,32,0,0
118255,-212.765957446809,4,1,66,32,0,0
118276,-117.647058823529,4,1,66,32,0,0
119433,-19.4552529182879,4,1,66,32,0,0
119455,-212.765957446809,4,1,66,32,0,0
119605,-19.4552529182879,4,1,66,32,0,0
119627,-212.765957446809,4,1,66,32,0,0
119647,-117.647058823529,4,1,66,32,0,0
120804,-19.4552529182879,4,1,66,32,0,0
120826,-212.765957446809,4,1,66,32,0,0
120976,-19.4552529182879,4,1,66,32,0,0
120998,-212.765957446809,4,1,66,32,0,0
121019,-117.647058823529,4,1,66,32,0,0
122176,-19.4552529182879,4,1,66,32,0,0
122198,-212.765957446809,4,1,66,32,0,0
122347,-19.4552529182879,4,1,66,32,0,0
122369,-212.765957446809,4,1,66,32,0,0
122390,-117.647058823529,4,1,66,32,0,0
123547,-19.4552529182879,4,1,66,32,0,0
123569,-212.765957446809,4,1,66,32,0,0
123719,-19.4552529182879,4,1,66,32,0,0
123741,-212.765957446809,4,1,66,32,0,0
123761,-117.647058823529,4,1,66,32,0,0
124919,-19.4552529182879,4,1,66,32,0,0
124941,-212.765957446809,4,1,66,32,0,0
125091,-19.4552529182879,4,1,66,32,0,0
125113,-212.765957446809,4,1,66,32,0,0
125133,-117.647058823529,4,1,66,32,0,0
126290,-19.4552529182879,4,1,66,32,0,0
126312,-212.765957446809,4,1,66,32,0,0
126462,-19.4552529182879,4,1,66,32,0,0
126484,-212.765957446809,4,1,66,32,0,0
126504,-117.647058823529,4,1,66,32,0,0
126976,-111.111111111111,4,1,66,32,0,0
127319,-105.263157894737,4,1,66,32,0,0
127661,-100,4,1,66,32,0,0
138633,-41.6666666666667,4,1,66,32,0,0
138690,-166.666666666667,4,1,66,32,0,0
138862,-41.6666666666667,4,1,66,32,0,0
138919,-166.666666666667,4,1,66,32,0,0
139090,-41.6666666666667,4,1,66,32,0,0
139147,-166.666666666667,4,1,66,32,0,0
139319,-41.6666666666667,4,1,66,32,0,0
139361,-166.666666666667,4,1,66,32,0,0
139490,-100,4,1,66,32,0,0
140004,-100,4,1,66,32,0,1
153719,-19.2307692307692,4,1,66,32,0,0
153740,-200,4,1,66,32,0,0
153890,-19.2307692307692,4,1,66,32,0,0
155605,-100,4,1,66,32,0,0
159204,-41.1522633744856,4,1,66,32,0,0
159247,-149.253731343284,4,1,66,32,0,0
159461,-41.1522633744856,4,1,66,32,0,0
159504,-149.253731343284,4,1,66,32,0,0
159661,-100,4,1,66,32,0,0
159889,-19.2307692307692,4,1,66,32,0,0
160061,-156.25,4,1,66,32,0,0
160404,-100,4,1,66,32,0,0
160575,-41.1522633744856,4,1,66,32,0,0
160618,-149.253731343284,4,1,66,32,0,0
160832,-41.1522633744856,4,1,66,32,0,0
160875,-149.253731343284,4,1,66,32,0,0
161033,-100,4,1,66,32,0,0
161261,-19.2307692307692,4,1,66,32,0,0
161433,-138.888888888889,4,1,66,32,0,0
161947,-41.1522633744856,4,1,66,32,0,0
162004,-149.253731343284,4,1,66,32,0,0
162175,-41.1522633744856,4,1,66,32,0,0
162232,-149.253731343284,4,1,66,32,0,0
162404,-100,4,1,66,32,0,0
162632,-41.1522633744856,4,1,66,32,0,0
162689,-149.253731343284,4,1,66,32,0,0
162861,-41.1522633744856,4,1,66,32,0,0
162918,-149.253731343284,4,1,66,32,0,0
163089,-100,4,1,66,32,0,0
163318,-41.1522633744856,4,1,66,32,0,0
163375,-149.253731343284,4,1,66,32,0,0
163547,-41.1522633744856,4,1,66,32,0,0
163604,-149.253731343284,4,1,66,32,0,0
163775,-41.1522633744856,4,1,66,32,0,0
163832,-149.253731343284,4,1,66,32,0,0
164004,-100,4,1,66,32,0,0
170176,-41.6666666666667,4,1,66,32,0,0
170233,-166.666666666667,4,1,66,32,0,0
170405,-41.6666666666667,4,1,66,32,0,0
170462,-166.666666666667,4,1,66,32,0,0
170633,-41.6666666666667,4,1,66,32,0,0
170690,-166.666666666667,4,1,66,32,0,0
170862,-41.6666666666667,4,1,66,32,0,0
170919,-166.666666666667,4,1,66,32,0,0
171090,-41.6666666666667,4,1,66,32,0,0
171147,-166.666666666667,4,1,66,32,0,0
171319,-41.6666666666667,4,1,66,32,0,0
171376,-166.666666666667,4,1,66,32,0,0
171547,-142.857142857143,4,1,66,32,0,0
172919,-117.647058823529,4,1,66,32,0,0
175661,-100,4,1,66,32,0,0
183890,-117.647058823529,4,1,66,32,0,0
189376,-100,4,1,66,32,0,0
194861,-117.647058823529,4,1,66,32,0,0
227776,-166.666666666667,4,1,66,32,0,0
227861,-166.666666666667,4,1,66,12,0,0
238747,-153.846153846154,4,1,66,12,0,0
239433,-142.857142857143,4,1,66,12,0,0
240119,-133.333333333333,4,1,66,12,0,0
240804,-125,4,1,66,12,0,0
241490,-41.6666666666667,4,1,66,32,0,0
241547,-166.666666666667,4,1,66,32,0,0
241719,-41.6666666666667,4,1,66,32,0,0
241776,-166.666666666667,4,1,66,32,0,0
241947,-100,4,1,66,32,0,0
242176,-41.6666666666667,4,1,66,32,0,0
242233,-166.666666666667,4,1,66,32,0,0
242404,-41.6666666666667,4,1,66,32,0,0
242461,-166.666666666667,4,1,66,32,0,0
242633,-41.6666666666667,4,1,66,32,0,0
242690,-166.666666666667,4,1,66,32,0,0
242861,-41.6666666666667,4,1,66,32,0,0
242918,-166.666666666667,4,1,66,32,0,0
243090,-41.6666666666667,4,1,66,32,0,0
243147,-166.666666666667,4,1,66,32,0,0
243319,-41.6666666666667,4,1,66,32,0,0
243376,-166.666666666667,4,1,66,32,0,0
243547,-41.6666666666667,4,1,66,32,0,0
243590,-166.666666666667,4,1,66,32,0,0
243719,-100,4,1,66,32,0,0
244233,-100,4,1,66,32,0,1
257947,-100,4,1,66,32,0,0
263433,-41.1522633744856,4,1,66,32,0,0
263476,-149.253731343284,4,1,66,32,0,0
263690,-41.1522633744856,4,1,66,32,0,0
263733,-149.253731343284,4,1,66,32,0,0
263890,-100,4,1,66,32,0,0
264118,-19.2307692307692,4,1,66,32,0,0
264290,-156.25,4,1,66,32,0,0
264633,-100,4,1,66,32,0,0
264804,-41.1522633744856,4,1,66,32,0,0
264847,-149.253731343284,4,1,66,32,0,0
265061,-41.1522633744856,4,1,66,32,0,0
265104,-149.253731343284,4,1,66,32,0,0
265261,-100,4,1,66,32,0,0
265490,-19.2307692307692,4,1,66,32,0,0
265662,-138.888888888889,4,1,66,32,0,0
266176,-41.1522633744856,4,1,66,32,0,0
266233,-149.253731343284,4,1,66,32,0,0
266404,-41.1522633744856,4,1,66,32,0,0
266461,-149.253731343284,4,1,66,32,0,0
266633,-100,4,1,66,32,0,0
266861,-41.1522633744856,4,1,66,32,0,0
266918,-149.253731343284,4,1,66,32,0,0
267090,-41.1522633744856,4,1,66,32,0,0
267147,-149.253731343284,4,1,66,32,0,0
267318,-100,4,1,66,32,0,0
267547,-41.1522633744856,4,1,66,32,0,0
267604,-149.253731343284,4,1,66,32,0,0
267776,-41.1522633744856,4,1,66,32,0,0
267833,-149.253731343284,4,1,66,32,0,0
268004,-41.1522633744856,4,1,66,32,0,0
268061,-149.253731343284,4,1,66,32,0,0
268233,-100,4,1,66,32,0,0

[HitObjects]
64,192,804,5,4,2:0:0:0:
192,192,804,1,4,1:0:0:0:
320,192,804,1,4,1:0:0:0:
448,192,804,128,0,1319:0:0:0:0:
64,192,1319,1,0,0:0:0:0:
192,192,1404,1,0,0:0:0:0:
320,192,1490,128,0,2004:0:0:0:0:
448,192,2004,1,0,0:0:0:0:
320,192,2090,1,0,0:0:0:0:
64,192,2176,1,0,0:0:0:0:
192,192,2176,128,0,2861:0:0:0:0:
64,192,2433,1,0,0:0:0:0:
448,192,2433,1,0,0:0:0:0:
64,192,2861,128,0,2976:0:0:0:0:
448,192,2861,128,0,2976:0:0:0:0:
192,192,3090,128,0,3204:0:0:0:0:
448,192,3090,128,0,3204:0:0:0:0:
320,192,3319,128,0,3433:0:0:0:0:
448,192,3319,128,0,3433:0:0:0:0:
448,192,3547,128,0,4233:0:0:0:0:
64,192,3547,128,0,4061:0:0:0:0:
320,192,4061,1,0,0:0:0:0:
192,192,4147,1,0,0:0:0:0:
64,192,4233,128,0,4919:0:0:0:0:
448,192,4747,1,0,0:0:0:0:
192,192,4747,1,0,0:0:0:0:
320,192,4833,1,0,0:0:0:0:
448,192,4919,128,0,5604:0:0:0:0:
192,192,4919,1,0,0:0:0:0:
64,192,5147,1,0,0:0:0:0:
64,192,5376,1,0,0:0:0:0:
192,192,5604,128,0,6119:0:0:0:0:
448,192,6290,128,0,9033:0:0:0:0:
64,192,6290,128,0,6804:0:0:0:0:
320,192,6804,1,0,0:0:0:0:
192,192,6890,1,0,0:0:0:0:
64,192,6976,128,0,9033:0:0:0:0:
320,192,6976,128,0,9033:0:0:0:0:
64,192,9719,5,0,0:0:0:0:
192,192,9890,1,0,0:0:0:0:
320,192,10061,1,0,0:0:0:0:
448,192,10233,1,0,0:0:0:0:
64,192,10319,1,0,0:0:0:0:
320,192,10404,1,0,0:0:0:0:
192,192,10490,1,0,0:0:0:0:
448,192,10576,1,0,0:0:0:0:
64,192,10747,1,0,0:0:0:0:
192,192,10919,1,0,0:0:0:0:
448,192,11090,128,0,11776:0:0:0:0:
320,192,11090,1,0,0:0:0:0:
192,192,11261,1,0,0:0:0:0:
64,192,11433,1,0,0:0:0:0:
320,192,11604,128,0,11776:0:0:0:0:
64,192,11776,1,0,0:0:0:0:
64,192,11947,1,0,0:0:0:0:
64,192,12290,1,0,0:0:0:100:
192,192,12290,1,0,0:0:0:0:
320,192,12376,1,0,0:0:0:100:
448,192,12376,1,0,0:0:0:0:
192,192,12461,1,2,2:0:0:65:
64,192,12461,1,2,2:0:0:65:
448,192,12461,1,0,0:0:0:0:
192,192,12633,1,2,2:0:0:65:
64,192,12633,1,2,2:0:0:65:
448,192,12633,1,0,0:0:0:0:
320,192,12804,1,0,0:0:0:0:
64,192,12976,1,0,0:0:0:0:
448,192,13147,1,0,0:0:0:0:
320,192,13319,1,0,0:0:0:0:
192,192,13490,1,0,0:0:0:0:
320,192,13661,1,8,2:0:0:0:
448,192,13833,1,0,0:0:0:0:
192,192,14004,1,0,0:0:0:0:
64,192,14176,1,8,2:0:0:0:
320,192,14347,1,0,0:0:0:0:
192,192,14519,1,0,0:0:0:0:
320,192,14690,1,0,0:0:0:0:
448,192,14861,1,8,2:0:0:0:
192,192,15033,1,0,0:0:0:0:
320,192,15204,128,0,15376:0:0:0:0:
192,192,15376,128,0,15547:0:0:0:0:
64,192,15547,128,8,15719:2:0:0:0:
192,192,15719,128,0,15890:0:0:0:0:
320,192,15890,1,0,0:0:0:0:
448,192,16061,1,0,0:0:0:0:
192,192,16233,1,0,0:0:0:0:
64,192,16404,1,8,2:0:0:0:
448,192,16576,1,0,0:0:0:0:
320,192,16747,1,0,0:0:0:0:
192,192,16919,1,8,2:0:0:0:
320,192,17090,1,0,0:0:0:0:
448,192,17261,1,0,0:0:0:0:
192,192,17433,1,0,0:0:0:0:
64,192,17604,1,0,0:0:0:0:
320,192,17776,1,0,0:0:0:0:
64,192,17947,1,8,2:0:0:0:
192,192,17947,128,0,18119:0:0:0:0:
448,192,18119,128,0,18290:0:0:0:0:
64,192,18290,128,0,18461:0:0:0:0:
192,192,18461,128,0,18633:0:0:0:0:
320,192,18633,1,0,0:0:0:0:
192,192,18804,1,0,0:0:0:0:
64,192,18976,1,0,0:0:0:0:
448,192,19147,1,8,2:0:0:0:
320,192,19319,1,0,0:0:0:0:
192,192,19490,1,2,1:0:0:0:
320,192,19661,1,8,2:0:0:0:
64,192,19833,1,0,0:0:0:0:
192,192,20004,1,0,0:0:0:0:
320,192,20176,1,2,1:0:0:0:
448,192,20347,1,8,2:0:0:0:
192,192,20519,1,0,0:0:0:0:
320,192,20690,128,2,20861:1:0:0:0:
192,192,20861,128,2,21033:1:0:0:0:
64,192,21033,128,8,21204:2:0:0:0:
448,192,21204,128,0,21376:0:0:0:0:
192,192,21376,1,0,0:0:0:0:
320,192,21547,1,2,1:0:0:0:
448,192,21719,1,0,0:0:0:0:
192,192,21890,1,8,2:0:0:0:
320,192,22061,1,0,0:0:0:0:
448,192,22147,1,0,0:0:0:0:
64,192,22233,1,0,0:0:0:0:
192,192,22319,1,0,0:0:0:0:
320,192,22404,1,0,0:0:0:0:
448,192,22490,1,0,0:0:0:0:
64,192,22576,1,0,0:0:0:0:
192,192,22661,1,0,0:0:0:0:
320,192,22747,1,0,0:0:0:0:
448,192,22833,1,0,0:0:0:0:
192,192,22919,1,0,0:0:0:0:
64,192,23004,1,0,0:0:0:0:
448,192,23090,1,0,0:0:0:0:
320,192,23176,1,0,0:0:0:0:
192,192,23261,1,0,0:0:0:100:
64,192,23347,1,0,0:0:0:100:
192,192,23390,1,0,0:0:0:0:
320,192,23433,1,2,2:0:0:65:
448,192,23433,1,2,2:0:0:65:
320,192,23604,1,2,2:0:0:65:
448,192,23604,1,2,2:0:0:65:
64,192,23604,1,0,0:0:0:0:
192,192,23776,1,0,0:0:0:0:
320,192,23947,1,0,0:0:0:0:
192,192,24119,1,8,2:0:0:0:
320,192,24290,1,0,0:0:0:0:
448,192,24461,1,2,2:0:0:65:
192,192,24461,1,0,0:0:0:0:
64,192,24461,1,0,0:0:0:0:
64,192,24633,1,2,2:0:0:65:
192,192,24633,1,0,0:0:0:0:
448,192,24633,1,0,0:0:0:0:
320,192,24804,1,0,0:0:0:0:
192,192,24976,1,0,0:0:0:0:
64,192,25147,1,8,2:0:0:0:
320,192,25319,1,0,0:0:0:0:
192,192,25490,1,0,0:0:0:0:
320,192,25661,1,0,0:0:0:0:
448,192,25833,1,8,2:0:0:0:
192,192,26004,1,0,0:0:0:0:
320,192,26090,1,0,0:0:0:0:
448,192,26176,1,0,0:0:0:0:
64,192,26176,1,0,0:0:0:0:
192,192,26347,1,0,0:0:0:0:
320,192,26519,1,8,2:0:0:0:
192,192,26690,1,0,0:0:0:0:
64,192,26861,1,0,0:0:0:0:
320,192,27033,1,0,0:0:0:0:
448,192,27204,1,8,2:0:0:0:
192,192,27376,1,0,0:0:0:0:
320,192,27547,1,0,0:0:0:0:
64,192,27719,1,0,0:0:0:0:
448,192,27890,1,8,2:0:0:0:
320,192,28061,1,0,0:0:0:0:
192,192,28233,1,0,0:0:0:0:
64,192,28404,1,0,0:0:0:0:
320,192,28576,1,8,2:0:0:0:
192,192,28747,1,0,0:0:0:0:
320,192,28833,1,0,0:0:0:0:
448,192,28919,1,2,2:0:0:65:
192,192,28919,1,0,0:0:0:0:
64,192,28919,1,0,0:0:0:0:
64,192,29090,1,2,2:0:0:65:
192,192,29090,1,0,0:0:0:0:
448,192,29090,1,0,0:0:0:0:
320,192,29261,1,8,2:0:0:0:
192,192,29433,1,0,0:0:0:0:
64,192,29604,1,0,0:0:0:0:
192,192,29776,1,0,0:0:0:0:
64,192,29947,1,2,2:0:0:65:
320,192,29947,1,0,0:0:0:0:
448,192,29947,1,0,0:0:0:0:
448,192,30119,1,2,2:0:0:65:
320,192,30119,1,0,0:0:0:0:
64,192,30119,1,0,0:0:0:0:
192,192,30290,1,8,2:0:0:0:
320,192,30461,1,0,0:0:0:0:
448,192,30633,1,0,0:0:0:0:
192,192,30804,1,0,0:0:0:0:
64,192,30976,1,0,0:0:0:0:
448,192,30976,128,0,31490:0:0:0:0:
320,192,31147,1,0,0:0:0:0:
192,192,31319,1,0,0:0:0:0:
64,192,31490,1,0,0:0:0:0:
192,192,31661,1,2,2:0:0:65:
320,192,31661,1,0,0:0:0:0:
448,192,31661,1,0,0:0:0:0:
192,192,31833,1,2,2:0:0:65:
320,192,31833,1,0,0:0:0:0:
448,192,31833,1,0,0:0:0:0:
64,192,33033,1,2,0:0:0:0:
320,192,33033,1,0,0:0:0:0:
320,192,33204,1,2,0:0:0:0:
64,192,33204,1,0,0:0:0:0:
64,192,34404,1,2,0:0:0:0:
192,192,34404,1,0,0:0:0:0:
192,192,34576,1,2,0:0:0:0:
64,192,34576,1,0,0:0:0:0:
192,192,35776,1,2,0:0:0:0:
448,192,35776,1,0,0:0:0:0:
192,192,35947,1,2,0:0:0:0:
448,192,35947,1,0,0:0:0:0:
320,192,37147,1,2,0:0:0:0:
448,192,37147,1,0,0:0:0:0:
320,192,37319,1,2,0:0:0:0:
448,192,37319,1,0,0:0:0:0:
192,192,38519,1,2,0:0:0:0:
320,192,38519,1,0,0:0:0:0:
320,192,38690,1,2,0:0:0:0:
192,192,38690,1,0,0:0:0:0:
64,192,39890,1,2,0:0:0:0:
448,192,39890,1,0,0:0:0:0:
448,192,40061,1,2,0:0:0:0:
64,192,40061,1,0,0:0:0:0:
192,192,41261,1,2,0:0:0:0:
448,192,41261,1,0,0:0:0:0:
448,192,41433,1,2,0:0:0:0:
192,192,41433,1,0,0:0:0:0:
64,192,42633,1,4,2:0:0:0:
192,192,42633,1,4,1:0:0:0:
320,192,42633,1,0,0:0:0:0:
448,192,42633,1,0,0:0:0:0:
192,192,42976,1,0,0:0:0:0:
448,192,42976,1,0,0:0:0:0:
192,192,43319,1,0,0:0:0:0:
64,192,43319,1,0,0:0:0:0:
64,192,43661,1,0,0:0:0:0:
448,192,43661,1,0,0:0:0:0:
192,192,44004,1,2,2:0:0:0:
448,192,44004,1,2,2:0:0:0:
320,192,44347,1,0,0:0:0:0:
64,192,44347,1,0,0:0:0:0:
64,192,44690,1,0,0:0:0:0:
192,192,44690,1,0,0:0:0:0:
320,192,45033,1,0,0:0:0:0:
448,192,45033,1,0,0:0:0:0:
192,192,45376,1,2,2:0:0:0:
320,192,45376,1,2,2:0:0:0:
64,192,45719,1,0,0:0:0:0:
320,192,45719,1,0,0:0:0:0:
192,192,46061,1,0,0:0:0:0:
448,192,46061,1,0,0:0:0:0:
448,192,46404,1,0,0:0:0:0:
64,192,46404,1,0,0:0:0:0:
320,192,46747,1,2,2:0:0:0:
64,192,46747,1,2,2:0:0:0:
192,192,47090,1,0,0:0:0:0:
320,192,47090,1,0,0:0:0:0:
192,192,47433,1,0,0:0:0:0:
448,192,47433,1,0,0:0:0:0:
448,192,47776,1,0,0:0:0:0:
64,192,47776,1,0,0:0:0:0:
64,192,48119,1,2,2:0:0:0:
192,192,48119,1,2,2:0:0:0:
320,192,48119,1,0,0:0:0:0:
320,192,48290,1,0,0:0:0:0:
192,192,48290,1,0,0:0:0:0:
64,192,48290,1,0,0:0:0:0:
448,192,48461,1,0,0:0:0:0:
192,192,48461,1,0,0:0:0:0:
64,192,48804,1,0,0:0:0:0:
192,192,48804,1,0,0:0:0:0:
64,192,49147,1,0,0:0:0:0:
448,192,49147,1,0,0:0:0:0:
192,192,49319,1,0,0:0:0:0:
64,192,49319,1,0,0:0:0:0:
320,192,49490,1,2,2:0:0:0:
448,192,49490,1,2,2:0:0:0:
192,192,49833,1,0,0:0:0:0:
320,192,49833,1,0,0:0:0:0:
64,192,50176,1,0,0:0:0:0:
448,192,50176,1,0,0:0:0:0:
64,192,50519,1,0,0:0:0:0:
192,192,50519,1,0,0:0:0:0:
192,192,50861,1,2,2:0:0:0:
320,192,50861,1,2,2:0:0:0:
64,192,51204,1,0,0:0:0:0:
320,192,51204,1,0,0:0:0:0:
192,192,51547,1,0,0:0:0:0:
448,192,51547,1,0,0:0:0:0:
320,192,51890,1,0,0:0:0:0:
448,192,51890,1,0,0:0:0:0:
448,192,52190,1,0,0:0:0:0:
320,192,52190,1,0,0:0:0:0:
192,192,52233,1,2,2:0:0:0:
64,192,52233,1,2,2:0:0:0:
64,192,52576,1,0,0:0:0:0:
448,192,52576,1,0,0:0:0:0:
192,192,52919,1,0,0:0:0:0:
320,192,52919,1,0,0:0:0:0:
64,192,53261,1,0,0:0:0:0:
448,192,53261,1,0,0:0:0:0:
64,192,53604,1,8,1:0:0:0:
192,192,53604,1,2,2:0:0:0:
320,192,53604,1,0,0:0:0:0:
320,192,53833,1,2,1:0:0:0:
64,192,53833,1,2,2:0:0:0:
192,192,53833,1,0,0:0:0:0:
64,192,54061,1,2,2:0:0:0:
192,192,54061,1,2,1:0:0:0:
320,192,54061,1,0,0:0:0:0:
320,192,54290,1,8,1:0:0:0:
192,192,54290,1,2,2:0:0:0:
64,192,54290,1,0,0:0:0:0:
448,192,54461,128,0,54804:0:0:0:0:
320,192,54547,128,0,54719:0:0:0:0:
64,192,54633,128,0,54804:0:0:0:0:
192,192,54719,128,0,54890:0:0:0:0:
320,192,54804,128,0,54976:0:0:0:0:
448,192,54890,128,0,54976:0:0:0:0:
192,192,54976,1,4,1:0:0:0:
64,192,54976,128,4,56347:1:0:0:0:
448,192,55147,1,0,0:0:0:0:
192,192,55319,1,2,1:0:0:0:
320,192,55319,1,0,0:0:0:0:
448,192,55319,1,0,0:0:0:0:
192,192,55490,1,0,0:0:0:0:
192,192,55661,1,8,2:0:0:0:
320,192,55661,1,8,1:0:0:0:
448,192,55661,1,0,0:0:0:0:
320,192,55833,1,0,0:0:0:0:
192,192,56004,1,2,1:0:0:0:
320,192,56004,1,0,0:0:0:0:
448,192,56004,1,0,0:0:0:0:
192,192,56176,1,0,0:0:0:0:
192,192,56347,1,2,1:0:0:0:
320,192,56347,1,0,0:0:0:0:
448,192,56347,128,0,56947:0:0:0:0:
320,192,56519,1,0,0:0:0:0:
320,192,56690,1,2,1:0:0:0:
192,192,56690,1,0,0:0:0:0:
64,192,56690,1,0,0:0:0:0:
64,192,56861,1,0,0:0:0:0:
64,192,57033,1,8,2:0:0:0:
320,192,57033,1,8,1:0:0:0:
448,192,57033,1,0,0:0:0:0:
192,192,57033,128,0,57719:0:0:0:0:
320,192,57204,1,0,0:0:0:0:
64,192,57376,1,2,1:0:0:0:
320,192,57376,1,0,0:0:0:0:
448,192,57376,1,0,0:0:0:0:
64,192,57547,1,0,0:0:0:0:
448,192,57719,128,2,58319:1:0:0:0:
64,192,57719,1,0,0:0:0:0:
320,192,57719,1,0,0:0:0:0:
320,192,57890,1,0,0:0:0:0:
320,192,58061,1,2,1:0:0:0:
192,192,58061,1,0,0:0:0:0:
64,192,58061,1,0,0:0:0:0:
64,192,58233,1,0,0:0:0:0:
64,192,58404,1,8,2:0:0:0:
320,192,58404,1,8,1:0:0:0:
448,192,58404,1,0,0:0:0:0:
192,192,58404,128,0,59090:0:0:0:0:
320,192,58576,1,0,0:0:0:0:
64,192,58747,1,2,1:0:0:0:
448,192,58747,1,0,0:0:0:0:
320,192,58747,1,0,0:0:0:0:
64,192,58919,1,0,0:0:0:0:
64,192,59090,1,2,1:0:0:0:
448,192,59090,1,0,0:0:0:0:
320,192,59090,128,0,59604:0:0:0:0:
192,192,59261,1,0,0:0:0:0:
64,192,59433,1,2,1:0:0:0:
192,192,59433,1,0,0:0:0:0:
448,192,59433,1,0,0:0:0:0:
64,192,59604,1,0,0:0:0:0:
448,192,59604,1,0,0:0:0:0:
192,192,59690,1,0,0:0:0:0:
320,192,59690,1,0,0:0:0:0:
448,192,59776,1,8,1:0:0:0:
64,192,59776,128,8,60290:2:0:0:0:
192,192,59947,1,0,0:0:0:0:
192,192,60119,1,2,1:0:0:0:
320,192,60119,1,0,0:0:0:0:
448,192,60119,1,0,0:0:0:0:
320,192,60290,1,0,0:0:0:0:
64,192,60461,1,2,1:0:0:0:
448,192,60461,1,0,0:0:0:0:
192,192,60461,128,0,61319:0:0:0:0:
448,192,60633,1,0,0:0:0:0:
320,192,60804,1,2,1:0:0:0:
448,192,60804,1,0,0:0:0:0:
64,192,60804,1,0,0:0:0:0:
64,192,60976,1,0,0:0:0:0:
64,192,61147,1,8,2:0:0:0:
320,192,61147,1,8,1:0:0:0:
448,192,61147,1,0,0:0:0:0:
320,192,61319,1,0,0:0:0:0:
192,192,61490,1,2,1:0:0:0:
64,192,61490,1,0,0:0:0:0:
448,192,61490,1,0,0:0:0:0:
320,192,61661,1,0,0:0:0:0:
448,192,61661,1,0,0:0:0:0:
320,192,61833,1,2,1:0:0:0:
192,192,61833,1,0,0:0:0:0:
64,192,61833,128,0,62433:0:0:0:0:
448,192,62004,1,0,0:0:0:0:
192,192,62004,1,0,0:0:0:0:
192,192,62176,1,2,1:0:0:0:
448,192,62176,1,0,0:0:0:0:
320,192,62176,1,0,0:0:0:0:
320,192,62347,1,0,0:0:0:0:
448,192,62519,128,8,63204:1:0:0:0:
64,192,62519,1,8,2:0:0:0:
192,192,62519,1,0,0:0:0:0:
320,192,62519,1,0,0:0:0:0:
64,192,62690,1,0,0:0:0:0:
192,192,62690,1,0,0:0:0:0:
320,192,62776,1,0,0:0:0:0:
64,192,62861,1,2,1:0:0:0:
192,192,62861,1,0,0:0:0:0:
320,192,63033,1,0,0:0:0:0:
192,192,63204,1,2,1:0:0:0:
64,192,63204,1,0,0:0:0:0:
320,192,63204,128,0,63804:0:0:0:0:
448,192,63376,1,0,0:0:0:0:
64,192,63376,1,0,0:0:0:0:
192,192,63461,1,0,0:0:0:0:
448,192,63547,1,2,1:0:0:0:
64,192,63547,1,0,0:0:0:0:
192,192,63719,1,0,0:0:0:0:
64,192,63890,1,8,2:0:0:0:
192,192,63890,1,8,1:0:0:0:
448,192,63890,1,0,0:0:0:0:
320,192,63890,1,0,0:0:0:0:
320,192,64061,1,0,0:0:0:0:
64,192,64233,1,2,1:0:0:0:
192,192,64233,1,0,0:0:0:0:
448,192,64233,1,0,0:0:0:0:
320,192,64404,1,0,0:0:0:0:
64,192,64404,1,0,0:0:0:0:
192,192,64490,1,0,0:0:0:0:
448,192,64490,1,0,0:0:0:0:
320,192,64576,1,2,1:0:0:0:
64,192,64576,1,0,0:0:0:0:
192,192,64747,1,0,0:0:0:0:
320,192,64747,1,0,0:0:0:0:
448,192,64747,1,0,0:0:0:0:
192,192,64919,1,2,1:0:0:0:
64,192,64919,1,0,0:0:0:0:
64,192,65090,1,0,0:0:0:0:
448,192,65090,1,0,0:0:0:0:
192,192,65261,1,8,1:0:0:0:
320,192,65261,1,8,2:0:0:0:
448,192,65261,1,0,0:0:0:0:
64,192,65261,1,0,0:0:0:0:
192,192,65519,1,4,3:0:0:0:
448,192,65519,1,0,0:0:0:0:
320,192,65776,1,8,2:0:0:0:
64,192,65776,1,2,1:0:0:0:
64,192,65947,1,4,1:0:0:0:
192,192,65947,1,4,2:0:0:0:
320,192,65947,1,0,0:0:0:0:
448,192,65947,1,0,0:0:0:0:
192,192,66119,1,0,0:0:0:0:
448,192,66119,1,0,0:0:0:0:
64,192,66290,1,2,1:0:0:0:
192,192,66290,1,0,0:0:0:0:
320,192,66290,1,0,0:0:0:0:
64,192,66461,1,0,0:0:0:0:
448,192,66461,1,0,0:0:0:0:
192,192,66633,1,8,2:0:0:0:
320,192,66633,1,8,1:0:0:0:
448,192,66633,1,0,0:0:0:0:
64,192,66633,1,0,0:0:0:0:
192,192,66804,1,0,0:0:0:0:
320,192,66804,1,0,0:0:0:0:
192,192,66976,1,2,1:0:0:0:
64,192,66976,1,0,0:0:0:0:
448,192,66976,1,0,0:0:0:0:
320,192,67147,1,0,0:0:0:0:
448,192,67147,1,0,0:0:0:0:
64,192,67319,1,2,1:0:0:0:
192,192,67319,1,0,0:0:0:0:
320,192,67319,1,0,0:0:0:0:
64,192,67490,1,8,2:0:0:0:
448,192,67490,1,0,0:0:0:0:
192,192,67576,1,2,1:0:0:0:
320,192,67576,1,0,0:0:0:0:
448,192,67661,1,2,1:0:0:0:
64,192,67661,1,0,0:0:0:0:
192,192,67833,1,8,2:0:0:0:
448,192,67833,1,0,0:0:0:0:
64,192,68004,1,8,1:0:0:0:
192,192,68004,1,8,2:0:0:0:
320,192,68004,1,0,0:0:0:0:
448,192,68004,1,0,0:0:0:0:
448,192,68176,1,0,0:0:0:0:
320,192,68176,1,0,0:0:0:0:
192,192,68261,1,0,0:0:0:0:
64,192,68261,1,0,0:0:0:0:
448,192,68347,1,2,1:0:0:0:
320,192,68347,1,0,0:0:0:0:
192,192,68519,1,2,1:0:0:0:
320,192,68519,1,0,0:0:0:0:
64,192,68690,1,2,2:0:0:0:
192,192,68690,1,0,0:0:0:0:
448,192,68690,1,0,0:0:0:0:
64,192,68861,1,2,2:0:0:0:
192,192,68861,1,0,0:0:0:0:
448,192,68861,1,0,0:0:0:0:
320,192,71090,1,0,0:0:0:0:
448,192,71090,1,0,0:0:0:0:
192,192,71219,1,0,0:0:0:0:
64,192,71219,1,0,0:0:0:0:
320,192,71347,1,0,0:0:0:0:
448,192,71347,1,0,0:0:0:0:
64,192,71490,1,4,1:0:0:0:
320,192,71490,1,4,2:0:0:0:
448,192,71490,1,0,0:0:0:0:
192,192,71490,1,0,0:0:0:0:
192,192,71604,1,0,0:0:0:0:
64,192,71604,1,0,0:0:0:0:
64,192,71776,1,2,1:0:0:0:
320,192,71776,1,0,0:0:0:0:
448,192,71776,1,0,0:0:0:0:
192,192,71947,1,0,0:0:0:0:
448,192,71947,1,0,0:0:0:0:
320,192,72033,1,0,0:0:0:0:
448,192,72119,1,8,2:0:0:0:
320,192,72119,1,8,1:0:0:0:
64,192,72119,1,0,0:0:0:0:
192,192,72119,1,0,0:0:0:0:
64,192,72290,1,0,0:0:0:0:
320,192,72290,1,0,0:0:0:0:
64,192,72461,1,2,1:0:0:0:
192,192,72461,1,0,0:0:0:0:
448,192,72461,1,0,0:0:0:0:
192,192,72633,1,0,0:0:0:0:
448,192,72633,1,0,0:0:0:0:
320,192,72804,1,2,1:0:0:0:
448,192,72804,1,0,0:0:0:0:
64,192,72804,1,0,0:0:0:0:
64,192,72976,1,0,0:0:0:0:
192,192,72976,1,0,0:0:0:0:
192,192,73147,1,2,1:0:0:0:
320,192,73147,1,0,0:0:0:0:
448,192,73147,1,0,0:0:0:0:
320,192,73319,1,0,0:0:0:0:
448,192,73319,1,0,0:0:0:0:
64,192,73490,1,8,2:0:0:0:
192,192,73490,1,8,1:0:0:0:
320,192,73490,1,0,0:0:0:0:
448,192,73490,1,0,0:0:0:0:
192,192,73661,1,0,0:0:0:0:
64,192,73661,1,0,0:0:0:0:
192,192,73833,1,2,1:0:0:0:
64,192,73833,1,0,0:0:0:0:
320,192,73833,1,0,0:0:0:0:
192,192,74004,1,0,0:0:0:0:
320,192,74004,1,0,0:0:0:0:
448,192,74004,1,0,0:0:0:0:
64,192,74176,1,4,2:0:0:0:
320,192,74176,1,4,1:0:0:0:
192,192,74176,1,0,0:0:0:0:
448,192,74176,1,0,0:0:0:0:
192,192,74433,1,0,0:0:0:0:
320,192,74433,1,0,0:0:0:0:
448,192,74433,1,0,0:0:0:0:
320,192,74633,1,0,0:0:0:0:
448,192,74633,1,0,0:0:0:0:
64,192,74747,1,0,0:0:0:0:
64,192,74861,1,8,1:0:0:0:
192,192,74861,1,8,2:0:0:0:
320,192,74861,1,0,0:0:0:0:
448,192,74861,1,0,0:0:0:0:
64,192,75376,1,2,1:0:0:0:
192,192,75376,1,0,0:0:0:0:
320,192,75433,1,2,1:0:0:0:
448,192,75433,1,0,0:0:0:0:
192,192,75490,1,2,1:0:0:0:
64,192,75547,1,4,1:0:0:0:
320,192,75547,1,4,2:0:0:0:
448,192,75547,1,0,0:0:0:0:
192,192,75804,1,0,0:0:0:0:
320,192,75804,1,0,0:0:0:0:
448,192,75804,1,0,0:0:0:0:
192,192,76004,1,0,0:0:0:0:
64,192,76004,1,0,0:0:0:0:
448,192,76119,1,0,0:0:0:0:
64,192,76233,1,8,2:0:0:0:
192,192,76233,1,8,1:0:0:0:
320,192,76233,1,0,0:0:0:0:
448,192,76233,1,0,0:0:0:0:
64,192,76919,1,4,2:0:0:0:
192,192,76919,1,4,2:0:0:0:
320,192,76919,1,0,0:0:0:0:
448,192,76919,1,0,0:0:0:0:
448,192,77147,1,0,0:0:0:0:
192,192,77147,1,0,0:0:0:0:
64,192,77147,1,0,0:0:0:0:
64,192,77376,1,0,0:0:0:0:
192,192,77376,1,0,0:0:0:0:
448,192,77490,1,0,0:0:0:0:
64,192,77604,1,4,1:0:0:0:
192,192,77604,1,4,1:0:0:0:
320,192,77604,1,0,0:0:0:0:
448,192,77604,1,0,0:0:0:0:
320,192,77833,1,0,0:0:0:0:
192,192,77833,1,0,0:0:0:0:
64,192,77833,1,0,0:0:0:0:
320,192,78061,1,0,0:0:0:0:
448,192,78061,1,0,0:0:0:0:
64,192,78176,1,0,0:0:0:0:
64,192,78290,1,4,2:0:0:0:
192,192,78290,1,4,2:0:0:0:
320,192,78290,1,0,0:0:0:0:
448,192,78290,1,0,0:0:0:0:
192,192,78519,1,0,0:0:0:0:
320,192,78519,1,0,0:0:0:0:
448,192,78519,1,0,0:0:0:0:
192,192,78747,1,0,0:0:0:0:
320,192,78747,1,0,0:0:0:0:
448,192,78747,1,0,0:0:0:0:
64,192,78976,1,4,1:0:0:0:
192,192,78976,1,4,1:0:0:0:
320,192,78976,1,0,0:0:0:0:
448,192,78976,1,0,0:0:0:0:
192,192,79147,1,0,0:0:0:0:
64,192,79147,1,0,0:0:0:0:
320,192,79261,1,0,0:0:0:0:
448,192,79261,1,0,0:0:0:0:
192,192,79376,1,0,0:0:0:0:
64,192,79376,1,0,0:0:0:0:
448,192,79433,1,0,0:0:0:0:
320,192,79433,1,0,0:0:0:0:
192,192,79490,1,0,0:0:0:0:
64,192,79490,1,0,0:0:0:0:
448,192,79547,1,0,0:0:0:0:
320,192,79547,1,0,0:0:0:0:
192,192,79604,1,0,0:0:0:0:
64,192,79661,1,4,2:0:0:0:
320,192,79661,1,4,1:0:0:0:
448,192,79661,1,0,0:0:0:0:
64,192,80347,1,8,2:0:0:0:
192,192,80347,1,8,1:0:0:0:
320,192,80347,1,0,0:0:0:0:
448,192,80347,1,0,0:0:0:0:
192,192,80576,1,0,0:0:0:0:
448,192,80576,1,0,0:0:0:0:
192,192,80804,1,0,0:0:0:0:
448,192,80804,1,0,0:0:0:0:
64,192,81033,1,2,1:0:0:0:
192,192,81033,1,0,0:0:0:0:
320,192,81033,1,0,0:0:0:0:
192,192,81261,1,0,0:0:0:0:
320,192,81261,1,0,0:0:0:0:
64,192,81376,1,2,1:0:0:0:
448,192,81376,1,0,0:0:0:0:
192,192,81490,1,0,0:0:0:0:
320,192,81490,1,0,0:0:0:0:
448,192,81604,1,0,0:0:0:0:
64,192,81719,1,8,2:0:0:0:
192,192,81719,1,8,1:0:0:0:
320,192,81719,1,0,0:0:0:0:
448,192,81719,1,0,0:0:0:0:
192,192,81947,1,0,0:0:0:0:
64,192,81947,1,0,0:0:0:0:
192,192,82176,1,0,0:0:0:0:
64,192,82176,1,0,0:0:0:0:
448,192,82404,1,2,1:0:0:0:
64,192,82404,1,0,0:0:0:0:
192,192,82447,1,0,0:0:0:0:
320,192,82490,1,0,0:0:0:0:
320,192,82661,1,0,0:0:0:0:
192,192,82704,1,0,0:0:0:0:
64,192,82747,1,0,0:0:0:0:
64,192,82919,1,0,0:0:0:0:
192,192,82961,1,0,0:0:0:0:
320,192,83004,1,0,0:0:0:0:
64,192,83090,1,8,1:0:0:0:
448,192,83090,1,8,2:0:0:0:
320,192,83133,1,0,0:0:0:0:
192,192,83176,1,0,0:0:0:0:
192,192,83347,1,0,0:0:0:0:
320,192,83390,1,0,0:0:0:0:
448,192,83433,1,0,0:0:0:0:
448,192,83604,1,0,0:0:0:0:
320,192,83647,1,0,0:0:0:0:
192,192,83690,1,0,0:0:0:0:
448,192,83776,1,2,1:0:0:0:
64,192,83776,1,0,0:0:0:0:
192,192,83819,1,0,0:0:0:0:
320,192,83861,1,0,0:0:0:0:
320,192,84033,1,0,0:0:0:0:
192,192,84076,1,0,0:0:0:0:
64,192,84119,1,2,1:0:0:0:
448,192,84119,1,0,0:0:0:0:
192,192,84233,1,0,0:0:0:0:
320,192,84233,1,0,0:0:0:0:
64,192,84347,1,0,0:0:0:0:
448,192,84347,1,0,0:0:0:0:
64,192,84461,1,8,1:0:0:0:
448,192,84461,1,8,2:0:0:0:
192,192,84504,1,0,0:0:0:0:
320,192,84547,1,0,0:0:0:0:
64,192,84719,1,0,0:0:0:0:
192,192,84761,1,0,0:0:0:0:
320,192,84804,1,0,0:0:0:0:
64,192,84976,1,0,0:0:0:0:
192,192,85019,1,0,0:0:0:0:
320,192,85061,1,0,0:0:0:0:
64,192,85147,1,8,1:0:0:0:
192,192,85147,1,12,2:0:0:0:
448,192,85147,1,8,2:0:0:0:
320,192,85376,1,2,1:0:0:0:
192,192,85376,1,2,2:0:0:0:
64,192,85376,1,0,0:0:0:0:
320,192,85604,1,2,1:0:0:0:
192,192,85604,1,2,2:0:0:0:
64,192,85604,1,0,0:0:0:0:
192,192,85833,1,8,2:0:0:0:
64,192,85833,1,8,1:0:0:0:
448,192,85833,1,0,0:0:0:0:
448,192,86061,1,2,2:0:0:0:
320,192,86061,1,2,1:0:0:0:
192,192,86061,1,0,0:0:0:0:
192,192,86290,1,2,1:0:0:0:
320,192,86290,1,2,2:0:0:0:
448,192,86290,1,0,0:0:0:0:
320,192,86519,128,4,86690:2:0:0:0:
192,192,86519,128,4,86690:1:0:0:0:
448,192,86519,128,0,87890:0:0:0:0:
64,192,87204,1,2,1:0:0:0:
192,192,87204,1,2,3:0:0:0:
64,192,87719,1,2,3:0:0:0:
320,192,87719,1,2,1:0:0:0:
192,192,87890,1,0,0:0:0:0:
64,192,87890,128,0,89261:0:0:0:0:
320,192,88061,1,2,1:0:0:0:
448,192,88233,1,2,1:0:0:0:
192,192,88576,1,2,1:0:0:0:
320,192,88576,1,2,3:0:0:0:
320,192,89261,128,0,90633:0:0:0:0:
448,192,89261,1,0,0:0:0:0:
64,192,89433,1,2,1:0:0:0:
192,192,89604,1,2,1:0:0:0:
64,192,89947,1,2,3:0:0:0:
448,192,89947,1,2,1:0:0:0:
64,192,90461,1,2,1:0:0:0:
448,192,90461,1,2,3:0:0:0:
192,192,90633,128,0,92004:0:0:0:0:
64,192,90633,1,0,0:0:0:0:
448,192,90804,1,2,1:0:0:0:
320,192,90976,1,2,1:0:0:0:
64,192,91319,1,2,3:0:0:0:
448,192,91319,1,2,1:0:0:0:
320,192,91833,1,0,0:0:0:0:
320,192,91919,1,0,0:0:0:0:
64,192,92004,1,2,1:0:0:0:
448,192,92004,128,2,93376:2:0:0:0:
64,192,92176,1,2,1:0:0:0:
320,192,92176,1,2,2:0:0:0:
64,192,92690,1,2,1:0:0:0:
192,192,92690,1,2,3:0:0:0:
64,192,93204,1,2,3:0:0:0:
192,192,93204,1,2,1:0:0:0:
320,192,93376,128,0,94747:0:0:0:0:
64,192,93376,1,0,0:0:0:0:
192,192,93547,1,2,1:0:0:0:
64,192,93719,1,2,1:0:0:0:
192,192,94061,1,2,1:0:0:0:
448,192,94061,1,2,3:0:0:0:
64,192,94576,1,0,0:0:0:0:
64,192,94747,128,0,96119:0:0:0:0:
448,192,94747,1,0,0:0:0:0:
192,192,94919,1,2,1:0:0:0:
448,192,95090,1,2,1:0:0:0:
320,192,95433,1,2,3:0:0:0:
192,192,95433,1,2,1:0:0:0:
192,192,95947,1,2,1:0:0:0:
448,192,95947,1,2,3:0:0:0:
448,192,96119,128,0,97147:0:0:0:0:
320,192,96119,1,0,0:0:0:0:
192,192,96290,1,2,1:0:0:0:
64,192,96461,1,2,1:0:0:0:
320,192,96804,1,2,3:0:0:0:
64,192,96804,128,2,97147:1:0:0:0:
64,192,97319,1,0,1:0:0:100:
192,192,97319,1,0,0:0:0:0:
448,192,97404,1,0,1:0:0:100:
192,192,97490,1,2,2:0:0:65:
64,192,97490,1,2,2:0:0:65:
320,192,97490,1,0,0:0:0:0:
192,192,97661,1,2,2:0:0:65:
64,192,97661,1,2,2:0:0:65:
320,192,97661,1,0,0:0:0:0:
448,192,97833,1,0,0:0:0:0:
64,192,98004,1,0,0:0:0:0:
192,192,98176,1,0,0:0:0:0:
320,192,98347,1,0,0:0:0:0:
192,192,98519,1,0,0:0:0:0:
64,192,98690,1,0,0:0:0:0:
448,192,98861,1,0,0:0:0:0:
320,192,99033,1,0,0:0:0:0:
192,192,99204,1,0,0:0:0:0:
448,192,99376,1,0,0:0:0:0:
64,192,99547,1,0,0:0:0:0:
192,192,99719,1,0,0:0:0:0:
320,192,99890,128,0,100061:0:0:0:0:
64,192,100061,1,0,0:0:0:0:
448,192,100233,128,0,100404:0:0:0:0:
192,192,100404,128,0,100576:0:0:0:0:
320,192,100576,128,0,100747:0:0:0:0:
64,192,100747,128,0,100919:0:0:0:0:
448,192,100919,1,0,0:0:0:0:
192,192,101090,1,0,0:0:0:0:
320,192,101261,1,0,0:0:0:0:
448,192,101433,1,0,0:0:0:0:
64,192,101604,1,0,0:0:0:0:
192,192,101776,1,0,0:0:0:0:
320,192,101947,1,0,0:0:0:0:
192,192,102119,1,0,0:0:0:0:
64,192,102290,1,0,0:0:0:0:
448,192,102461,1,0,0:0:0:0:
320,192,102633,1,0,0:0:0:0:
192,192,102804,1,0,0:0:0:0:
64,192,102976,1,0,0:0:0:0:
320,192,103147,1,0,0:0:0:0:
192,192,103319,128,0,103490:0:0:0:0:
448,192,103490,128,0,103661:0:0:0:0:
64,192,103661,1,0,0:0:0:0:
192,192,103833,1,0,0:0:0:0:
320,192,104004,1,0,0:0:0:0:
192,192,104176,1,0,0:0:0:0:
448,192,104347,1,0,0:0:0:0:
320,192,104519,1,0,0:0:0:0:
192,192,104690,1,0,0:0:0:0:
64,192,104861,1,0,0:0:0:0:
320,192,105033,1,0,0:0:0:0:
448,192,105204,1,0,0:0:0:0:
64,192,105376,1,0,0:0:0:0:
192,192,105547,1,0,0:0:0:0:
448,192,105719,128,0,107090:0:0:0:0:
320,192,105719,1,0,0:0:0:0:
64,192,105890,1,0,0:0:0:0:
192,192,106061,1,0,0:0:0:0:
320,192,106233,1,0,0:0:0:0:
64,192,106404,1,0,0:0:0:0:
192,192,106576,1,0,0:0:0:0:
320,192,106747,1,0,0:0:0:0:
192,192,106919,1,0,0:0:0:0:
64,192,107090,1,0,0:0:0:0:
192,192,107176,1,0,0:0:0:0:
320,192,107261,1,0,0:0:0:0:
448,192,107347,1,0,0:0:0:0:
64,192,107433,1,0,0:0:0:0:
192,192,107519,1,0,0:0:0:0:
320,192,107604,1,0,0:0:0:0:
448,192,107690,1,0,0:0:0:0:
192,192,107776,1,0,0:0:0:0:
64,192,107861,1,0,0:0:0:0:
320,192,107947,1,0,0:0:0:0:
192,192,108033,1,0,0:0:0:0:
448,192,108119,1,0,0:0:0:0:
320,192,108204,1,0,0:0:0:0:
192,192,108290,1,0,0:0:0:100:
64,192,108376,1,0,0:0:0:100:
192,192,108461,1,2,2:0:0:65:
320,192,108461,1,2,2:0:0:65:
448,192,108461,1,0,0:0:0:0:
192,192,108633,1,2,2:0:0:65:
320,192,108633,1,2,2:0:0:65:
448,192,108633,1,0,0:0:0:0:
64,192,108804,1,0,0:0:0:0:
192,192,108976,1,0,0:0:0:0:
320,192,109147,1,8,2:0:0:0:
448,192,109319,1,0,0:0:0:0:
320,192,109490,1,2,2:0:0:65:
192,192,109490,1,0,0:0:0:0:
64,192,109490,1,0,0:0:0:0:
64,192,109661,1,2,2:0:0:65:
192,192,109661,1,0,0:0:0:0:
320,192,109661,1,0,0:0:0:0:
448,192,109833,1,0,0:0:0:0:
192,192,110004,1,0,0:0:0:0:
64,192,110176,1,8,2:0:0:0:
320,192,110347,1,0,0:0:0:0:
192,192,110519,1,0,0:0:0:0:
64,192,110690,1,0,0:0:0:0:
192,192,110861,1,8,2:0:0:0:
320,192,111033,1,0,0:0:0:0:
448,192,111076,1,0,0:0:0:0:
192,192,111119,1,0,0:0:0:0:
64,192,111161,1,0,0:0:0:0:
320,192,111204,1,0,0:0:0:0:
448,192,111376,1,0,0:0:0:0:
192,192,111547,128,8,111719:2:0:0:0:
64,192,111719,128,0,111890:0:0:0:0:
448,192,111890,128,0,112061:0:0:0:0:
320,192,112061,128,0,112233:0:0:0:0:
192,192,112233,128,8,112404:2:0:0:0:
64,192,112404,128,0,112576:0:0:0:0:
320,192,112576,128,0,112747:0:0:0:0:
448,192,112747,128,0,112919:0:0:0:0:
192,192,112919,128,8,113090:2:0:0:0:
320,192,113090,128,0,113261:0:0:0:0:
64,192,113261,128,0,113433:0:0:0:0:
192,192,113433,128,0,113604:0:0:0:0:
320,192,113604,128,8,113776:2:0:0:0:
448,192,113776,1,0,0:0:0:0:
64,192,113819,1,0,0:0:0:0:
192,192,113861,1,0,0:0:0:0:
320,192,113904,1,0,0:0:0:0:
64,192,113947,1,2,2:0:0:65:
448,192,113947,1,0,0:0:0:0:
192,192,114119,1,2,2:0:0:65:
64,192,114119,1,0,0:0:0:0:
448,192,114119,1,0,0:0:0:0:
320,192,114290,1,8,2:0:0:0:
64,192,114461,1,0,0:0:0:0:
192,192,114633,1,0,0:0:0:0:
320,192,114804,1,0,0:0:0:0:
448,192,114976,1,2,2:0:0:65:
192,192,114976,1,0,0:0:0:0:
64,192,114976,1,0,0:0:0:0:
64,192,115147,1,2,2:0:0:65:
448,192,115147,1,0,0:0:0:0:
192,192,115147,1,0,0:0:0:0:
320,192,115319,1,8,2:0:0:0:
192,192,115490,1,0,0:0:0:0:
64,192,115661,1,0,0:0:0:0:
192,192,115833,1,0,0:0:0:0:
320,192,116004,1,0,0:0:0:0:
448,192,116176,1,0,0:0:0:0:
192,192,116347,1,0,0:0:0:0:
320,192,116519,1,2,2:0:0:65:
448,192,116519,1,0,0:0:0:0:
192,192,116604,1,0,0:0:0:0:
320,192,116690,1,2,2:0:0:65:
448,192,116690,1,0,0:0:0:0:
64,192,116690,1,0,0:0:0:0:
64,192,116861,1,2,2:0:0:65:
320,192,116861,1,0,0:0:0:0:
448,192,116861,1,0,0:0:0:0:
192,192,118061,1,2,0:0:0:0:
448,192,118061,1,0,0:0:0:0:
448,192,118233,1,2,0:0:0:0:
192,192,118233,1,0,0:0:0:0:
64,192,119433,1,2,0:0:0:0:
192,192,119433,1,0,0:0:0:0:
192,192,119604,1,2,0:0:0:0:
64,192,119604,1,0,0:0:0:0:
320,192,120804,1,2,0:0:0:0:
448,192,120804,1,0,0:0:0:0:
320,192,120976,1,2,0:0:0:0:
448,192,120976,1,0,0:0:0:0:
64,192,122176,1,2,0:0:0:0:
448,192,122176,1,0,0:0:0:0:
64,192,122347,1,2,0:0:0:0:
448,192,122347,1,0,0:0:0:0:
192,192,123547,1,2,0:0:0:0:
320,192,123547,1,0,0:0:0:0:
192,192,123719,1,2,0:0:0:0:
320,192,123719,1,0,0:0:0:0:
448,192,124919,1,2,0:0:0:0:
320,192,124919,1,0,0:0:0:0:
448,192,125090,1,2,0:0:0:0:
320,192,125090,1,0,0:0:0:0:
192,192,126290,1,2,0:0:0:0:
64,192,126290,1,0,0:0:0:0:
448,192,126290,128,0,127576:0:0:0:0:
64,192,126461,1,2,0:0:0:0:
192,192,126461,1,0,0:0:0:0:
320,192,126976,128,0,127576:0:0:0:0:
192,192,127319,128,0,127576:0:0:0:0:
64,192,127661,1,4,2:0:0:0:
192,192,127661,1,4,1:0:0:0:
448,192,127661,1,0,0:0:0:0:
320,192,127661,1,0,0:0:0:0:
64,192,128004,1,0,0:0:0:0:
320,192,128004,1,0,0:0:0:0:
320,192,128347,1,0,0:0:0:0:
448,192,128347,1,0,0:0:0:0:
448,192,128690,1,0,0:0:0:0:
64,192,128690,1,0,0:0:0:0:
320,192,129033,1,2,2:0:0:0:
64,192,129033,1,2,2:0:0:0:
192,192,129376,1,0,0:0:0:0:
448,192,129376,1,0,0:0:0:0:
448,192,129719,1,0,0:0:0:0:
320,192,129719,1,0,0:0:0:0:
192,192,130061,1,0,0:0:0:0:
64,192,130061,1,0,0:0:0:0:
320,192,130404,1,2,2:0:0:0:
192,192,130404,1,2,2:0:0:0:
448,192,130747,1,0,0:0:0:0:
192,192,130747,1,0,0:0:0:0:
320,192,131090,1,0,0:0:0:0:
64,192,131090,1,0,0:0:0:0:
64,192,131433,1,0,0:0:0:0:
448,192,131433,1,0,0:0:0:0:
192,192,131776,1,2,2:0:0:0:
448,192,131776,1,2,2:0:0:0:
320,192,132119,1,0,0:0:0:0:
192,192,132119,1,0,0:0:0:0:
320,192,132461,1,0,0:0:0:0:
64,192,132461,1,0,0:0:0:0:
64,192,132804,1,0,0:0:0:0:
448,192,132804,1,0,0:0:0:0:
64,192,133147,1,2,2:0:0:0:
192,192,133147,1,2,2:0:0:0:
320,192,133147,1,0,0:0:0:0:
320,192,133319,1,0,0:0:0:0:
192,192,133319,1,0,0:0:0:0:
64,192,133319,1,0,0:0:0:0:
448,192,133490,1,0,0:0:0:0:
192,192,133490,1,0,0:0:0:0:
448,192,133833,1,0,0:0:0:0:
320,192,133833,1,0,0:0:0:0:
448,192,134176,1,0,0:0:0:0:
64,192,134176,1,0,0:0:0:0:
320,192,134347,1,0,0:0:0:0:
448,192,134347,1,0,0:0:0:0:
192,192,134519,1,2,2:0:0:0:
64,192,134519,1,2,2:0:0:0:
320,192,134861,1,0,0:0:0:0:
192,192,134861,1,0,0:0:0:0:
448,192,135204,1,0,0:0:0:0:
64,192,135204,1,0,0:0:0:0:
448,192,135547,1,0,0:0:0:0:
320,192,135547,1,0,0:0:0:0:
320,192,135890,1,2,2:0:0:0:
192,192,135890,1,2,2:0:0:0:
320,192,136061,1,0,0:0:0:0:
64,192,136061,1,0,0:0:0:0:
448,192,136233,1,0,0:0:0:0:
192,192,136233,1,0,0:0:0:0:
320,192,136576,1,0,0:0:0:0:
64,192,136576,1,0,0:0:0:0:
192,192,136919,1,0,0:0:0:0:
64,192,136919,1,0,0:0:0:0:
64,192,137219,1,0,0:0:0:0:
320,192,137219,1,0,0:0:0:0:
192,192,137261,1,2,2:0:0:0:
448,192,137261,1,2,2:0:0:0:
448,192,137604,1,0,0:0:0:0:
64,192,137604,1,0,0:0:0:0:
320,192,137947,1,0,0:0:0:0:
192,192,137947,1,0,0:0:0:0:
448,192,138290,1,0,0:0:0:0:
64,192,138290,1,0,0:0:0:0:
448,192,138633,1,8,1:0:0:0:
320,192,138633,1,2,2:0:0:0:
192,192,138633,1,0,0:0:0:0:
192,192,138861,1,2,1:0:0:0:
448,192,138861,1,2,2:0:0:0:
320,192,138861,1,0,0:0:0:0:
448,192,139090,1,2,2:0:0:0:
320,192,139090,1,2,1:0:0:0:
192,192,139090,1,0,0:0:0:0:
320,192,139319,1,8,1:0:0:0:
64,192,139319,1,2,2:0:0:0:
448,192,139319,1,0,0:0:0:0:
320,192,139490,1,0,0:0:0:0:
64,192,139490,128,0,139833:0:0:0:0:
192,192,139576,128,0,139747:0:0:0:0:
448,192,139661,128,0,139833:0:0:0:0:
320,192,139747,128,0,139919:0:0:0:0:
192,192,139833,128,0,140004:0:0:0:0:
64,192,139919,128,0,140004:0:0:0:0:
448,192,140004,128,4,141376:1:0:0:0:
320,192,140004,1,4,1:0:0:0:
64,192,140176,1,0,0:0:0:0:
64,192,140347,1,2,1:0:0:0:
192,192,140347,1,0,0:0:0:0:
320,192,140347,1,0,0:0:0:0:
320,192,140519,1,0,0:0:0:0:
64,192,140690,1,8,2:0:0:0:
192,192,140690,1,8,1:0:0:0:
320,192,140690,1,0,0:0:0:0:
192,192,140861,1,0,0:0:0:0:
64,192,141033,1,2,1:0:0:0:
192,192,141033,1,0,0:0:0:0:
320,192,141033,1,0,0:0:0:0:
320,192,141204,1,0,0:0:0:0:
64,192,141376,128,2,141976:1:0:0:0:
192,192,141376,1,0,0:0:0:0:
320,192,141376,1,0,0:0:0:0:
192,192,141547,1,0,0:0:0:0:
448,192,141719,1,2,1:0:0:0:
320,192,141719,1,0,0:0:0:0:
192,192,141719,1,0,0:0:0:0:
448,192,141890,1,0,0:0:0:0:
64,192,142061,1,8,2:0:0:0:
320,192,142061,128,8,142747:1:0:0:0:
448,192,142061,1,0,0:0:0:0:
192,192,142061,1,0,0:0:0:0:
192,192,142233,1,0,0:0:0:0:
64,192,142404,1,2,1:0:0:0:
192,192,142404,1,0,0:0:0:0:
448,192,142404,1,0,0:0:0:0:
448,192,142576,1,0,0:0:0:0:
192,192,142747,1,2,1:0:0:0:
448,192,142747,1,0,0:0:0:0:
64,192,142747,128,0,143347:0:0:0:0:
192,192,142919,1,0,0:0:0:0:
320,192,143004,1,0,0:0:0:0:
448,192,143090,1,2,1:0:0:0:
192,192,143090,1,0,0:0:0:0:
448,192,143261,1,0,0:0:0:0:
64,192,143433,1,8,2:0:0:0:
320,192,143433,128,8,144119:1:0:0:0:
448,192,143433,1,0,0:0:0:0:
192,192,143433,1,0,0:0:0:0:
192,192,143604,1,0,0:0:0:0:
192,192,143776,1,2,1:0:0:0:
64,192,143776,1,0,0:0:0:0:
448,192,143776,1,0,0:0:0:0:
448,192,143947,1,0,0:0:0:0:
192,192,144119,128,2,144633:1:0:0:0:
64,192,144119,1,0,0:0:0:0:
448,192,144119,1,0,0:0:0:0:
320,192,144290,1,0,0:0:0:0:
64,192,144461,1,2,1:0:0:0:
320,192,144461,1,0,0:0:0:0:
448,192,144461,1,0,0:0:0:0:
64,192,144633,1,0,0:0:0:0:
448,192,144633,1,0,0:0:0:0:
192,192,144719,1,0,0:0:0:0:
320,192,144719,1,0,0:0:0:0:
448,192,144804,128,8,145319:1:0:0:0:
64,192,144804,1,8,2:0:0:0:
320,192,144976,1,0,0:0:0:0:
192,192,145061,1,0,0:0:0:0:
64,192,145147,1,2,1:0:0:0:
320,192,145147,1,0,0:0:0:0:
192,192,145319,1,0,0:0:0:0:
320,192,145490,128,2,146347:1:0:0:0:
64,192,145490,1,0,0:0:0:0:
448,192,145490,1,0,0:0:0:0:
64,192,145661,1,0,0:0:0:0:
448,192,145833,1,2,1:0:0:0:
64,192,145833,1,0,0:0:0:0:
192,192,145833,1,0,0:0:0:0:
448,192,146004,1,0,0:0:0:0:
64,192,146176,1,8,2:0:0:0:
192,192,146176,1,8,1:0:0:0:
448,192,146176,1,0,0:0:0:0:
192,192,146347,1,0,0:0:0:0:
64,192,146519,1,2,1:0:0:0:
448,192,146519,1,0,0:0:0:0:
320,192,146519,1,0,0:0:0:0:
64,192,146690,1,0,0:0:0:0:
192,192,146690,1,0,0:0:0:0:
448,192,146861,128,2,147461:1:0:0:0:
320,192,146861,1,0,0:0:0:0:
192,192,146861,1,0,0:0:0:0:
320,192,147033,1,0,0:0:0:0:
64,192,147033,1,0,0:0:0:0:
192,192,147204,1,2,1:0:0:0:
64,192,147204,1,0,0:0:0:0:
320,192,147204,1,0,0:0:0:0:
192,192,147376,1,0,0:0:0:0:
320,192,147547,1,8,1:0:0:0:
192,192,147547,1,8,2:0:0:0:
64,192,147547,128,0,148233:0:0:0:0:
448,192,147547,1,0,0:0:0:0:
192,192,147719,1,0,0:0:0:0:
448,192,147719,1,0,0:0:0:0:
320,192,147804,1,0,0:0:0:0:
192,192,147890,1,2,1:0:0:0:
448,192,147890,1,0,0:0:0:0:
448,192,148061,1,0,0:0:0:0:
192,192,148233,128,2,148833:1:0:0:0:
448,192,148233,1,0,0:0:0:0:
320,192,148233,1,0,0:0:0:0:
448,192,148404,1,0,0:0:0:0:
320,192,148404,1,0,0:0:0:0:
64,192,148490,1,0,0:0:0:0:
448,192,148576,1,2,1:0:0:0:
320,192,148576,1,0,0:0:0:0:
64,192,148747,1,0,0:0:0:0:
64,192,148919,1,8,2:0:0:0:
192,192,148919,1,8,1:0:0:0:
448,192,148919,1,0,0:0:0:0:
320,192,148919,1,0,0:0:0:0:
192,192,149090,1,0,0:0:0:0:
64,192,149261,1,2,1:0:0:0:
320,192,149261,1,0,0:0:0:0:
448,192,149261,1,0,0:0:0:0:
448,192,149433,1,0,0:0:0:0:
192,192,149433,1,0,0:0:0:0:
64,192,149519,1,0,0:0:0:0:
320,192,149519,1,0,0:0:0:0:
448,192,149604,1,2,1:0:0:0:
192,192,149604,1,0,0:0:0:0:
64,192,149776,1,0,0:0:0:0:
192,192,149776,1,0,0:0:0:0:
320,192,149776,1,0,0:0:0:0:
448,192,149947,1,2,1:0:0:0:
320,192,149947,1,0,0:0:0:0:
64,192,150119,1,0,0:0:0:0:
448,192,150119,1,0,0:0:0:0:
64,192,150290,1,8,1:0:0:0:
448,192,150290,1,8,2:0:0:0:
320,192,150290,1,0,0:0:0:0:
192,192,150290,1,0,0:0:0:0:
64,192,150547,1,0,0:0:0:0:
320,192,150547,1,0,0:0:0:0:
448,192,150804,1,8,2:0:0:0:
192,192,150804,1,2,1:0:0:0:
192,192,150976,1,4,1:0:0:0:
64,192,150976,1,4,2:0:0:0:
448,192,150976,1,0,0:0:0:0:
320,192,150976,1,0,0:0:0:0:
64,192,151147,1,0,0:0:0:0:
320,192,151147,1,0,0:0:0:0:
192,192,151319,1,2,1:0:0:0:
320,192,151319,1,0,0:0:0:0:
448,192,151319,1,0,0:0:0:0:
64,192,151490,1,0,0:0:0:0:
448,192,151490,1,0,0:0:0:0:
64,192,151661,1,8,2:0:0:0:
448,192,151661,1,8,1:0:0:0:
320,192,151661,1,0,0:0:0:0:
192,192,151661,1,0,0:0:0:0:
192,192,151833,1,0,0:0:0:0:
320,192,151833,1,0,0:0:0:0:
64,192,152004,1,2,1:0:0:0:
448,192,152004,1,0,0:0:0:0:
320,192,152004,1,0,0:0:0:0:
448,192,152176,1,0,0:0:0:0:
192,192,152176,1,0,0:0:0:0:
192,192,152347,1,2,1:0:0:0:
320,192,152347,1,0,0:0:0:0:
64,192,152347,1,0,0:0:0:0:
320,192,152519,1,8,2:0:0:0:
64,192,152519,1,0,0:0:0:0:
192,192,152604,1,2,1:0:0:0:
448,192,152604,1,0,0:0:0:0:
320,192,152690,1,2,1:0:0:0:
64,192,152690,1,0,0:0:0:0:
192,192,152861,1,8,2:0:0:0:
448,192,152861,1,0,0:0:0:0:
320,192,153033,1,8,1:0:0:0:
192,192,153033,1,8,2:0:0:0:
64,192,153033,1,0,0:0:0:0:
448,192,153033,1,0,0:0:0:0:
320,192,153204,1,0,0:0:0:0:
448,192,153204,1,0,0:0:0:0:
64,192,153290,1,0,0:0:0:0:
192,192,153290,1,0,0:0:0:0:
320,192,153376,1,2,1:0:0:0:
448,192,153376,1,0,0:0:0:0:
320,192,153547,1,2,1:0:0:0:
192,192,153547,1,0,0:0:0:0:
448,192,153719,1,2,2:0:0:0:
192,192,153719,1,0,0:0:0:0:
64,192,153719,1,0,0:0:0:0:
448,192,153890,1,2,2:0:0:0:
192,192,153890,1,0,0:0:0:0:
64,192,153890,1,0,0:0:0:0:
64,192,156119,1,0,0:0:0:0:
192,192,156119,1,0,0:0:0:0:
448,192,156247,1,0,0:0:0:0:
320,192,156247,1,0,0:0:0:0:
64,192,156376,1,0,0:0:0:0:
192,192,156376,1,0,0:0:0:0:
448,192,156519,1,4,1:0:0:0:
320,192,156519,1,4,2:0:0:0:
192,192,156519,1,0,0:0:0:0:
64,192,156519,1,0,0:0:0:0:
320,192,156633,1,0,0:0:0:0:
448,192,156633,1,0,0:0:0:0:
448,192,156804,1,2,1:0:0:0:
64,192,156804,1,0,0:0:0:0:
192,192,156804,1,0,0:0:0:0:
192,192,156976,1,0,0:0:0:0:
320,192,156976,1,0,0:0:0:0:
448,192,157061,1,0,0:0:0:0:
64,192,157147,1,8,2:0:0:0:
192,192,157147,1,8,1:0:0:0:
448,192,157147,1,0,0:0:0:0:
320,192,157147,1,0,0:0:0:0:
320,192,157319,1,0,0:0:0:0:
64,192,157319,1,0,0:0:0:0:
448,192,157490,1,2,1:0:0:0:
192,192,157490,1,0,0:0:0:0:
64,192,157490,1,0,0:0:0:0:
448,192,157661,1,0,0:0:0:0:
192,192,157661,1,0,0:0:0:0:
64,192,157833,1,2,1:0:0:0:
448,192,157833,1,0,0:0:0:0:
320,192,157833,1,0,0:0:0:0:
192,192,158004,1,0,0:0:0:0:
64,192,158004,1,0,0:0:0:0:
448,192,158176,1,2,1:0:0:0:
320,192,158176,1,0,0:0:0:0:
192,192,158176,1,0,0:0:0:0:
448,192,158347,1,0,0:0:0:0:
320,192,158347,1,0,0:0:0:0:
320,192,158519,1,8,2:0:0:0:
448,192,158519,1,8,1:0:0:0:
64,192,158519,1,0,0:0:0:0:
192,192,158519,1,0,0:0:0:0:
64,192,158690,1,0,0:0:0:0:
192,192,158690,1,0,0:0:0:0:
320,192,158861,1,2,1:0:0:0:
448,192,158861,1,0,0:0:0:0:
192,192,158861,1,0,0:0:0:0:
320,192,159033,1,0,0:0:0:0:
192,192,159033,1,0,0:0:0:0:
64,192,159033,1,0,0:0:0:0:
192,192,159204,1,4,2:0:0:0:
448,192,159204,1,4,1:0:0:0:
64,192,159204,1,0,0:0:0:0:
320,192,159204,1,0,0:0:0:0:
320,192,159461,1,0,0:0:0:0:
192,192,159461,1,0,0:0:0:0:
64,192,159461,1,0,0:0:0:0:
192,192,159661,1,0,0:0:0:0:
64,192,159661,1,0,0:0:0:0:
448,192,159776,1,0,0:0:0:0:
448,192,159890,1,8,1:0:0:0:
320,192,159890,1,8,2:0:0:0:
192,192,159890,1,0,0:0:0:0:
64,192,159890,1,0,0:0:0:0:
448,192,160404,1,2,1:0:0:0:
320,192,160404,1,0,0:0:0:0:
192,192,160461,1,2,1:0:0:0:
64,192,160461,1,0,0:0:0:0:
320,192,160519,1,2,1:0:0:0:
448,192,160576,1,4,1:0:0:0:
192,192,160576,1,4,2:0:0:0:
64,192,160576,1,0,0:0:0:0:
320,192,160833,1,0,0:0:0:0:
192,192,160833,1,0,0:0:0:0:
64,192,160833,1,0,0:0:0:0:
320,192,161033,1,0,0:0:0:0:
448,192,161033,1,0,0:0:0:0:
64,192,161147,1,0,0:0:0:0:
448,192,161261,1,8,2:0:0:0:
320,192,161261,1,8,1:0:0:0:
192,192,161261,1,0,0:0:0:0:
64,192,161261,1,0,0:0:0:0:
448,192,161947,1,4,2:0:0:0:
320,192,161947,1,4,2:0:0:0:
192,192,161947,1,0,0:0:0:0:
64,192,161947,1,0,0:0:0:0:
64,192,162176,1,0,0:0:0:0:
320,192,162176,1,0,0:0:0:0:
448,192,162176,1,0,0:0:0:0:
448,192,162404,1,0,0:0:0:0:
320,192,162404,1,0,0:0:0:0:
64,192,162519,1,0,0:0:0:0:
448,192,162633,1,4,1:0:0:0:
320,192,162633,1,4,1:0:0:0:
192,192,162633,1,0,0:0:0:0:
64,192,162633,1,0,0:0:0:0:
192,192,162861,1,0,0:0:0:0:
320,192,162861,1,0,0:0:0:0:
448,192,162861,1,0,0:0:0:0:
192,192,163090,1,0,0:0:0:0:
64,192,163090,1,0,0:0:0:0:
448,192,163204,1,0,0:0:0:0:
448,192,163319,1,4,2:0:0:0:
320,192,163319,1,4,2:0:0:0:
192,192,163319,1,0,0:0:0:0:
64,192,163319,1,0,0:0:0:0:
320,192,163547,1,0,0:0:0:0:
192,192,163547,1,0,0:0:0:0:
64,192,163547,1,0,0:0:0:0:
320,192,163776,1,0,0:0:0:0:
192,192,163776,1,0,0:0:0:0:
64,192,163776,1,0,0:0:0:0:
448,192,164004,1,4,1:0:0:0:
320,192,164004,1,4,1:0:0:0:
192,192,164004,1,0,0:0:0:0:
64,192,164004,1,0,0:0:0:0:
320,192,164176,1,0,0:0:0:0:
448,192,164176,1,0,0:0:0:0:
192,192,164290,1,0,0:0:0:0:
64,192,164290,1,0,0:0:0:0:
320,192,164404,1,0,0:0:0:0:
448,192,164404,1,0,0:0:0:0:
64,192,164461,1,0,0:0:0:0:
192,192,164461,1,0,0:0:0:0:
320,192,164519,1,0,0:0:0:0:
448,192,164519,1,0,0:0:0:0:
64,192,164576,1,0,0:0:0:0:
192,192,164576,1,0,0:0:0:0:
320,192,164633,1,0,0:0:0:0:
448,192,164690,1,4,2:0:0:0:
192,192,164690,1,4,1:0:0:0:
64,192,164690,1,0,0:0:0:0:
64,192,165376,1,8,2:0:0:0:
192,192,165376,1,8,1:0:0:0:
320,192,165376,1,0,0:0:0:0:
448,192,165376,1,0,0:0:0:0:
320,192,165604,1,0,0:0:0:0:
64,192,165604,1,0,0:0:0:0:
320,192,165833,1,0,0:0:0:0:
64,192,165833,1,0,0:0:0:0:
448,192,166061,1,2,1:0:0:0:
320,192,166061,1,0,0:0:0:0:
192,192,166061,1,0,0:0:0:0:
448,192,166290,1,0,0:0:0:0:
192,192,166290,1,0,0:0:0:0:
320,192,166404,1,2,1:0:0:0:
64,192,166404,1,0,0:0:0:0:
448,192,166519,1,0,0:0:0:0:
192,192,166519,1,0,0:0:0:0:
320,192,166633,1,0,0:0:0:0:
448,192,166747,1,8,2:0:0:0:
320,192,166747,1,8,1:0:0:0:
192,192,166747,1,0,0:0:0:0:
64,192,166747,1,0,0:0:0:0:
192,192,166976,1,0,0:0:0:0:
448,192,166976,1,0,0:0:0:0:
192,192,167204,1,0,0:0:0:0:
448,192,167204,1,0,0:0:0:0:
448,192,167433,1,2,1:0:0:0:
64,192,167433,1,0,0:0:0:0:
192,192,167476,1,0,0:0:0:0:
320,192,167519,1,0,0:0:0:0:
320,192,167690,1,0,0:0:0:0:
192,192,167733,1,0,0:0:0:0:
64,192,167776,1,0,0:0:0:0:
64,192,167947,1,0,0:0:0:0:
192,192,167990,1,0,0:0:0:0:
320,192,168033,1,0,0:0:0:0:
64,192,168119,1,8,1:0:0:0:
448,192,168119,1,8,2:0:0:0:
320,192,168161,1,0,0:0:0:0:
192,192,168204,1,0,0:0:0:0:
192,192,168376,1,0,0:0:0:0:
320,192,168419,1,0,0:0:0:0:
448,192,168461,1,0,0:0:0:0:
448,192,168633,1,0,0:0:0:0:
320,192,168676,1,0,0:0:0:0:
192,192,168719,1,0,0:0:0:0:
448,192,168804,1,2,1:0:0:0:
64,192,168804,1,0,0:0:0:0:
192,192,168847,1,0,0:0:0:0:
320,192,168890,1,0,0:0:0:0:
448,192,169061,1,0,0:0:0:0:
320,192,169104,1,0,0:0:0:0:
64,192,169147,1,2,1:0:0:0:
192,192,169147,1,0,0:0:0:0:
320,192,169261,1,0,0:0:0:0:
448,192,169261,1,0,0:0:0:0:
64,192,169376,1,0,0:0:0:0:
192,192,169376,1,0,0:0:0:0:
320,192,169490,1,8,1:0:0:0:
448,192,169490,1,8,2:0:0:0:
192,192,169533,1,0,0:0:0:0:
64,192,169576,1,0,0:0:0:0:
192,192,169747,1,0,0:0:0:0:
320,192,169790,1,0,0:0:0:0:
448,192,169833,1,0,0:0:0:0:
64,192,170004,1,0,0:0:0:0:
192,192,170047,1,0,0:0:0:0:
320,192,170090,1,0,0:0:0:0:
64,192,170176,1,8,1:0:0:0:
192,192,170176,1,12,2:0:0:0:
448,192,170176,1,8,2:0:0:0:
320,192,170404,1,2,1:0:0:0:
192,192,170404,1,2,2:0:0:0:
64,192,170404,1,0,0:0:0:0:
320,192,170633,1,2,1:0:0:0:
192,192,170633,1,2,2:0:0:0:
64,192,170633,1,0,0:0:0:0:
192,192,170861,1,8,2:0:0:0:
64,192,170861,1,8,1:0:0:0:
448,192,170861,1,0,0:0:0:0:
448,192,171090,1,2,2:0:0:0:
320,192,171090,1,2,1:0:0:0:
192,192,171090,1,0,0:0:0:0:
192,192,171319,1,2,1:0:0:0:
320,192,171319,1,2,2:0:0:0:
448,192,171319,1,0,0:0:0:0:
64,192,171547,128,4,172919:2:0:0:0:
192,192,172919,1,2,1:0:0:0:
320,192,172919,1,2,2:0:0:0:
448,192,172919,1,0,0:0:0:0:
448,192,173090,1,2,1:0:0:0:
320,192,173090,1,2,2:0:0:0:
192,192,173090,1,0,0:0:0:0:
64,192,174290,1,0,0:0:0:0:
320,192,174290,1,0,0:0:0:0:
192,192,174633,1,2,2:0:0:0:
320,192,174633,1,0,0:0:0:0:
448,192,174633,1,0,0:0:0:0:
64,192,175147,1,2,2:0:0:0:
320,192,175147,1,0,0:0:0:0:
448,192,175147,1,0,0:0:0:0:
320,192,175661,128,0,176261:0:0:0:0:
64,192,176261,1,0,0:0:0:0:
448,192,176347,1,0,0:0:0:0:
320,192,176433,1,0,0:0:0:0:
192,192,176519,1,0,0:0:0:0:
448,192,176604,1,0,0:0:0:0:
320,192,176690,1,0,0:0:0:0:
192,192,176776,1,0,0:0:0:0:
320,192,176861,1,0,0:0:0:0:
448,192,176947,1,0,0:0:0:0:
64,192,177033,1,0,0:0:0:0:
192,192,177119,1,0,0:0:0:0:
448,192,177204,1,0,0:0:0:0:
320,192,177290,1,0,0:0:0:0:
64,192,177376,1,0,0:0:0:0:
192,192,177461,1,0,0:0:0:0:
320,192,177547,1,0,0:0:0:0:
192,192,177633,1,0,0:0:0:0:
64,192,177719,1,0,0:0:0:0:
448,192,177804,1,0,0:0:0:0:
320,192,177890,1,0,0:0:0:0:
192,192,177976,1,0,0:0:0:0:
64,192,178061,1,0,0:0:0:0:
192,192,178147,1,0,0:0:0:0:
320,192,178233,1,0,0:0:0:0:
192,192,178319,1,0,0:0:0:0:
64,192,178404,1,2,2:0:0:0:
320,192,178404,1,0,0:0:0:0:
448,192,178404,1,0,0:0:0:0:
192,192,178490,1,0,0:0:0:0:
64,192,178576,1,2,2:0:0:0:
320,192,178576,1,0,0:0:0:0:
448,192,178576,1,0,0:0:0:0:
192,192,178661,1,0,0:0:0:0:
320,192,178747,1,0,0:0:0:0:
448,192,178833,1,0,0:0:0:0:
64,192,178919,1,0,0:0:0:0:
192,192,179004,1,0,0:0:0:0:
320,192,179090,1,0,0:0:0:0:
192,192,179176,1,0,0:0:0:0:
64,192,179261,1,0,0:0:0:0:
448,192,179347,1,0,0:0:0:0:
320,192,179433,1,0,0:0:0:0:
192,192,179519,1,0,0:0:0:0:
320,192,179604,1,0,0:0:0:0:
448,192,179690,1,0,0:0:0:0:
64,192,179776,1,0,0:0:0:0:
192,192,179861,1,0,0:0:0:0:
448,192,179947,1,0,0:0:0:0:
320,192,180033,1,0,0:0:0:0:
192,192,180119,1,2,2:0:0:0:
64,192,180119,1,0,0:0:0:0:
448,192,180119,1,0,0:0:0:0:
320,192,180204,1,0,0:0:0:0:
64,192,180290,1,0,0:0:0:0:
192,192,180376,1,0,0:0:0:0:
320,192,180461,1,0,0:0:0:0:
192,192,180547,1,0,0:0:0:0:
64,192,180633,1,2,2:0:0:0:
320,192,180633,1,0,0:0:0:0:
448,192,180633,1,0,0:0:0:0:
192,192,180719,1,0,0:0:0:0:
448,192,180804,1,0,0:0:0:0:
320,192,180890,1,0,0:0:0:0:
192,192,180976,1,0,0:0:0:0:
320,192,181061,1,0,0:0:0:0:
448,192,181147,1,0,0:0:0:0:
64,192,181233,1,0,0:0:0:0:
320,192,181319,1,0,0:0:0:0:
192,192,181404,1,0,0:0:0:0:
448,192,181490,1,0,0:0:0:0:
64,192,181576,1,0,0:0:0:0:
192,192,181661,1,0,0:0:0:0:
320,192,181747,1,0,0:0:0:0:
64,192,181833,1,0,0:0:0:0:
448,192,181919,1,0,0:0:0:0:
192,192,182004,1,0,0:0:0:0:
320,192,182090,1,0,0:0:0:0:
64,192,182176,1,0,0:0:0:0:
448,192,182261,1,0,0:0:0:0:
320,192,182347,1,0,0:0:0:0:
192,192,182433,1,0,0:0:0:0:
64,192,182519,128,0,183804:0:0:0:0:
448,192,182519,1,0,0:0:0:0:
192,192,182604,1,0,0:0:0:0:
320,192,182690,1,0,0:0:0:0:
448,192,182776,1,0,0:0:0:0:
192,192,182861,1,0,0:0:0:0:
320,192,182947,1,0,0:0:0:0:
448,192,183033,1,0,0:0:0:0:
192,192,183119,1,0,0:0:0:0:
320,192,183204,1,0,0:0:0:0:
448,192,183290,1,0,0:0:0:0:
320,192,183376,1,0,0:0:0:0:
192,192,183461,1,0,0:0:0:0:
448,192,183547,128,0,183804:0:0:0:0:
320,192,183547,1,0,0:0:0:0:
192,192,183633,1,0,0:0:0:0:
320,192,183719,1,0,0:0:0:0:
192,192,183804,1,0,0:0:0:0:
64,192,183890,1,2,2:0:0:0:
448,192,183890,1,0,0:0:0:0:
320,192,183890,1,0,0:0:0:0:
64,192,184061,1,2,2:0:0:0:
448,192,184061,1,0,0:0:0:0:
320,192,184061,1,0,0:0:0:0:
64,192,186633,1,2,2:0:0:0:
192,192,186633,1,0,0:0:0:0:
448,192,186633,1,0,0:0:0:0:
448,192,186804,1,2,2:0:0:0:
192,192,186804,1,0,0:0:0:0:
64,192,186804,1,0,0:0:0:0:
64,192,189376,1,6,2:0:0:0:
320,192,189376,1,4,1:0:0:0:
448,192,189376,1,0,0:0:0:0:
192,192,189433,1,0,0:0:0:0:
448,192,189490,1,0,0:0:0:0:
320,192,189547,1,0,0:0:0:0:
64,192,189604,1,0,0:0:0:0:
192,192,189661,1,0,0:0:0:0:
320,192,189719,1,0,0:0:0:0:
448,192,189776,1,0,0:0:0:0:
64,192,189833,1,0,0:0:0:0:
192,192,189890,1,0,0:0:0:0:
320,192,189947,1,0,0:0:0:0:
448,192,190004,1,0,0:0:0:0:
64,192,190061,1,0,0:0:0:0:
192,192,190061,1,0,0:0:0:0:
320,192,190119,1,0,0:0:0:0:
192,192,190176,1,0,0:0:0:0:
64,192,190233,1,0,0:0:0:0:
448,192,190290,1,0,0:0:0:0:
320,192,190347,1,0,0:0:0:0:
192,192,190404,1,0,0:0:0:0:
64,192,190461,1,0,0:0:0:0:
448,192,190519,1,0,0:0:0:0:
320,192,190576,1,0,0:0:0:0:
64,192,190633,1,0,0:0:0:0:
192,192,190690,1,0,0:0:0:0:
320,192,190747,1,2,1:0:0:0:
448,192,190747,1,0,0:0:0:0:
64,192,190804,1,0,0:0:0:0:
192,192,190861,1,0,0:0:0:0:
320,192,190919,1,0,0:0:0:0:
448,192,190976,1,0,0:0:0:0:
64,192,191033,1,0,0:0:0:0:
320,192,191090,1,0,0:0:0:0:
192,192,191090,1,0,0:0:0:0:
448,192,191147,1,0,0:0:0:0:
64,192,191204,1,0,0:0:0:0:
192,192,191261,1,0,0:0:0:0:
448,192,191319,1,0,0:0:0:0:
320,192,191376,1,0,0:0:0:0:
192,192,191433,1,0,0:0:0:0:
64,192,191490,1,0,0:0:0:0:
448,192,191547,1,0,0:0:0:0:
320,192,191604,1,0,0:0:0:0:
192,192,191661,1,0,0:0:0:0:
64,192,191719,1,0,0:0:0:0:
448,192,191776,1,0,0:0:0:0:
320,192,191833,1,0,0:0:0:0:
192,192,191890,1,0,0:0:0:0:
320,192,191947,1,0,0:0:0:0:
448,192,191947,1,0,0:0:0:0:
192,192,192033,1,0,0:0:0:0:
64,192,192119,1,0,0:0:0:0:
448,192,192119,1,0,0:0:0:0:
192,192,192176,1,0,0:0:0:0:
320,192,192233,1,0,0:0:0:0:
448,192,192290,1,0,0:0:0:0:
64,192,192347,1,0,0:0:0:0:
192,192,192404,1,0,0:0:0:0:
320,192,192461,1,0,0:0:0:0:
448,192,192519,1,0,0:0:0:0:
64,192,192576,1,0,0:0:0:0:
192,192,192633,1,0,0:0:0:0:
448,192,192690,1,0,0:0:0:0:
320,192,192747,1,0,0:0:0:0:
64,192,192804,1,0,0:0:0:0:
192,192,192804,1,0,0:0:0:0:
448,192,192861,1,0,0:0:0:0:
320,192,192919,1,0,0:0:0:0:
64,192,192976,1,0,0:0:0:0:
192,192,193033,1,0,0:0:0:0:
320,192,193090,1,0,0:0:0:0:
448,192,193147,1,0,0:0:0:0:
64,192,193204,1,0,0:0:0:0:
192,192,193261,1,0,0:0:0:0:
320,192,193319,1,0,0:0:0:0:
448,192,193376,1,0,0:0:0:0:
320,192,193433,1,0,0:0:0:0:
64,192,193490,1,0,0:0:0:0:
192,192,193490,1,0,0:0:0:0:
448,192,193547,1,0,0:0:0:0:
320,192,193604,1,0,0:0:0:0:
192,192,193661,1,0,0:0:0:0:
64,192,193719,1,0,0:0:0:0:
192,192,193776,1,0,0:0:0:0:
320,192,193833,1,0,0:0:0:0:
448,192,193833,1,0,0:0:0:0:
64,192,193890,1,0,0:0:0:0:
192,192,193947,1,0,0:0:0:0:
320,192,194004,1,0,0:0:0:0:
448,192,194061,1,0,0:0:0:0:
320,192,194119,1,0,0:0:0:0:
64,192,194176,1,4,2:0:0:0:
192,192,194176,1,4,2:0:0:0:
320,192,194233,1,0,0:0:0:0:
448,192,194233,1,0,0:0:0:0:
64,192,194290,1,0,0:0:0:0:
192,192,194290,1,0,0:0:0:0:
320,192,194347,1,0,0:0:0:0:
448,192,194347,1,0,0:0:0:0:
192,192,194404,1,0,0:0:0:0:
64,192,194404,1,0,0:0:0:0:
320,192,194461,1,0,0:0:0:0:
448,192,194461,1,0,0:0:0:0:
64,192,194519,1,0,0:0:0:0:
192,192,194519,1,0,0:0:0:0:
320,192,194576,1,0,0:0:0:0:
448,192,194576,1,0,0:0:0:0:
192,192,194633,1,0,0:0:0:0:
64,192,194633,1,0,0:0:0:0:
320,192,194690,1,0,0:0:0:0:
448,192,194690,1,0,0:0:0:0:
192,192,194747,1,0,0:0:0:0:
64,192,194747,1,0,0:0:0:0:
320,192,194804,1,0,0:0:0:0:
448,192,194804,1,0,0:0:0:0:
192,192,194861,1,6,2:0:0:0:
64,192,194861,128,4,196233:2:0:0:0:
320,192,195204,1,0,0:0:0:0:
192,192,195547,1,8,2:0:0:0:
448,192,195547,1,0,2:0:0:0:
320,192,195890,1,0,0:0:0:0:
192,192,196233,128,2,196919:1:0:0:0:
448,192,196233,1,0,0:0:0:0:
64,192,196576,1,2,1:0:0:0:
448,192,196576,1,0,0:0:0:0:
448,192,196919,128,8,197604:2:0:0:0:
320,192,196919,1,0,2:0:0:0:
64,192,196919,1,0,0:0:0:0:
192,192,197261,1,0,0:0:0:0:
64,192,197604,128,2,198633:1:0:0:0:
192,192,197604,1,0,0:0:0:0:
320,192,197604,1,0,0:0:0:0:
448,192,197947,1,0,0:0:0:0:
448,192,198290,1,8,2:0:0:0:
320,192,198290,1,0,2:0:0:0:
192,192,198290,1,0,0:0:0:0:
448,192,198633,128,0,198804:0:0:0:0:
320,192,198804,128,0,198976:0:0:0:0:
64,192,198976,1,2,0:0:0:0:
448,192,198976,128,0,199147:0:0:0:0:
320,192,199147,128,0,199319:0:0:0:0:
64,192,199319,1,2,1:0:0:0:
192,192,199319,128,0,199661:0:0:0:0:
64,192,199661,1,8,2:0:0:0:
448,192,199661,1,0,2:0:0:0:
320,192,199661,1,0,0:0:0:0:
320,192,200004,128,0,200347:0:0:0:0:
64,192,200347,128,2,201033:1:0:0:0:
448,192,200347,1,0,0:0:0:0:
320,192,200690,1,0,0:0:0:0:
192,192,201033,1,8,2:0:0:0:
320,192,201033,1,0,2:0:0:0:
448,192,201033,1,0,0:0:0:0:
320,192,201376,128,0,201547:0:0:0:0:
192,192,201547,128,0,201719:0:0:0:0:
64,192,201719,128,2,202061:1:0:0:0:
448,192,201719,1,0,0:0:0:0:
448,192,202061,128,2,202404:1:0:0:0:
320,192,202061,1,0,0:0:0:0:
192,192,202404,128,8,202747:2:0:0:0:
64,192,202404,1,0,2:0:0:0:
320,192,202747,128,0,203090:0:0:0:0:
448,192,203090,128,2,203604:2:0:0:0:
64,192,203090,128,2,203604:1:0:0:0:
192,192,203433,1,0,0:0:0:0:
320,192,203776,128,0,203947:0:0:0:0:
448,192,203776,128,0,203947:0:0:0:0:
448,192,204004,128,0,204176:0:0:0:0:
192,192,204004,128,0,204176:0:0:0:0:
448,192,204233,128,0,204404:0:0:0:0:
64,192,204233,128,0,204404:0:0:0:0:
64,192,204461,128,2,205147:1:0:0:0:
320,192,204461,128,0,205147:0:0:0:0:
192,192,204461,1,0,0:0:0:0:
192,192,204804,1,2,1:0:0:0:
448,192,204804,1,0,0:0:0:0:
448,192,205147,128,0,205747:0:0:0:0:
192,192,205147,128,0,205747:0:0:0:0:
64,192,205490,1,0,0:0:0:0:
320,192,205490,1,0,0:0:0:0:
320,192,205833,1,4,2:0:0:0:
192,192,205833,1,4,1:0:0:0:
448,192,205833,1,2,2:0:0:0:
64,192,205833,1,0,0:0:0:0:
320,192,206176,1,0,0:0:0:0:
64,192,206519,1,8,2:0:0:0:
192,192,206519,1,0,0:0:0:0:
448,192,206519,1,0,0:0:0:0:
320,192,206861,1,0,0:0:0:0:
64,192,207204,1,2,1:0:0:0:
192,192,207204,1,0,0:0:0:0:
192,192,207547,1,2,1:0:0:0:
64,192,207547,1,0,0:0:0:0:
64,192,207890,1,8,2:0:0:0:
320,192,207890,1,0,0:0:0:0:
448,192,207890,1,0,0:0:0:0:
192,192,208233,1,0,0:0:0:0:
320,192,208576,1,2,1:0:0:0:
448,192,208576,1,0,0:0:0:0:
64,192,208919,1,0,0:0:0:0:
192,192,209261,1,8,2:0:0:0:
448,192,209261,1,0,0:0:0:0:
320,192,209261,1,0,0:0:0:0:
64,192,209604,128,0,209776:0:0:0:0:
192,192,209776,128,0,209947:0:0:0:0:
448,192,209947,1,2,1:0:0:0:
64,192,209947,128,0,210119:0:0:0:0:
192,192,210119,128,0,210290:0:0:0:0:
448,192,210290,1,2,1:0:0:0:
320,192,210290,128,0,210633:0:0:0:0:
192,192,210633,1,8,2:0:0:0:
64,192,210633,1,0,0:0:0:0:
448,192,210633,1,0,0:0:0:0:
64,192,210976,1,0,0:0:0:0:
448,192,210976,1,0,0:0:0:0:
192,192,211147,1,0,0:0:0:0:
448,192,211147,1,0,0:0:0:0:
320,192,211319,1,4,2:0:0:0:
448,192,211319,1,4,1:0:0:0:
192,192,211319,1,0,0:0:0:0:
64,192,211319,1,0,0:0:0:0:
320,192,211661,1,0,0:0:0:0:
64,192,211661,1,0,0:0:0:0:
192,192,211776,1,0,0:0:0:0:
448,192,211776,1,0,0:0:0:0:
320,192,211890,1,0,0:0:0:0:
64,192,211890,1,0,0:0:0:0:
192,192,212004,1,8,2:0:0:0:
448,192,212004,1,0,0:0:0:0:
64,192,212347,1,0,0:0:0:0:
192,192,212347,1,0,0:0:0:0:
192,192,212519,1,0,0:0:0:0:
448,192,212519,1,0,0:0:0:0:
64,192,212690,1,2,1:0:0:0:
320,192,212690,1,0,0:0:0:0:
448,192,212690,1,0,0:0:0:0:
64,192,213033,1,2,1:0:0:0:
448,192,213033,1,0,0:0:0:0:
320,192,213147,1,0,0:0:0:0:
192,192,213147,1,0,0:0:0:0:
448,192,213261,1,0,0:0:0:0:
64,192,213261,1,0,0:0:0:0:
320,192,213376,1,8,2:0:0:0:
192,192,213376,1,0,0:0:0:0:
64,192,213719,1,0,0:0:0:0:
192,192,213719,1,0,0:0:0:0:
64,192,213890,1,0,0:0:0:0:
448,192,213890,1,0,0:0:0:0:
320,192,214061,1,2,1:0:0:0:
448,192,214061,1,0,0:0:0:0:
192,192,214061,1,0,0:0:0:0:
448,192,214404,1,0,0:0:0:0:
320,192,214404,1,0,0:0:0:0:
192,192,214519,1,0,0:0:0:0:
64,192,214519,1,0,0:0:0:0:
320,192,214633,1,0,0:0:0:0:
448,192,214633,1,0,0:0:0:0:
64,192,214747,1,8,2:0:0:0:
192,192,214747,1,0,0:0:0:0:
320,192,215433,1,2,1:0:0:0:
448,192,215433,1,0,0:0:0:0:
64,192,215433,128,0,216119:0:0:0:0:
320,192,215776,1,2,1:0:0:0:
448,192,215776,1,0,0:0:0:0:
320,192,216119,1,8,2:0:0:0:
448,192,216119,1,0,0:0:0:0:
192,192,216119,128,0,216719:0:0:0:0:
448,192,216804,128,4,221947:2:0:0:0:
64,192,216804,1,4,1:0:0:0:
320,192,216804,1,0,0:0:0:0:
192,192,216804,1,0,0:0:0:0:
64,192,217490,1,8,2:0:0:0:
320,192,217490,1,0,0:0:0:0:
320,192,217833,1,0,0:0:0:0:
192,192,218176,1,2,1:0:0:0:
64,192,218176,1,0,0:0:0:0:
64,192,218519,1,2,1:0:0:0:
192,192,218519,1,0,0:0:0:0:
64,192,218861,1,8,2:0:0:0:
320,192,218861,1,0,0:0:0:0:
320,192,219161,128,0,219247:0:0:0:0:
192,192,219376,128,0,219461:0:0:0:0:
320,192,219547,1,2,1:0:0:0:
192,192,219547,1,0,0:0:0:0:
64,192,219547,128,0,220147:0:0:0:0:
64,192,220233,1,8,2:0:0:0:
192,192,220233,1,0,0:0:0:0:
320,192,220233,1,0,0:0:0:0:
320,192,220576,1,0,0:0:0:0:
192,192,220919,1,2,1:0:0:0:
64,192,220919,1,0,0:0:0:0:
64,192,221261,1,2,1:0:0:0:
192,192,221261,1,0,0:0:0:0:
64,192,221604,1,8,2:0:0:0:
320,192,221604,1,0,0:0:0:0:
64,192,222290,1,4,2:0:0:0:
192,192,222290,1,4,1:0:0:0:
320,192,222290,1,0,0:0:0:0:
448,192,222290,1,0,0:0:0:0:
192,192,222633,1,0,0:0:0:0:
64,192,222976,1,8,2:0:0:0:
320,192,222976,1,0,0:0:0:0:
448,192,222976,1,0,0:0:0:0:
320,192,223319,1,0,0:0:0:0:
192,192,223661,1,2,1:0:0:0:
64,192,223661,1,0,0:0:0:0:
448,192,223661,1,0,0:0:0:0:
448,192,224004,1,2,1:0:0:0:
192,192,224004,1,0,0:0:0:0:
64,192,224004,1,0,0:0:0:0:
192,192,224347,1,8,2:0:0:0:
448,192,224347,1,0,0:0:0:0:
192,192,224576,1,0,0:0:0:0:
448,192,224576,1,0,0:0:0:0:
192,192,224804,1,0,0:0:0:0:
448,192,224804,1,0,0:0:0:0:
64,192,225033,1,2,1:0:0:0:
448,192,225033,1,0,0:0:0:0:
320,192,225033,1,0,0:0:0:0:
64,192,225376,1,0,0:0:0:0:
192,192,225719,1,8,2:0:0:0:
320,192,225719,1,0,0:0:0:0:
448,192,225719,1,0,0:0:0:0:
448,192,226061,1,0,0:0:0:0:
64,192,226404,1,2,1:0:0:0:
192,192,226404,1,0,0:0:0:0:
320,192,226404,1,0,0:0:0:0:
320,192,226747,1,2,1:0:0:0:
192,192,226747,1,0,0:0:0:0:
64,192,226747,1,0,0:0:0:0:
448,192,227090,128,8,227690:2:0:0:0:
320,192,227090,128,0,227690:0:0:0:0:
448,192,227776,1,4,2:0:0:0:
320,192,227776,1,4,1:0:0:0:
192,192,227776,1,2,2:0:0:0:
64,192,227776,128,0,229147:0:0:0:0:
320,192,229147,128,0,229833:0:0:0:0:
192,192,229833,128,0,230519:0:0:0:0:
448,192,230519,128,0,231204:0:0:0:0:
320,192,231204,128,0,231890:0:0:0:0:
64,192,231890,128,0,232404:0:0:0:0:
448,192,232404,128,0,232490:0:0:0:0:
320,192,232490,128,0,232576:0:0:0:0:
192,192,232576,128,0,232919:0:0:0:0:
320,192,233261,128,0,233947:0:0:0:0:
64,192,234461,1,0,0:0:0:0:
448,192,234633,128,0,235319:0:0:0:0:
64,192,235319,128,0,236004:0:0:0:0:
320,192,236004,128,0,236690:0:0:0:0:
192,192,237247,1,0,0:0:0:0:
320,192,237333,1,0,0:0:0:0:
448,192,237419,128,0,237719:0:0:0:0:
192,192,237719,128,0,238061:0:0:0:0:
320,192,238061,128,0,238319:0:0:0:0:
192,192,238319,128,0,238533:0:0:0:0:
64,192,238533,128,0,238747:0:0:0:0:
448,192,238747,128,0,239090:0:0:0:0:
320,192,239090,128,0,239433:0:0:0:0:
192,192,239433,128,0,239776:0:0:0:0:
64,192,239776,128,0,240119:0:0:0:0:
448,192,240119,128,0,240461:0:0:0:0:
320,192,240461,128,0,240804:0:0:0:0:
192,192,240804,128,0,241147:0:0:0:0:
64,192,241147,128,0,241490:0:0:0:0:
192,192,241490,1,8,1:0:0:0:
320,192,241490,1,2,2:0:0:0:
448,192,241490,1,0,0:0:0:0:
192,192,241719,1,2,1:0:0:0:
320,192,241719,1,2,2:0:0:0:
448,192,241719,1,0,0:0:0:0:
64,192,241947,1,2,2:0:0:0:
192,192,241947,1,2,1:0:0:0:
320,192,242004,1,2,1:0:0:0:
448,192,242004,1,0,0:0:0:0:
192,192,242061,1,2,1:0:0:0:
64,192,242061,1,0,0:0:0:0:
448,192,242119,1,2,1:0:0:0:
320,192,242176,1,8,1:0:0:0:
192,192,242176,1,2,2:0:0:0:
64,192,242176,1,0,0:0:0:0:
64,192,242404,1,8,1:0:0:0:
192,192,242404,1,2,2:0:0:0:
320,192,242404,1,0,0:0:0:0:
192,192,242633,1,2,1:0:0:0:
320,192,242633,1,2,2:0:0:0:
448,192,242633,1,0,0:0:0:0:
64,192,242861,1,10,2:0:0:0:
320,192,242861,1,8,2:0:0:0:
448,192,242861,1,8,1:0:0:0:
320,192,243090,1,10,2:0:0:0:
448,192,243090,1,2,1:0:0:0:
64,192,243090,1,0,0:0:0:0:
320,192,243319,1,10,2:0:0:0:
448,192,243319,1,8,2:0:0:0:
64,192,243319,1,2,1:0:0:0:
64,192,243547,1,10,2:0:0:0:
320,192,243547,1,8,2:0:0:0:
448,192,243547,1,2,1:0:0:0:
448,192,243719,128,0,244061:0:0:0:0:
320,192,243804,128,0,243976:0:0:0:0:
64,192,243890,128,0,244061:0:0:0:0:
192,192,243976,128,0,244147:0:0:0:0:
320,192,244061,128,0,244233:0:0:0:0:
448,192,244147,128,0,244233:0:0:0:0:
64,192,244233,128,4,245604:1:0:0:0:
192,192,244233,1,4,1:0:0:0:
320,192,244490,1,0,0:0:0:0:
448,192,244490,1,0,0:0:0:0:
320,192,244576,1,2,1:0:0:0:
192,192,244576,1,0,0:0:0:0:
192,192,244747,1,0,0:0:0:0:
320,192,244747,1,0,0:0:0:0:
192,192,244919,1,8,2:0:0:0:
320,192,244919,1,8,1:0:0:0:
448,192,244919,1,0,0:0:0:0:
320,192,245090,1,0,0:0:0:0:
448,192,245090,1,0,0:0:0:0:
192,192,245261,1,2,1:0:0:0:
320,192,245261,1,0,0:0:0:0:
192,192,245433,1,0,0:0:0:0:
320,192,245433,1,0,0:0:0:0:
192,192,245604,1,2,1:0:0:0:
320,192,245604,1,0,0:0:0:0:
448,192,245604,128,0,246204:0:0:0:0:
64,192,245776,1,0,0:0:0:0:
192,192,245776,1,0,0:0:0:0:
64,192,245947,1,2,1:0:0:0:
320,192,245947,1,0,0:0:0:0:
192,192,246119,1,0,0:0:0:0:
320,192,246119,1,0,0:0:0:0:
64,192,246290,128,8,246976:2:0:0:0:
448,192,246290,1,8,1:0:0:0:
320,192,246290,1,0,0:0:0:0:
192,192,246290,1,0,0:0:0:0:
320,192,246461,1,0,0:0:0:0:
448,192,246461,1,0,0:0:0:0:
192,192,246633,1,2,1:0:0:0:
320,192,246633,1,0,0:0:0:0:
320,192,246804,1,0,0:0:0:0:
192,192,246804,1,0,0:0:0:0:
192,192,246976,1,2,1:0:0:0:
320,192,246976,1,0,0:0:0:0:
448,192,246976,128,0,247576:0:0:0:0:
64,192,247147,1,0,0:0:0:0:
320,192,247147,1,0,0:0:0:0:
64,192,247319,1,2,1:0:0:0:
192,192,247319,1,0,0:0:0:0:
64,192,247490,1,0,0:0:0:0:
320,192,247490,1,0,0:0:0:0:
192,192,247661,128,8,248347:2:0:0:0:
64,192,247661,1,8,1:0:0:0:
320,192,247661,1,0,0:0:0:0:
448,192,247661,1,0,0:0:0:0:
320,192,247833,1,0,0:0:0:0:
448,192,247833,1,0,0:0:0:0:
64,192,248004,1,2,1:0:0:0:
448,192,248004,1,0,0:0:0:0:
320,192,248176,1,0,0:0:0:0:
64,192,248176,1,0,0:0:0:0:
64,192,248347,1,2,1:0:0:0:
320,192,248347,1,0,0:0:0:0:
448,192,248347,128,0,248861:0:0:0:0:
192,192,248519,1,0,0:0:0:0:
64,192,248519,1,0,0:0:0:0:
64,192,248690,1,2,1:0:0:0:
192,192,248690,1,0,0:0:0:0:
64,192,248861,1,0,0:0:0:0:
320,192,248861,1,0,0:0:0:0:
448,192,248947,1,0,0:0:0:0:
320,192,249033,1,8,1:0:0:0:
64,192,249033,1,8,2:0:0:0:
192,192,249033,128,0,249376:0:0:0:0:
320,192,249204,1,0,0:0:0:0:
64,192,249204,1,0,0:0:0:0:
320,192,249376,1,2,1:0:0:0:
448,192,249376,1,0,0:0:0:0:
192,192,249547,1,0,0:0:0:0:
64,192,249719,1,2,1:0:0:0:
320,192,249719,1,0,0:0:0:0:
448,192,249719,128,0,250319:0:0:0:0:
192,192,249890,1,0,0:0:0:0:
64,192,249890,1,0,0:0:0:0:
64,192,250061,1,2,1:0:0:0:
320,192,250061,1,0,0:0:0:0:
192,192,250233,1,0,0:0:0:0:
320,192,250233,1,0,0:0:0:0:
64,192,250404,1,8,2:0:0:0:
192,192,250404,1,8,1:0:0:0:
320,192,250404,1,0,0:0:0:0:
448,192,250404,1,0,0:0:0:0:
64,192,250576,1,0,0:0:0:0:
320,192,250576,1,0,0:0:0:0:
192,192,250747,1,2,1:0:0:0:
64,192,250747,1,0,0:0:0:0:
448,192,250919,128,0,251090:0:0:0:0:
320,192,250919,1,0,0:0:0:0:
192,192,251090,1,2,1:0:0:0:
320,192,251090,1,0,0:0:0:0:
64,192,251090,128,0,251690:0:0:0:0:
192,192,251261,1,0,0:0:0:0:
448,192,251261,1,0,0:0:0:0:
320,192,251433,1,2,1:0:0:0:
448,192,251433,1,0,0:0:0:0:
192,192,251604,1,0,0:0:0:0:
320,192,251604,1,0,0:0:0:0:
192,192,251776,1,8,1:0:0:0:
448,192,251776,1,8,2:0:0:0:
64,192,251776,1,0,0:0:0:0:
320,192,251776,128,0,252461:0:0:0:0:
192,192,251947,1,0,0:0:0:0:
64,192,251947,1,0,0:0:0:0:
192,192,252119,1,2,1:0:0:0:
64,192,252119,1,0,0:0:0:0:
192,192,252290,1,0,0:0:0:0:
448,192,252290,1,0,0:0:0:0:
192,192,252461,1,2,1:0:0:0:
448,192,252461,1,0,0:0:0:0:
64,192,252461,128,0,253061:0:0:0:0:
320,192,252633,1,0,0:0:0:0:
448,192,252633,1,0,0:0:0:0:
320,192,252804,1,2,1:0:0:0:
192,192,252804,1,0,0:0:0:0:
192,192,252976,1,0,0:0:0:0:
320,192,252976,1,0,0:0:0:0:
64,192,253147,1,8,2:0:0:0:
192,192,253147,1,8,1:0:0:0:
320,192,253147,1,0,0:0:0:0:
448,192,253147,1,0,0:0:0:0:
320,192,253319,1,0,0:0:0:0:
448,192,253319,1,0,0:0:0:0:
64,192,253490,1,2,1:0:0:0:
320,192,253490,1,0,0:0:0:0:
64,192,253661,1,0,0:0:0:0:
192,192,253661,1,0,0:0:0:0:
448,192,253747,1,0,0:0:0:0:
320,192,253833,1,2,1:0:0:0:
64,192,253833,1,0,0:0:0:0:
192,192,253833,1,0,0:0:0:0:
192,192,254004,1,0,0:0:0:0:
448,192,254004,1,0,0:0:0:0:
320,192,254176,1,2,1:0:0:0:
448,192,254176,1,0,0:0:0:0:
64,192,254176,1,0,0:0:0:0:
64,192,254347,1,0,0:0:0:0:
320,192,254347,1,0,0:0:0:0:
64,192,254519,1,8,1:0:0:0:
192,192,254519,1,8,2:0:0:0:
320,192,254519,1,0,0:0:0:0:
448,192,254519,1,0,0:0:0:0:
64,192,254690,1,8,3:0:0:0:
192,192,254690,1,0,0:0:0:0:
320,192,254776,1,4,3:0:0:0:
448,192,254776,1,0,0:0:0:0:
192,192,254861,1,2,1:0:0:0:
64,192,254861,1,0,0:0:0:0:
192,192,255033,1,8,2:0:0:0:
320,192,255033,1,2,1:0:0:0:
64,192,255204,1,4,1:0:0:0:
192,192,255204,1,4,2:0:0:0:
320,192,255204,1,0,0:0:0:0:
448,192,255204,128,0,255461:0:0:0:0:
64,192,255376,1,0,0:0:0:0:
64,192,255547,1,2,1:0:0:0:
192,192,255547,1,0,0:0:0:0:
448,192,255547,1,0,0:0:0:0:
320,192,255547,128,0,255804:0:0:0:0:
448,192,255719,1,0,0:0:0:0:
64,192,255890,1,8,2:0:0:0:
320,192,255890,1,8,1:0:0:0:
448,192,255890,1,0,0:0:0:0:
192,192,255890,128,0,256147:0:0:0:0:
320,192,256061,1,0,0:0:0:0:
64,192,256233,128,2,256490:1:0:0:0:
192,192,256233,1,0,0:0:0:0:
320,192,256233,1,0,0:0:0:0:
448,192,256233,1,0,0:0:0:0:
192,192,256404,1,0,0:0:0:0:
64,192,256576,1,2,1:0:0:0:
320,192,256576,1,0,0:0:0:0:
448,192,256576,1,0,0:0:0:0:
192,192,256747,1,8,2:0:0:0:
448,192,256747,1,0,0:0:0:0:
320,192,256833,1,2,1:0:0:0:
64,192,256833,1,0,0:0:0:0:
192,192,256919,1,2,1:0:0:0:
448,192,256919,1,0,0:0:0:0:
64,192,257090,1,8,2:0:0:0:
320,192,257090,1,0,0:0:0:0:
192,192,257261,1,8,1:0:0:0:
64,192,257261,1,8,2:0:0:0:
448,192,257261,1,0,0:0:0:0:
320,192,257261,1,0,0:0:0:0:
320,192,257433,1,0,0:0:0:0:
192,192,257433,1,0,0:0:0:0:
64,192,257604,1,2,1:0:0:0:
320,192,257604,1,0,0:0:0:0:
448,192,257604,1,0,0:0:0:0:
192,192,257776,1,2,1:0:0:0:
64,192,257776,1,0,0:0:0:0:
192,192,257947,1,2,2:0:0:0:
320,192,257947,1,0,0:0:0:0:
448,192,257947,128,0,258461:0:0:0:0:
64,192,258119,1,2,2:0:0:0:
320,192,258119,1,0,0:0:0:0:
64,192,258461,1,0,0:0:0:0:
192,192,258547,1,0,0:0:0:0:
320,192,258633,128,0,258976:0:0:0:0:
64,192,258976,128,0,259319:0:0:0:0:
192,192,259319,128,0,260004:0:0:0:0:
320,192,260347,1,0,0:0:0:0:
448,192,260347,1,0,0:0:0:0:
192,192,260476,1,0,0:0:0:0:
64,192,260476,1,0,0:0:0:0:
320,192,260604,1,0,0:0:0:0:
448,192,260604,1,0,0:0:0:0:
64,192,260747,1,4,1:0:0:0:
320,192,260747,1,4,2:0:0:0:
448,192,260747,1,0,0:0:0:0:
192,192,260747,1,0,0:0:0:0:
192,192,260861,1,0,0:0:0:0:
64,192,260861,1,0,0:0:0:0:
64,192,261033,1,2,1:0:0:0:
320,192,261033,1,0,0:0:0:0:
448,192,261033,1,0,0:0:0:0:
192,192,261204,1,0,0:0:0:0:
448,192,261204,1,0,0:0:0:0:
320,192,261290,1,0,0:0:0:0:
448,192,261376,1,8,2:0:0:0:
320,192,261376,1,8,1:0:0:0:
64,192,261376,1,0,0:0:0:0:
192,192,261376,1,0,0:0:0:0:
64,192,261547,1,0,0:0:0:0:
320,192,261547,1,0,0:0:0:0:
64,192,261719,1,2,1:0:0:0:
192,192,261719,1,0,0:0:0:0:
448,192,261719,1,0,0:0:0:0:
192,192,261890,1,0,0:0:0:0:
448,192,261890,1,0,0:0:0:0:
320,192,262061,1,2,1:0:0:0:
448,192,262061,1,0,0:0:0:0:
64,192,262061,1,0,0:0:0:0:
64,192,262233,1,0,0:0:0:0:
192,192,262233,1,0,0:0:0:0:
192,192,262404,1,2,1:0:0:0:
320,192,262404,1,0,0:0:0:0:
448,192,262404,1,0,0:0:0:0:
320,192,262576,1,0,0:0:0:0:
448,192,262576,1,0,0:0:0:0:
64,192,262747,1,8,2:0:0:0:
192,192,262747,1,8,1:0:0:0:
320,192,262747,1,0,0:0:0:0:
448,192,262747,1,0,0:0:0:0:
192,192,262919,1,0,0:0:0:0:
64,192,262919,1,0,0:0:0:0:
192,192,263090,1,2,1:0:0:0:
64,192,263090,1,0,0:0:0:0:
320,192,263090,1,0,0:0:0:0:
192,192,263261,1,0,0:0:0:0:
320,192,263261,1,0,0:0:0:0:
448,192,263261,1,0,0:0:0:0:
64,192,263433,1,4,2:0:0:0:
320,192,263433,1,4,1:0:0:0:
192,192,263433,1,0,0:0:0:0:
448,192,263433,1,0,0:0:0:0:
192,192,263690,1,0,0:0:0:0:
320,192,263690,1,0,0:0:0:0:
448,192,263690,1,0,0:0:0:0:
320,192,263890,1,0,0:0:0:0:
448,192,263890,1,0,0:0:0:0:
64,192,264004,1,0,0:0:0:0:
64,192,264119,1,8,1:0:0:0:
192,192,264119,1,8,2:0:0:0:
320,192,264119,1,0,0:0:0:0:
448,192,264119,1,0,0:0:0:0:
448,192,264633,1,2,1:0:0:0:
320,192,264633,1,0,0:0:0:0:
192,192,264690,1,2,1:0:0:0:
64,192,264690,1,0,0:0:0:0:
320,192,264747,1,2,1:0:0:0:
448,192,264804,1,4,1:0:0:0:
192,192,264804,1,4,2:0:0:0:
64,192,264804,1,0,0:0:0:0:
192,192,265061,1,0,0:0:0:0:
320,192,265061,1,0,0:0:0:0:
448,192,265061,1,0,0:0:0:0:
192,192,265261,1,0,0:0:0:0:
64,192,265261,1,0,0:0:0:0:
320,192,265376,1,0,0:0:0:0:
64,192,265490,1,8,2:0:0:0:
192,192,265490,1,8,1:0:0:0:
320,192,265490,1,0,0:0:0:0:
448,192,265490,1,0,0:0:0:0:
64,192,266176,1,4,2:0:0:0:
192,192,266176,1,4,2:0:0:0:
320,192,266176,1,0,0:0:0:0:
448,192,266176,1,0,0:0:0:0:
448,192,266404,1,0,0:0:0:0:
192,192,266404,1,0,0:0:0:0:
64,192,266404,1,0,0:0:0:0:
64,192,266633,1,0,0:0:0:0:
192,192,266633,1,0,0:0:0:0:
448,192,266747,1,0,0:0:0:0:
64,192,266861,1,4,1:0:0:0:
192,192,266861,1,4,1:0:0:0:
320,192,266861,1,0,0:0:0:0:
448,192,266861,1,0,0:0:0:0:
320,192,267090,1,0,0:0:0:0:
192,192,267090,1,0,0:0:0:0:
64,192,267090,1,0,0:0:0:0:
320,192,267319,1,0,0:0:0:0:
448,192,267319,1,0,0:0:0:0:
192,192,267433,1,0,0:0:0:0:
64,192,267547,1,4,2:0:0:0:
192,192,267547,1,4,2:0:0:0:
320,192,267547,1,0,0:0:0:0:
448,192,267547,1,0,0:0:0:0:
192,192,267776,1,0,0:0:0:0:
320,192,267776,1,0,0:0:0:0:
448,192,267776,1,0,0:0:0:0:
192,192,268004,1,0,0:0:0:0:
320,192,268004,1,0,0:0:0:0:
448,192,268004,1,0,0:0:0:0:
64,192,268233,1,4,1:0:0:0:
192,192,268233,1,4,1:0:0:0:
320,192,268233,1,0,0:0:0:0:
448,192,268233,1,0,0:0:0:0:
320,192,268404,1,0,0:0:0:0:
448,192,268404,1,0,0:0:0:0:
64,192,268576,1,0,0:0:0:0:
192,192,268576,1,0,0:0:0:0:
448,192,268576,1,0,0:0:0:0:
192,192,268690,1,0,0:0:0:0:
448,192,268690,1,0,0:0:0:0:
64,192,268690,1,0,0:0:0:0:
448,192,268804,1,0,0:0:0:0:
64,192,268804,1,0,0:0:0:0:
192,192,268804,1,0,0:0:0:0:
448,192,268919,128,4,271661:2:0:0:0:
64,192,268919,128,4,269519:1:0:0:0:
192,192,268919,128,0,269519:0:0:0:0:
320,192,268919,1,0,0:0:0:0:
192,192,269604,1,8,2:0:0:0:
320,192,269604,1,8,1:0:0:0:
64,192,269604,128,0,270204:0:0:0:0:
192,192,270290,1,2,1:0:0:0:
64,192,270290,1,0,0:0:0:0:
320,192,270290,128,0,270890:0:0:0:0:
64,192,270633,1,2,1:0:0:0:
192,192,270633,1,0,0:0:0:0:
64,192,270976,1,8,2:0:0:0:
192,192,270976,1,8,1:0:0:0:
320,192,270976,128,0,271061:0:0:0:0:
320,192,271204,128,0,271319:0:0:0:0:
320,192,271433,128,0,271661:0:0:0:0:
192,192,271661,1,2,1:0:0:0:
64,192,271661,128,0,272261:0:0:0:0:
64,192,272347,1,8,1:0:0:0:
320,192,272347,1,8,2:0:0:0:
448,192,272347,1,0,0:0:0:0:
192,192,272347,128,0,273033:0:0:0:0:
448,192,273033,1,2,1:0:0:0:
320,192,273033,128,0,273290:0:0:0:0:
448,192,273376,1,2,1:0:0:0:
320,192,273376,1,0,0:0:0:0:
192,192,273490,1,0,0:0:0:0:
64,192,273604,1,0,0:0:0:0:
448,192,273719,1,8,1:0:0:0:
320,192,273719,1,8,2:0:0:0:
192,192,273719,128,0,274319:0:0:0:0:
448,192,273947,1,0,0:0:0:0:
448,192,274176,1,0,0:0:0:0:
64,192,274404,1,12,1:0:0:0:
192,192,274404,1,4,2:0:0:0:
320,192,274404,1,0,0:0:0:0:
448,192,274404,128,0,274919:0:0:0:0:
64,192,274919,1,0,0:0:0:0:
192,192,275004,1,0,0:0:0:0:
320,192,275090,128,0,275604:0:0:0:0:
448,192,275604,1,0,0:0:0:0:
320,192,275690,1,0,0:0:0:0:
64,192,275776,1,0,0:0:0:0:
192,192,275776,128,0,276461:0:0:0:0:
64,192,276033,1,0,0:0:0:0:
448,192,276033,1,0,0:0:0:0:
64,192,276461,128,0,276576:0:0:0:0:
448,192,276461,128,0,276576:0:0:0:0:
192,192,276690,128,0,276804:0:0:0:0:
448,192,276690,128,0,276804:0:0:0:0:
320,192,276919,128,0,277033:0:0:0:0:
448,192,276919,128,0,277033:0:0:0:0:
448,192,277147,128,0,277833:0:0:0:0:
64,192,277147,128,0,277661:0:0:0:0:
320,192,277661,1,0,0:0:0:0:
192,192,277747,1,0,0:0:0:0:
64,192,277833,128,0,278519:0:0:0:0:
448,192,278347,1,0,0:0:0:0:
192,192,278347,1,0,0:0:0:0:
320,192,278433,1,0,0:0:0:0:
448,192,278519,128,0,279204:0:0:0:0:
192,192,278519,1,0,0:0:0:0:
64,192,278747,1,0,0:0:0:0:
64,192,278976,1,0,0:0:0:0:
192,192,279204,128,0,279719:0:0:0:0:
448,192,279890,128,0,282590:0:0:0:0:
64,192,279890,128,0,280404:0:0:0:0:
320,192,280404,1,0,0:0:0:0:
192,192,280490,1,0,0:0:0:0:
64,192,280576,128,0,282590:0:0:0:0:
320,192,280576,128,0,282590:0:0:0:0:
64,192,282633,1,2,1:0:0:0:
192,192,282633,1,2,2:0:0:0:
320,192,282633,1,2,2:0:0:0:
448,192,282633,1,0,0:0:0:0:
