osu file format v14

[General]
AudioFilename: audio.mp3
AudioLeadIn: 0
PreviewTime: 54966
Countdown: 0
SampleSet: Normal
StackLeniency: 0.7
Mode: 3
LetterboxInBreaks: 0
SpecialStyle: 0
WidescreenStoryboard: 1

[Editor]
Bookmarks: 171547,194861,227776
DistanceSpacing: 1.6
BeatDivisor: 8
GridSize: 4
TimelineZoom: 1.7

[Metadata]
Title:KABANERI OF THE IRON FORTRESS
TitleUnicode:KABANERI OF THE IRON FORTRESS
Artist:EGOIST
ArtistUnicode:EGOIST
Creator:Wonki
Version:Hard // 7K
Source:
Tags:Fontes LordRaika Kim_GodSSI 甲鉄城のカバネリ koutetsujou no kabaneri kabaneri of the iron fortress supercell
BeatmapID:1293581
BeatmapSetID:611325

[Difficulty]
HPDrainRate:7.5
CircleSize:7
OverallDifficulty:7.5
ApproachRate:5
SliderMultiplier:1.4
SliderTickRate:1

[Events]
//Background and Video events
0,0,"56838849_p0.jpg",0,0
//Break Periods
//Storyboard Layer 0 (Background)
//Storyboard Layer 1 (Fail)
//Storyboard Layer 2 (Pass)
//Storyboard Layer 3 (Foreground)
//Storyboard Sound Samples

[TimingPoints]
119,342.857142857143,4,1,66,32,1,0
54976,-100,4,1,66,32,0,1
68690,-100,4,1,66,32,0,0
97319,-100,4,2,66,15,0,0
108290,-100,4,1,66,32,0,0
140004,-100,4,1,66,32,0,1
153719,-100,4,1,66,32,0,0
227776,-117.647058823529,4,1,66,32,0,0
227861,-117.647058823529,4,1,66,12,0,0
241490,-100,4,1,66,32,0,0
244233,-100,4,1,66,32,0,1
257947,-100,4,1,66,32,0,0

[HitObjects]
36,192,804,5,4,2:0:0:0:
182,192,804,1,4,1:0:0:0:
475,192,804,128,4,1319:1:0:0:0:
109,192,1319,1,0,0:0:0:0:
256,192,1404,1,0,0:0:0:0:
402,192,1490,128,0,2004:0:0:0:0:
36,192,2004,1,0,0:0:0:0:
182,192,2090,1,0,0:0:0:0:
329,192,2176,128,0,2861:0:0:0:0:
109,192,2861,1,0,0:0:0:0:
182,192,3090,1,0,0:0:0:0:
256,192,3319,1,0,0:0:0:0:
329,192,3547,128,0,4233:0:0:0:0:
109,192,4233,128,0,4747:0:0:0:0:
475,192,4747,1,0,0:0:0:0:
329,192,4919,128,0,5604:0:0:0:0:
182,192,5604,128,0,6290:0:0:0:0:
475,192,6290,128,0,9033:0:0:0:0:
182,192,6804,1,0,0:0:0:0:
109,192,6890,1,0,0:0:0:0:
36,192,6976,128,0,9033:0:0:0:0:
182,192,9719,1,0,0:0:0:0:
329,192,9890,1,0,0:0:0:0:
475,192,10061,1,0,0:0:0:0:
402,192,10233,128,0,11776:0:0:0:0:
182,192,11090,128,0,11776:0:0:0:0:
109,192,11776,1,0,0:0:0:0:
329,192,11947,1,0,0:0:0:0:
182,192,12290,1,0,0:0:0:100:
256,192,12376,1,0,0:0:0:100:
329,192,12461,1,2,2:0:0:65:
36,192,12461,1,2,2:0:0:65:
36,192,12633,1,2,2:0:0:65:
329,192,12633,1,2,2:0:0:65:
475,192,12804,1,0,0:0:0:0:
256,192,12976,1,0,0:0:0:0:
402,192,13147,1,0,0:0:0:0:
329,192,13319,1,0,0:0:0:0:
256,192,13490,1,0,0:0:0:0:
182,192,13661,1,8,2:0:0:0:
109,192,13833,1,0,0:0:0:0:
402,192,14004,1,0,0:0:0:0:
256,192,14176,1,8,2:0:0:0:
329,192,14347,1,0,0:0:0:0:
109,192,14519,1,0,0:0:0:0:
256,192,14690,1,0,0:0:0:0:
402,192,14861,1,8,2:0:0:0:
475,192,15033,1,0,0:0:0:0:
329,192,15204,1,0,0:0:0:0:
36,192,15204,1,0,0:0:0:0:
182,192,15376,1,0,0:0:0:0:
256,192,15547,1,8,2:0:0:0:
329,192,15719,1,0,0:0:0:0:
109,192,15890,1,0,0:0:0:0:
182,192,16061,1,0,0:0:0:0:
256,192,16233,1,0,0:0:0:0:
329,192,16404,1,8,2:0:0:0:
36,192,16576,1,0,0:0:0:0:
182,192,16747,1,0,0:0:0:0:
475,192,16919,1,8,2:0:0:0:
329,192,17090,1,0,0:0:0:0:
182,192,17261,1,0,0:0:0:0:
256,192,17433,1,0,0:0:0:0:
329,192,17604,1,0,0:0:0:0:
402,192,17776,1,0,0:0:0:0:
475,192,17947,1,8,2:0:0:0:
109,192,17947,1,0,0:0:0:0:
182,192,18119,1,0,0:0:0:0:
256,192,18290,1,0,0:0:0:0:
182,192,18461,1,0,0:0:0:0:
109,192,18633,1,0,0:0:0:0:
256,192,18804,1,0,0:0:0:0:
402,192,18976,1,0,0:0:0:0:
329,192,19147,1,8,2:0:0:0:
256,192,19319,1,0,0:0:0:0:
329,192,19490,1,2,1:0:0:0:
402,192,19661,1,8,2:0:0:0:
475,192,19833,1,0,0:0:0:0:
109,192,20004,1,0,0:0:0:0:
182,192,20176,1,2,1:0:0:0:
256,192,20347,1,8,2:0:0:0:
182,192,20519,1,0,0:0:0:0:
109,192,20690,1,2,1:0:0:0:
402,192,20690,1,0,0:0:0:0:
256,192,20861,1,2,1:0:0:0:
402,192,21033,1,8,2:0:0:0:
475,192,21204,1,0,0:0:0:0:
109,192,21376,1,0,0:0:0:0:
256,192,21547,1,2,1:0:0:0:
36,192,21719,1,0,0:0:0:0:
182,192,21890,1,8,2:0:0:0:
475,192,22061,1,0,0:0:0:0:
329,192,22061,128,0,22404:0:0:0:0:
36,192,22233,1,0,0:0:0:0:
182,192,22404,128,0,22747:0:0:0:0:
402,192,22404,1,0,0:0:0:0:
109,192,22576,1,0,0:0:0:0:
475,192,22747,128,0,23090:0:0:0:0:
329,192,22747,1,0,0:0:0:0:
256,192,22919,1,0,0:0:0:0:
402,192,23090,1,0,0:0:0:0:
109,192,23090,128,0,23433:0:0:0:0:
329,192,23261,1,0,0:0:0:100:
256,192,23433,1,2,2:0:0:65:
36,192,23433,1,2,2:0:0:65:
36,192,23604,1,2,2:0:0:65:
256,192,23604,1,2,2:0:0:65:
402,192,23776,1,0,0:0:0:0:
109,192,23947,1,0,0:0:0:0:
182,192,24119,1,8,2:0:0:0:
256,192,24290,1,0,0:0:0:0:
329,192,24461,1,2,2:0:0:65:
475,192,24461,1,0,0:0:0:0:
182,192,24633,1,2,2:0:0:65:
36,192,24633,1,0,0:0:0:0:
402,192,24804,1,0,0:0:0:0:
329,192,24976,1,0,0:0:0:0:
256,192,25147,1,8,2:0:0:0:
182,192,25319,1,0,0:0:0:0:
329,192,25490,1,0,0:0:0:0:
475,192,25661,1,0,0:0:0:0:
109,192,25833,1,8,2:0:0:0:
256,192,26004,1,0,0:0:0:0:
329,192,26090,1,0,0:0:0:0:
402,192,26176,1,0,0:0:0:0:
36,192,26176,1,0,0:0:0:0:
182,192,26347,1,0,0:0:0:0:
329,192,26519,1,8,2:0:0:0:
256,192,26690,1,0,0:0:0:0:
182,192,26861,1,0,0:0:0:0:
109,192,27033,1,0,0:0:0:0:
475,192,27204,1,8,2:0:0:0:
402,192,27376,1,0,0:0:0:0:
329,192,27547,1,0,0:0:0:0:
402,192,27719,1,0,0:0:0:0:
475,192,27890,1,8,2:0:0:0:
182,192,28061,1,0,0:0:0:0:
256,192,28233,1,0,0:0:0:0:
329,192,28404,1,0,0:0:0:0:
402,192,28576,1,8,2:0:0:0:
256,192,28747,1,0,0:0:0:0:
329,192,28919,1,2,2:0:0:65:
475,192,28919,1,0,0:0:0:0:
182,192,29090,1,2,2:0:0:65:
36,192,29090,1,0,0:0:0:0:
256,192,29261,1,8,2:0:0:0:
329,192,29433,1,0,0:0:0:0:
256,192,29604,1,0,0:0:0:0:
182,192,29776,1,0,0:0:0:0:
402,192,29947,1,2,2:0:0:65:
36,192,29947,1,0,0:0:0:0:
329,192,30119,1,2,2:0:0:65:
109,192,30119,1,0,0:0:0:0:
256,192,30290,1,8,2:0:0:0:
402,192,30461,1,0,0:0:0:0:
182,192,30633,1,0,0:0:0:0:
329,192,30804,1,0,0:0:0:0:
475,192,30976,128,0,31490:0:0:0:0:
36,192,31490,1,0,0:0:0:0:
329,192,31661,1,2,2:0:0:65:
402,192,31661,1,0,0:0:0:0:
182,192,31833,1,2,2:0:0:65:
109,192,31833,1,0,0:0:0:0:
402,192,33033,1,2,0:0:0:0:
109,192,33204,1,2,0:0:0:0:
109,192,34404,1,2,0:0:0:0:
402,192,34576,1,2,0:0:0:0:
182,192,35776,1,2,0:0:0:0:
329,192,35947,1,2,0:0:0:0:
109,192,37147,1,2,0:0:0:0:
475,192,37319,1,2,0:0:0:0:
36,192,38519,1,2,0:0:0:0:
402,192,38690,1,2,0:0:0:0:
402,192,39890,1,2,0:0:0:0:
36,192,40061,1,2,0:0:0:0:
475,192,41261,1,2,0:0:0:0:
109,192,41433,1,2,0:0:0:0:
256,192,42633,1,4,2:0:0:0:
36,192,42633,1,4,1:0:0:0:
475,192,42633,1,0,0:0:0:0:
402,192,42976,1,0,0:0:0:0:
109,192,43319,1,0,0:0:0:0:
402,192,43661,1,0,0:0:0:0:
36,192,44004,1,2,2:0:0:0:
256,192,44347,1,0,0:0:0:0:
36,192,44690,1,0,0:0:0:0:
256,192,45033,1,0,0:0:0:0:
402,192,45376,1,2,2:0:0:0:
109,192,45719,1,0,0:0:0:0:
402,192,46061,1,0,0:0:0:0:
109,192,46404,1,0,0:0:0:0:
475,192,46747,1,2,2:0:0:0:
182,192,47090,1,0,0:0:0:0:
475,192,47433,1,0,0:0:0:0:
182,192,47776,1,0,0:0:0:0:
36,192,48119,1,2,2:0:0:0:
329,192,48119,1,2,2:0:0:0:
182,192,48290,1,0,0:0:0:0:
475,192,48290,1,0,0:0:0:0:
329,192,48461,1,0,0:0:0:0:
109,192,48804,1,0,0:0:0:0:
256,192,49147,1,0,0:0:0:0:
36,192,49319,1,0,0:0:0:0:
402,192,49490,1,2,2:0:0:0:
329,192,49833,1,0,0:0:0:0:
256,192,50176,1,0,0:0:0:0:
182,192,50519,1,0,0:0:0:0:
109,192,50861,1,2,2:0:0:0:
402,192,51204,1,0,0:0:0:0:
36,192,51547,1,0,0:0:0:0:
329,192,51890,1,0,0:0:0:0:
109,192,52233,1,2,2:0:0:0:
475,192,52233,1,2,2:0:0:0:
256,192,52576,1,0,0:0:0:0:
402,192,52919,1,0,0:0:0:0:
256,192,53261,1,0,0:0:0:0:
182,192,53604,1,8,1:0:0:0:
36,192,53604,1,2,2:0:0:0:
109,192,53833,1,2,1:0:0:0:
256,192,53833,1,2,2:0:0:0:
182,192,54061,1,2,2:0:0:0:
329,192,54061,1,2,1:0:0:0:
256,192,54290,1,8,1:0:0:0:
402,192,54290,1,2,2:0:0:0:
36,192,54461,1,0,0:0:0:0:
109,192,54547,1,0,0:0:0:0:
182,192,54633,1,0,0:0:0:0:
256,192,54719,1,0,0:0:0:0:
329,192,54804,1,0,0:0:0:0:
402,192,54890,1,0,0:0:0:0:
475,192,54976,1,4,1:0:0:0:
36,192,54976,128,4,56347:1:0:0:0:
109,192,55147,1,0,0:0:0:0:
402,192,55319,1,2,1:0:0:0:
182,192,55490,1,0,0:0:0:0:
329,192,55661,1,8,2:0:0:0:
475,192,55661,1,8,1:0:0:0:
109,192,55833,1,0,0:0:0:0:
256,192,56004,1,2,1:0:0:0:
402,192,56176,1,0,0:0:0:0:
182,192,56347,128,2,57033:1:0:0:0:
329,192,56347,1,0,0:0:0:0:
475,192,56519,1,0,0:0:0:0:
36,192,56690,1,2,1:0:0:0:
256,192,56861,1,0,0:0:0:0:
402,192,57033,128,8,57719:2:0:0:0:
109,192,57033,1,8,1:0:0:0:
475,192,57033,1,0,0:0:0:0:
329,192,57204,1,0,0:0:0:0:
36,192,57376,1,2,1:0:0:0:
182,192,57547,1,0,0:0:0:0:
329,192,57719,128,2,58404:1:0:0:0:
475,192,57719,1,0,0:0:0:0:
36,192,57890,1,0,0:0:0:0:
182,192,58061,1,2,1:0:0:0:
475,192,58233,1,0,0:0:0:0:
256,192,58404,128,8,59090:2:0:0:0:
109,192,58404,1,8,1:0:0:0:
36,192,58404,1,0,0:0:0:0:
402,192,58576,1,0,0:0:0:0:
109,192,58747,1,2,1:0:0:0:
475,192,58919,1,0,0:0:0:0:
182,192,59090,128,2,59604:1:0:0:0:
36,192,59090,1,0,0:0:0:0:
329,192,59261,1,0,0:0:0:0:
475,192,59433,1,2,1:0:0:0:
256,192,59604,1,0,0:0:0:0:
329,192,59690,1,0,0:0:0:0:
402,192,59776,128,8,60290:1:0:0:0:
109,192,59776,1,8,2:0:0:0:
36,192,59776,1,0,0:0:0:0:
256,192,59947,1,0,0:0:0:0:
182,192,60119,1,2,1:0:0:0:
329,192,60290,1,0,0:0:0:0:
109,192,60461,1,2,1:0:0:0:
36,192,60461,128,0,61147:0:0:0:0:
475,192,60633,1,0,0:0:0:0:
182,192,60804,1,2,1:0:0:0:
402,192,60976,1,0,0:0:0:0:
256,192,61147,1,8,2:0:0:0:
109,192,61147,1,8,1:0:0:0:
329,192,61319,1,0,0:0:0:0:
402,192,61490,1,2,1:0:0:0:
329,192,61661,1,0,0:0:0:0:
256,192,61833,128,2,62519:1:0:0:0:
36,192,61833,1,0,0:0:0:0:
475,192,62004,1,0,0:0:0:0:
402,192,62176,1,2,1:0:0:0:
329,192,62347,1,0,0:0:0:0:
109,192,62519,1,8,1:0:0:0:
36,192,62519,1,8,2:0:0:0:
475,192,62519,128,0,63204:0:0:0:0:
329,192,62690,1,0,0:0:0:0:
256,192,62776,1,0,0:0:0:0:
182,192,62861,1,2,1:0:0:0:
256,192,63033,1,0,0:0:0:0:
329,192,63204,1,2,1:0:0:0:
36,192,63204,128,0,63890:0:0:0:0:
182,192,63376,1,0,0:0:0:0:
402,192,63547,1,2,1:0:0:0:
256,192,63719,1,0,0:0:0:0:
475,192,63890,1,8,2:0:0:0:
109,192,63890,1,8,1:0:0:0:
329,192,64061,1,0,0:0:0:0:
36,192,64233,1,2,1:0:0:0:
182,192,64404,1,0,0:0:0:0:
256,192,64490,1,0,0:0:0:0:
329,192,64576,128,2,64747:1:0:0:0:
475,192,64576,1,0,0:0:0:0:
109,192,64747,1,0,0:0:0:0:
402,192,64919,1,2,1:0:0:0:
256,192,64919,128,0,65090:0:0:0:0:
36,192,65090,1,0,0:0:0:0:
182,192,65261,1,8,1:0:0:0:
475,192,65261,1,8,2:0:0:0:
402,192,65519,1,4,3:0:0:0:
109,192,65519,1,0,0:0:0:0:
329,192,65776,1,8,2:0:0:0:
36,192,65776,1,2,1:0:0:0:
475,192,65947,1,4,1:0:0:0:
256,192,65947,128,4,66290:2:0:0:0:
402,192,65947,1,0,0:0:0:0:
109,192,66119,1,0,0:0:0:0:
182,192,66290,128,2,66633:1:0:0:0:
475,192,66290,1,0,0:0:0:0:
329,192,66461,1,0,0:0:0:0:
109,192,66633,128,8,66976:2:0:0:0:
402,192,66633,1,8,1:0:0:0:
475,192,66633,1,0,0:0:0:0:
256,192,66804,1,0,0:0:0:0:
36,192,66976,128,2,67319:1:0:0:0:
329,192,66976,1,0,0:0:0:0:
182,192,67147,1,0,0:0:0:0:
475,192,67319,128,2,67661:1:0:0:0:
329,192,67319,1,0,0:0:0:0:
182,192,67490,1,8,2:0:0:0:
109,192,67576,1,2,1:0:0:0:
402,192,67661,128,2,68004:1:0:0:0:
36,192,67661,1,0,0:0:0:0:
182,192,67833,1,8,2:0:0:0:
329,192,68004,128,8,68347:1:0:0:0:
36,192,68004,1,8,2:0:0:0:
109,192,68004,1,0,0:0:0:0:
475,192,68176,1,0,0:0:0:0:
256,192,68347,128,2,68690:1:0:0:0:
109,192,68347,1,0,0:0:0:0:
402,192,68519,1,2,1:0:0:0:
36,192,68690,1,2,2:0:0:0:
182,192,68690,1,0,0:0:0:0:
329,192,68861,1,2,2:0:0:0:
475,192,68861,1,0,0:0:0:0:
109,192,71490,1,4,1:0:0:0:
402,192,71490,1,4,2:0:0:0:
36,192,71490,1,0,0:0:0:0:
329,192,71604,1,0,0:0:0:0:
182,192,71776,1,2,1:0:0:0:
109,192,71776,1,0,0:0:0:0:
402,192,71947,1,0,0:0:0:0:
256,192,72119,1,8,2:0:0:0:
182,192,72119,1,8,1:0:0:0:
475,192,72290,1,0,0:0:0:0:
109,192,72461,1,2,1:0:0:0:
329,192,72461,1,0,0:0:0:0:
402,192,72633,1,0,0:0:0:0:
475,192,72804,1,2,1:0:0:0:
182,192,72804,1,0,0:0:0:0:
256,192,72976,1,0,0:0:0:0:
329,192,73147,1,2,1:0:0:0:
36,192,73147,1,0,0:0:0:0:
109,192,73319,1,0,0:0:0:0:
182,192,73490,1,8,2:0:0:0:
475,192,73490,1,8,1:0:0:0:
329,192,73661,1,0,0:0:0:0:
182,192,73833,1,2,1:0:0:0:
36,192,73833,1,0,0:0:0:0:
329,192,74004,1,0,0:0:0:0:
475,192,74176,1,4,2:0:0:0:
109,192,74176,1,4,1:0:0:0:
36,192,74176,1,0,0:0:0:0:
109,192,74433,1,0,0:0:0:0:
182,192,74433,1,0,0:0:0:0:
256,192,74633,1,0,0:0:0:0:
475,192,74633,1,0,0:0:0:0:
329,192,74747,1,0,0:0:0:0:
109,192,74861,1,8,1:0:0:0:
402,192,74861,1,8,2:0:0:0:
109,192,75376,1,2,1:0:0:0:
182,192,75433,1,2,1:0:0:0:
329,192,75490,1,2,1:0:0:0:
402,192,75547,1,4,1:0:0:0:
475,192,75547,1,4,2:0:0:0:
329,192,75804,1,0,0:0:0:0:
402,192,75804,1,0,0:0:0:0:
256,192,76004,1,0,0:0:0:0:
36,192,76004,1,0,0:0:0:0:
182,192,76119,1,0,0:0:0:0:
109,192,76233,1,8,2:0:0:0:
402,192,76233,1,8,1:0:0:0:
36,192,76919,1,4,2:0:0:0:
329,192,76919,1,4,2:0:0:0:
475,192,76919,1,0,0:0:0:0:
256,192,77147,1,0,0:0:0:0:
402,192,77147,1,0,0:0:0:0:
182,192,77376,1,0,0:0:0:0:
36,192,77376,1,0,0:0:0:0:
329,192,77490,1,0,0:0:0:0:
475,192,77604,1,4,1:0:0:0:
402,192,77604,1,4,1:0:0:0:
256,192,77833,1,0,0:0:0:0:
329,192,77833,1,0,0:0:0:0:
36,192,78061,1,0,0:0:0:0:
182,192,78061,1,0,0:0:0:0:
256,192,78176,1,0,0:0:0:0:
329,192,78290,1,4,2:0:0:0:
475,192,78290,1,4,2:0:0:0:
182,192,78519,1,0,0:0:0:0:
329,192,78519,1,0,0:0:0:0:
182,192,78747,1,0,0:0:0:0:
36,192,78747,1,0,0:0:0:0:
329,192,78976,1,4,1:0:0:0:
402,192,78976,1,4,1:0:0:0:
475,192,78976,1,0,0:0:0:0:
109,192,79147,1,0,0:0:0:0:
182,192,79261,1,0,0:0:0:0:
402,192,79376,1,0,0:0:0:0:
329,192,79433,1,0,0:0:0:0:
256,192,79490,1,0,0:0:0:0:
182,192,79547,1,0,0:0:0:0:
109,192,79604,1,0,0:0:0:0:
36,192,79661,1,4,2:0:0:0:
475,192,79661,1,4,1:0:0:0:
109,192,80347,1,8,2:0:0:0:
402,192,80347,1,8,1:0:0:0:
182,192,80576,1,0,0:0:0:0:
256,192,80804,1,0,0:0:0:0:
329,192,81033,1,2,1:0:0:0:
36,192,81033,1,0,0:0:0:0:
256,192,81261,1,0,0:0:0:0:
36,192,81376,1,2,1:0:0:0:
109,192,81490,1,0,0:0:0:0:
182,192,81604,1,0,0:0:0:0:
329,192,81719,1,8,2:0:0:0:
475,192,81719,1,8,1:0:0:0:
256,192,81947,1,0,0:0:0:0:
182,192,82176,1,0,0:0:0:0:
36,192,82404,128,2,82661:1:0:0:0:
475,192,82404,1,0,0:0:0:0:
182,192,82661,128,0,82919:0:0:0:0:
329,192,82919,128,0,83090:0:0:0:0:
109,192,83090,128,8,83347:1:0:0:0:
475,192,83090,1,8,2:0:0:0:
256,192,83347,128,0,83604:0:0:0:0:
402,192,83604,128,0,83776:0:0:0:0:
182,192,83776,128,2,84033:1:0:0:0:
36,192,83776,1,0,0:0:0:0:
329,192,84033,128,0,84290:0:0:0:0:
475,192,84290,128,0,84461:0:0:0:0:
36,192,84461,128,8,84690:1:0:0:0:
256,192,84461,1,8,2:0:0:0:
109,192,84719,128,0,84976:0:0:0:0:
182,192,84976,128,0,85147:0:0:0:0:
36,192,85147,1,8,1:0:0:0:
402,192,85147,1,12,2:0:0:0:
475,192,85147,1,8,2:0:0:0:
182,192,85376,1,2,1:0:0:0:
109,192,85376,1,2,2:0:0:0:
329,192,85604,1,2,1:0:0:0:
402,192,85604,1,2,2:0:0:0:
36,192,85833,1,8,2:0:0:0:
182,192,85833,1,8,1:0:0:0:
109,192,86061,1,2,2:0:0:0:
256,192,86061,1,2,1:0:0:0:
182,192,86290,1,2,1:0:0:0:
329,192,86290,1,2,2:0:0:0:
256,192,86519,1,4,2:0:0:0:
402,192,86519,128,4,87890:1:0:0:0:
109,192,87204,1,2,1:0:0:0:
36,192,87719,1,2,3:0:0:0:
182,192,87890,1,0,0:0:0:0:
475,192,87890,128,0,89261:0:0:0:0:
329,192,88061,1,2,1:0:0:0:
256,192,88233,1,2,1:0:0:0:
109,192,88576,1,2,1:0:0:0:
182,192,89261,128,0,90633:0:0:0:0:
402,192,89261,1,0,0:0:0:0:
329,192,89433,1,2,1:0:0:0:
256,192,89604,1,2,1:0:0:0:
475,192,89947,1,2,3:0:0:0:
475,192,90461,1,2,1:0:0:0:
36,192,90633,128,0,92004:0:0:0:0:
329,192,90633,1,0,0:0:0:0:
182,192,90804,1,2,1:0:0:0:
256,192,90976,1,2,1:0:0:0:
402,192,91319,1,2,3:0:0:0:
182,192,92004,1,2,1:0:0:0:
402,192,92004,128,2,93376:2:0:0:0:
329,192,92176,1,2,1:0:0:0:
256,192,92690,1,2,1:0:0:0:
36,192,93204,1,2,3:0:0:0:
182,192,93376,128,0,94747:0:0:0:0:
329,192,93376,1,0,0:0:0:0:
475,192,93547,1,2,1:0:0:0:
256,192,93719,1,2,1:0:0:0:
109,192,94061,1,2,1:0:0:0:
329,192,94576,1,0,0:0:0:0:
475,192,94747,128,0,96119:0:0:0:0:
36,192,94747,1,0,0:0:0:0:
182,192,94919,1,2,1:0:0:0:
329,192,95090,1,2,1:0:0:0:
109,192,95433,1,2,3:0:0:0:
329,192,95947,1,2,1:0:0:0:
109,192,96119,128,0,97147:0:0:0:0:
182,192,96119,1,0,0:0:0:0:
256,192,96290,1,2,1:0:0:0:
329,192,96461,1,2,1:0:0:0:
402,192,96804,128,2,97147:3:0:0:0:
182,192,97319,1,0,1:0:0:100:
329,192,97319,1,0,0:0:0:0:
256,192,97404,1,0,1:0:0:100:
109,192,97490,1,2,2:0:0:65:
402,192,97490,1,2,2:0:0:65:
109,192,97661,1,2,2:0:0:65:
402,192,97661,1,2,2:0:0:65:
256,192,97833,1,0,0:0:0:0:
475,192,98004,1,0,0:0:0:0:
182,192,98176,1,0,0:0:0:0:
402,192,98347,1,0,0:0:0:0:
109,192,98519,1,0,0:0:0:0:
329,192,98690,1,0,0:0:0:0:
256,192,98861,1,0,0:0:0:0:
182,192,99033,1,0,0:0:0:0:
109,192,99204,1,0,0:0:0:0:
329,192,99376,1,0,0:0:0:0:
36,192,99547,1,0,0:0:0:0:
256,192,99719,1,0,0:0:0:0:
475,192,99890,1,0,0:0:0:0:
329,192,100061,1,0,0:0:0:0:
182,192,100233,1,0,0:0:0:0:
36,192,100233,1,0,0:0:0:0:
256,192,100404,1,0,0:0:0:0:
329,192,100576,1,0,0:0:0:0:
256,192,100747,1,0,0:0:0:0:
182,192,100919,1,0,0:0:0:0:
329,192,101090,1,0,0:0:0:0:
475,192,101261,1,0,0:0:0:0:
402,192,101433,1,0,0:0:0:0:
329,192,101604,1,0,0:0:0:0:
402,192,101776,1,0,0:0:0:0:
475,192,101947,1,0,0:0:0:0:
256,192,102119,1,0,0:0:0:0:
36,192,102290,1,0,0:0:0:0:
109,192,102461,1,0,0:0:0:0:
182,192,102633,1,0,0:0:0:0:
109,192,102804,1,0,0:0:0:0:
36,192,102976,1,0,0:0:0:0:
475,192,102976,1,0,0:0:0:0:
182,192,103147,1,0,0:0:0:0:
256,192,103319,1,0,0:0:0:0:
329,192,103490,1,0,0:0:0:0:
256,192,103661,1,0,0:0:0:0:
182,192,103833,1,0,0:0:0:0:
329,192,104004,1,0,0:0:0:0:
475,192,104176,1,0,0:0:0:0:
402,192,104347,1,0,0:0:0:0:
329,192,104519,1,0,0:0:0:0:
402,192,104690,1,0,0:0:0:0:
475,192,104861,1,0,0:0:0:0:
182,192,105033,1,0,0:0:0:0:
402,192,105204,1,0,0:0:0:0:
109,192,105376,1,0,0:0:0:0:
329,192,105547,1,0,0:0:0:0:
36,192,105719,1,0,0:0:0:0:
475,192,105719,1,0,0:0:0:0:
182,192,105890,1,0,0:0:0:0:
329,192,106061,1,0,0:0:0:0:
256,192,106233,1,0,0:0:0:0:
182,192,106404,1,0,0:0:0:0:
109,192,106576,1,0,0:0:0:0:
182,192,106747,1,0,0:0:0:0:
256,192,106919,1,0,0:0:0:0:
329,192,107090,128,0,107433:0:0:0:0:
36,192,107090,1,0,0:0:0:0:
109,192,107261,1,0,0:0:0:0:
402,192,107433,128,0,107776:0:0:0:0:
182,192,107433,1,0,0:0:0:0:
256,192,107604,1,0,0:0:0:0:
475,192,107776,128,0,108119:0:0:0:0:
36,192,107776,1,0,0:0:0:0:
109,192,107947,1,0,0:0:0:0:
256,192,108119,128,0,108461:0:0:0:0:
182,192,108119,1,0,0:0:0:0:
329,192,108290,1,0,0:0:0:100:
36,192,108461,1,2,2:0:0:65:
475,192,108461,1,2,2:0:0:65:
475,192,108633,1,2,2:0:0:65:
36,192,108633,1,2,2:0:0:65:
182,192,108804,1,0,0:0:0:0:
329,192,108976,1,0,0:0:0:0:
475,192,109147,1,8,2:0:0:0:
256,192,109319,1,0,0:0:0:0:
36,192,109490,1,2,2:0:0:65:
402,192,109490,1,0,0:0:0:0:
36,192,109661,1,2,2:0:0:65:
402,192,109661,1,0,0:0:0:0:
182,192,109833,1,0,0:0:0:0:
329,192,110004,1,0,0:0:0:0:
109,192,110176,1,8,2:0:0:0:
256,192,110347,1,0,0:0:0:0:
402,192,110519,1,0,0:0:0:0:
329,192,110690,1,0,0:0:0:0:
256,192,110861,1,8,2:0:0:0:
182,192,111033,1,0,0:0:0:0:
256,192,111119,1,0,0:0:0:0:
329,192,111204,1,0,0:0:0:0:
36,192,111204,1,0,0:0:0:0:
109,192,111376,1,0,0:0:0:0:
182,192,111547,1,8,2:0:0:0:
329,192,111719,1,0,0:0:0:0:
475,192,111890,1,0,0:0:0:0:
402,192,112061,1,0,0:0:0:0:
329,192,112233,1,8,2:0:0:0:
256,192,112404,1,0,0:0:0:0:
182,192,112576,1,0,0:0:0:0:
402,192,112747,1,0,0:0:0:0:
109,192,112919,1,8,2:0:0:0:
329,192,113090,1,0,0:0:0:0:
36,192,113261,1,0,0:0:0:0:
182,192,113433,1,0,0:0:0:0:
329,192,113604,1,8,2:0:0:0:
475,192,113776,1,0,0:0:0:0:
182,192,113947,1,2,2:0:0:65:
36,192,113947,1,0,0:0:0:0:
36,192,114119,1,2,2:0:0:65:
182,192,114119,1,0,0:0:0:0:
329,192,114290,1,8,2:0:0:0:
256,192,114461,1,0,0:0:0:0:
182,192,114633,1,0,0:0:0:0:
109,192,114804,1,0,0:0:0:0:
329,192,114976,1,2,2:0:0:65:
475,192,114976,1,0,0:0:0:0:
329,192,115147,1,2,2:0:0:65:
475,192,115147,1,0,0:0:0:0:
109,192,115319,1,8,2:0:0:0:
182,192,115490,1,0,0:0:0:0:
256,192,115661,1,0,0:0:0:0:
329,192,115833,1,0,0:0:0:0:
402,192,116004,128,0,116519:0:0:0:0:
109,192,116519,1,2,2:0:0:65:
182,192,116690,1,2,2:0:0:65:
329,192,116690,1,0,0:0:0:0:
36,192,116861,1,2,2:0:0:65:
475,192,116861,1,0,0:0:0:0:
402,192,118061,1,2,0:0:0:0:
109,192,118233,1,2,0:0:0:0:
182,192,119433,1,2,0:0:0:0:
475,192,119604,1,2,0:0:0:0:
475,192,120804,1,2,0:0:0:0:
36,192,120976,1,2,0:0:0:0:
109,192,122176,1,2,0:0:0:0:
329,192,122347,1,2,0:0:0:0:
402,192,123547,1,2,0:0:0:0:
256,192,123719,1,2,0:0:0:0:
36,192,124919,1,2,0:0:0:0:
402,192,125090,1,2,0:0:0:0:
109,192,126290,1,2,0:0:0:0:
402,192,126461,1,2,0:0:0:0:
182,192,127661,1,4,2:0:0:0:
109,192,127661,1,4,1:0:0:0:
36,192,127661,1,0,0:0:0:0:
475,192,128004,1,0,0:0:0:0:
182,192,128347,1,0,0:0:0:0:
475,192,128690,1,0,0:0:0:0:
256,192,129033,1,2,2:0:0:0:
36,192,129376,1,0,0:0:0:0:
256,192,129719,1,0,0:0:0:0:
36,192,130061,1,0,0:0:0:0:
402,192,130404,1,2,2:0:0:0:
109,192,130747,1,0,0:0:0:0:
402,192,131090,1,0,0:0:0:0:
109,192,131433,1,0,0:0:0:0:
256,192,131776,1,2,2:0:0:0:
475,192,132119,1,0,0:0:0:0:
256,192,132461,1,0,0:0:0:0:
475,192,132804,1,0,0:0:0:0:
182,192,133147,1,2,2:0:0:0:
36,192,133147,1,2,2:0:0:0:
329,192,133319,1,0,0:0:0:0:
475,192,133319,1,0,0:0:0:0:
182,192,133490,1,0,0:0:0:0:
329,192,133833,1,0,0:0:0:0:
182,192,134176,1,0,0:0:0:0:
329,192,134347,1,0,0:0:0:0:
109,192,134519,1,2,2:0:0:0:
475,192,134861,1,0,0:0:0:0:
109,192,135204,1,0,0:0:0:0:
475,192,135547,1,0,0:0:0:0:
36,192,135890,1,2,2:0:0:0:
329,192,136233,1,0,0:0:0:0:
36,192,136576,1,0,0:0:0:0:
329,192,136919,1,0,0:0:0:0:
182,192,137261,1,2,2:0:0:0:
36,192,137261,1,2,2:0:0:0:
475,192,137604,1,0,0:0:0:0:
182,192,137947,1,0,0:0:0:0:
475,192,138290,1,0,0:0:0:0:
36,192,138633,1,8,1:0:0:0:
256,192,138633,1,2,2:0:0:0:
256,192,138861,1,2,1:0:0:0:
36,192,138861,1,2,2:0:0:0:
182,192,139090,1,2,2:0:0:0:
475,192,139090,1,2,1:0:0:0:
402,192,139319,1,8,1:0:0:0:
109,192,139319,1,2,2:0:0:0:
256,192,139490,1,0,0:0:0:0:
329,192,139576,1,0,0:0:0:0:
402,192,139661,1,0,0:0:0:0:
475,192,139747,1,0,0:0:0:0:
109,192,139833,1,0,0:0:0:0:
182,192,139919,1,0,0:0:0:0:
256,192,140004,1,4,1:0:0:0:
475,192,140004,128,4,141376:1:0:0:0:
109,192,140176,1,0,0:0:0:0:
329,192,140347,1,2,1:0:0:0:
182,192,140519,1,0,0:0:0:0:
402,192,140690,1,8,2:0:0:0:
36,192,140690,1,8,1:0:0:0:
256,192,140861,1,0,0:0:0:0:
109,192,141033,1,2,1:0:0:0:
182,192,141204,1,0,0:0:0:0:
329,192,141376,1,2,1:0:0:0:
36,192,141376,128,0,142061:0:0:0:0:
109,192,141547,1,0,0:0:0:0:
402,192,141719,1,2,1:0:0:0:
182,192,141890,1,0,0:0:0:0:
475,192,142061,1,8,2:0:0:0:
402,192,142061,1,8,1:0:0:0:
329,192,142061,128,0,142747:0:0:0:0:
109,192,142233,1,0,0:0:0:0:
256,192,142404,1,2,1:0:0:0:
36,192,142576,1,0,0:0:0:0:
475,192,142747,128,2,143433:1:0:0:0:
182,192,142747,1,0,0:0:0:0:
329,192,142919,1,0,0:0:0:0:
36,192,143090,1,2,1:0:0:0:
182,192,143261,1,0,0:0:0:0:
402,192,143433,1,8,2:0:0:0:
329,192,143433,1,8,1:0:0:0:
109,192,143433,128,0,144119:0:0:0:0:
256,192,143604,1,0,0:0:0:0:
182,192,143776,1,2,1:0:0:0:
256,192,143947,1,0,0:0:0:0:
329,192,144119,1,2,1:0:0:0:
475,192,144119,128,0,144633:0:0:0:0:
36,192,144290,1,0,0:0:0:0:
402,192,144461,1,2,1:0:0:0:
109,192,144633,1,0,0:0:0:0:
182,192,144719,1,0,0:0:0:0:
256,192,144804,1,8,1:0:0:0:
475,192,144804,1,8,2:0:0:0:
36,192,144804,128,0,145490:0:0:0:0:
402,192,144976,1,0,0:0:0:0:
329,192,145061,1,0,0:0:0:0:
256,192,145147,1,2,1:0:0:0:
329,192,145319,1,0,0:0:0:0:
402,192,145490,1,2,1:0:0:0:
475,192,145490,128,0,146176:0:0:0:0:
256,192,145661,1,0,0:0:0:0:
109,192,145833,1,2,1:0:0:0:
182,192,146004,1,0,0:0:0:0:
256,192,146176,1,8,2:0:0:0:
36,192,146176,1,8,1:0:0:0:
402,192,146347,1,0,0:0:0:0:
182,192,146519,1,2,1:0:0:0:
329,192,146690,1,0,0:0:0:0:
182,192,146776,1,0,0:0:0:0:
475,192,146861,1,2,1:0:0:0:
36,192,146861,128,0,147547:0:0:0:0:
329,192,147033,1,0,0:0:0:0:
475,192,147204,1,2,1:0:0:0:
256,192,147376,1,0,0:0:0:0:
109,192,147547,1,8,1:0:0:0:
329,192,147547,1,8,2:0:0:0:
475,192,147547,128,0,148233:0:0:0:0:
182,192,147719,1,0,0:0:0:0:
256,192,147804,1,0,0:0:0:0:
329,192,147890,1,2,1:0:0:0:
182,192,148061,1,0,0:0:0:0:
36,192,148233,1,2,1:0:0:0:
402,192,148233,128,0,148919:0:0:0:0:
256,192,148404,1,0,0:0:0:0:
109,192,148576,1,2,1:0:0:0:
329,192,148747,1,0,0:0:0:0:
182,192,148919,1,8,2:0:0:0:
36,192,148919,1,8,1:0:0:0:
475,192,149090,1,0,0:0:0:0:
109,192,149261,1,2,1:0:0:0:
402,192,149433,1,0,0:0:0:0:
329,192,149519,1,0,0:0:0:0:
256,192,149604,1,2,1:0:0:0:
36,192,149604,128,0,149947:0:0:0:0:
402,192,149776,1,0,0:0:0:0:
182,192,149947,128,2,150290:1:0:0:0:
329,192,149947,1,0,0:0:0:0:
475,192,150119,1,0,0:0:0:0:
109,192,150290,1,8,1:0:0:0:
36,192,150290,1,8,2:0:0:0:
256,192,150547,1,0,0:0:0:0:
402,192,150547,1,0,0:0:0:0:
182,192,150804,1,8,2:0:0:0:
329,192,150804,1,2,1:0:0:0:
256,192,150976,1,4,1:0:0:0:
109,192,150976,1,4,2:0:0:0:
475,192,150976,128,0,151319:0:0:0:0:
402,192,151147,1,0,0:0:0:0:
182,192,151319,1,2,1:0:0:0:
36,192,151319,128,0,151661:0:0:0:0:
329,192,151490,1,0,0:0:0:0:
256,192,151661,128,8,152004:2:0:0:0:
475,192,151661,1,8,1:0:0:0:
109,192,151833,1,0,0:0:0:0:
475,192,152004,128,2,152347:1:0:0:0:
329,192,152004,1,0,0:0:0:0:
182,192,152176,1,0,0:0:0:0:
329,192,152347,1,2,1:0:0:0:
36,192,152347,128,0,152690:0:0:0:0:
256,192,152519,1,8,2:0:0:0:
329,192,152604,1,2,1:0:0:0:
402,192,152690,1,2,1:0:0:0:
475,192,152690,128,0,153033:0:0:0:0:
256,192,152861,1,8,2:0:0:0:
109,192,153033,1,8,1:0:0:0:
36,192,153033,1,8,2:0:0:0:
402,192,153033,128,0,153376:0:0:0:0:
256,192,153204,1,0,0:0:0:0:
182,192,153290,1,0,0:0:0:0:
109,192,153376,1,2,1:0:0:0:
329,192,153376,128,0,153719:0:0:0:0:
182,192,153547,1,2,1:0:0:0:
256,192,153719,1,2,2:0:0:0:
36,192,153719,1,0,0:0:0:0:
329,192,153890,1,2,2:0:0:0:
475,192,153890,1,0,0:0:0:0:
109,192,156519,1,4,1:0:0:0:
182,192,156519,1,4,2:0:0:0:
402,192,156519,1,0,0:0:0:0:
329,192,156633,1,0,0:0:0:0:
36,192,156804,1,2,1:0:0:0:
109,192,156804,1,0,0:0:0:0:
329,192,156976,1,0,0:0:0:0:
256,192,157061,1,0,0:0:0:0:
182,192,157147,1,8,2:0:0:0:
36,192,157147,1,8,1:0:0:0:
329,192,157319,1,0,0:0:0:0:
475,192,157490,1,2,1:0:0:0:
109,192,157490,1,0,0:0:0:0:
256,192,157661,1,0,0:0:0:0:
402,192,157833,1,2,1:0:0:0:
475,192,157833,1,0,0:0:0:0:
182,192,158004,1,0,0:0:0:0:
36,192,158176,1,2,1:0:0:0:
329,192,158176,1,0,0:0:0:0:
256,192,158347,1,0,0:0:0:0:
182,192,158519,1,8,2:0:0:0:
475,192,158519,1,8,1:0:0:0:
402,192,158690,1,0,0:0:0:0:
329,192,158861,1,2,1:0:0:0:
36,192,158861,1,0,0:0:0:0:
109,192,159033,1,0,0:0:0:0:
182,192,159204,1,4,2:0:0:0:
402,192,159204,1,4,1:0:0:0:
475,192,159204,1,0,0:0:0:0:
402,192,159461,1,0,0:0:0:0:
475,192,159461,1,0,0:0:0:0:
256,192,159661,1,0,0:0:0:0:
36,192,159661,1,0,0:0:0:0:
329,192,159776,1,0,0:0:0:0:
402,192,159890,1,8,1:0:0:0:
109,192,159890,1,8,2:0:0:0:
402,192,160404,1,2,1:0:0:0:
329,192,160461,1,2,1:0:0:0:
256,192,160519,1,2,1:0:0:0:
182,192,160576,1,4,1:0:0:0:
475,192,160576,1,4,2:0:0:0:
182,192,160833,1,0,0:0:0:0:
475,192,160833,1,0,0:0:0:0:
329,192,161033,1,0,0:0:0:0:
36,192,161033,1,0,0:0:0:0:
109,192,161147,1,0,0:0:0:0:
182,192,161261,1,8,2:0:0:0:
402,192,161261,1,8,1:0:0:0:
36,192,161947,1,4,2:0:0:0:
256,192,161947,1,4,2:0:0:0:
475,192,161947,1,0,0:0:0:0:
109,192,162176,1,0,0:0:0:0:
402,192,162176,1,0,0:0:0:0:
182,192,162404,1,0,0:0:0:0:
329,192,162404,1,0,0:0:0:0:
256,192,162519,1,0,0:0:0:0:
109,192,162633,1,4,1:0:0:0:
402,192,162633,1,4,1:0:0:0:
36,192,162861,1,0,0:0:0:0:
475,192,162861,1,0,0:0:0:0:
402,192,163090,1,0,0:0:0:0:
109,192,163090,1,0,0:0:0:0:
256,192,163204,1,0,0:0:0:0:
182,192,163319,1,4,2:0:0:0:
329,192,163319,1,4,2:0:0:0:
109,192,163547,1,0,0:0:0:0:
256,192,163547,1,0,0:0:0:0:
182,192,163776,1,0,0:0:0:0:
329,192,163776,1,0,0:0:0:0:
402,192,164004,1,4,1:0:0:0:
475,192,164004,1,4,1:0:0:0:
256,192,164004,1,0,0:0:0:0:
36,192,164176,1,0,0:0:0:0:
109,192,164290,1,0,0:0:0:0:
475,192,164404,1,0,0:0:0:0:
402,192,164461,1,0,0:0:0:0:
329,192,164519,1,0,0:0:0:0:
256,192,164576,1,0,0:0:0:0:
182,192,164633,1,0,0:0:0:0:
109,192,164690,1,4,2:0:0:0:
475,192,164690,1,4,1:0:0:0:
36,192,165376,1,8,2:0:0:0:
329,192,165376,1,8,1:0:0:0:
402,192,165604,1,0,0:0:0:0:
475,192,165833,1,0,0:0:0:0:
109,192,166061,1,2,1:0:0:0:
329,192,166061,1,0,0:0:0:0:
182,192,166290,1,0,0:0:0:0:
36,192,166404,1,2,1:0:0:0:
256,192,166404,1,0,0:0:0:0:
329,192,166519,1,0,0:0:0:0:
402,192,166633,1,0,0:0:0:0:
475,192,166747,1,8,2:0:0:0:
109,192,166747,1,8,1:0:0:0:
329,192,166976,1,0,0:0:0:0:
182,192,167204,1,0,0:0:0:0:
36,192,167433,128,2,167690:1:0:0:0:
475,192,167433,1,0,0:0:0:0:
109,192,167690,128,0,167947:0:0:0:0:
182,192,167947,128,0,168119:0:0:0:0:
36,192,168119,1,8,1:0:0:0:
402,192,168119,128,8,168376:2:0:0:0:
329,192,168376,128,0,168633:0:0:0:0:
256,192,168633,128,0,168804:0:0:0:0:
182,192,168804,1,2,1:0:0:0:
475,192,168804,128,0,169061:0:0:0:0:
402,192,169061,128,0,169319:0:0:0:0:
329,192,169319,128,0,169490:0:0:0:0:
475,192,169490,1,8,1:0:0:0:
36,192,169490,128,8,169747:2:0:0:0:
109,192,169747,128,0,170004:0:0:0:0:
182,192,170004,128,0,170176:0:0:0:0:
36,192,170176,1,8,1:0:0:0:
402,192,170176,1,12,2:0:0:0:
475,192,170176,1,8,2:0:0:0:
109,192,170404,1,2,1:0:0:0:
182,192,170404,1,2,2:0:0:0:
329,192,170633,1,2,1:0:0:0:
402,192,170633,1,2,2:0:0:0:
36,192,170861,1,8,2:0:0:0:
182,192,170861,1,8,1:0:0:0:
329,192,171090,1,2,2:0:0:0:
475,192,171090,1,2,1:0:0:0:
109,192,171319,1,2,1:0:0:0:
182,192,171319,1,2,2:0:0:0:
402,192,171547,128,4,172919:2:0:0:0:
36,192,172919,1,2,1:0:0:0:
182,192,172919,1,2,2:0:0:0:
329,192,173090,1,2,1:0:0:0:
475,192,173090,1,2,2:0:0:0:
182,192,174119,1,0,0:0:0:0:
329,192,174204,1,0,0:0:0:0:
475,192,174290,128,0,174461:0:0:0:0:
36,192,174461,128,0,174804:0:0:0:0:
329,192,174633,1,2,2:0:0:0:
402,192,174633,1,0,0:0:0:0:
182,192,174804,128,0,175147:0:0:0:0:
36,192,175147,1,2,2:0:0:0:
329,192,175147,128,0,175490:0:0:0:0:
475,192,175490,128,0,176347:0:0:0:0:
329,192,176861,1,0,0:0:0:0:
182,192,176947,1,0,0:0:0:0:
36,192,177033,128,0,177204:0:0:0:0:
475,192,177204,128,0,177547:0:0:0:0:
109,192,177547,128,0,177890:0:0:0:0:
182,192,177890,128,0,178233:0:0:0:0:
256,192,178233,128,0,179433:0:0:0:0:
36,192,178404,1,2,2:0:0:0:
475,192,178404,1,0,0:0:0:0:
475,192,178576,1,2,2:0:0:0:
36,192,178576,1,0,0:0:0:0:
109,192,180119,1,2,2:0:0:0:
402,192,180119,1,0,0:0:0:0:
402,192,180633,1,2,2:0:0:0:
109,192,180633,1,0,0:0:0:0:
329,192,180976,1,0,0:0:0:0:
256,192,181061,1,0,0:0:0:0:
182,192,181147,128,0,183890:0:0:0:0:
475,192,182519,128,0,183890:0:0:0:0:
109,192,183890,1,2,2:0:0:0:
36,192,183890,1,0,0:0:0:0:
402,192,184061,1,2,2:0:0:0:
475,192,184061,1,0,0:0:0:0:
182,192,186633,1,2,2:0:0:0:
475,192,186633,1,0,0:0:0:0:
402,192,186804,1,2,2:0:0:0:
109,192,186804,1,0,0:0:0:0:
329,192,189376,1,6,2:0:0:0:
475,192,189376,1,4,1:0:0:0:
36,192,189376,128,0,191433:0:0:0:0:
182,192,189490,1,0,0:0:0:0:
402,192,189604,1,0,0:0:0:0:
256,192,189719,1,0,0:0:0:0:
475,192,189833,1,0,0:0:0:0:
329,192,189947,1,0,0:0:0:0:
182,192,190061,1,0,0:0:0:0:
256,192,190176,1,0,0:0:0:0:
329,192,190290,1,0,0:0:0:0:
402,192,190404,1,0,0:0:0:0:
109,192,190519,1,0,0:0:0:0:
182,192,190633,1,0,0:0:0:0:
256,192,190747,1,2,1:0:0:0:
329,192,190861,1,0,0:0:0:0:
109,192,190976,1,0,0:0:0:0:
402,192,191090,1,0,0:0:0:0:
182,192,191204,1,0,0:0:0:0:
475,192,191319,1,0,0:0:0:0:
256,192,191433,1,0,0:0:0:0:
329,192,191547,1,0,0:0:0:0:
402,192,191661,1,0,0:0:0:0:
475,192,191776,1,0,0:0:0:0:
256,192,191947,1,0,0:0:0:0:
36,192,191947,1,0,0:0:0:0:
109,192,192119,1,0,0:0:0:0:
329,192,192119,128,0,194861:0:0:0:0:
475,192,192233,1,0,0:0:0:0:
36,192,192347,1,0,0:0:0:0:
402,192,192461,1,0,0:0:0:0:
182,192,192576,1,0,0:0:0:0:
109,192,192690,1,0,0:0:0:0:
36,192,192804,1,0,0:0:0:0:
475,192,192804,1,0,0:0:0:0:
402,192,192919,1,0,0:0:0:0:
256,192,193033,1,0,0:0:0:0:
182,192,193147,1,0,0:0:0:0:
109,192,193261,1,0,0:0:0:0:
36,192,193376,1,0,0:0:0:0:
256,192,193490,1,0,0:0:0:0:
182,192,193604,1,0,0:0:0:0:
109,192,193719,1,0,0:0:0:0:
182,192,193833,1,0,0:0:0:0:
256,192,193947,1,0,0:0:0:0:
402,192,194061,1,0,0:0:0:0:
475,192,194176,128,4,194861:2:0:0:0:
36,192,194176,1,4,2:0:0:0:
109,192,194290,1,0,0:0:0:0:
182,192,194404,1,0,0:0:0:0:
256,192,194519,1,0,0:0:0:0:
402,192,194633,1,0,0:0:0:0:
182,192,194747,1,0,0:0:0:0:
109,192,194861,1,6,2:0:0:0:
36,192,194861,128,4,196233:2:0:0:0:
402,192,195204,1,0,0:0:0:0:
256,192,195547,1,8,2:0:0:0:
475,192,195890,1,0,0:0:0:0:
329,192,196233,1,2,1:0:0:0:
182,192,196233,128,0,196919:0:0:0:0:
329,192,196576,1,2,1:0:0:0:
36,192,196919,1,8,2:0:0:0:
475,192,196919,128,0,197604:2:0:0:0:
256,192,197261,1,0,0:0:0:0:
109,192,197604,128,2,198633:1:0:0:0:
402,192,197604,1,0,0:0:0:0:
329,192,197947,1,0,0:0:0:0:
256,192,198290,1,8,2:0:0:0:
329,192,198633,1,0,0:0:0:0:
475,192,198633,128,0,198804:0:0:0:0:
182,192,198804,128,0,198976:0:0:0:0:
36,192,198976,1,2,1:0:0:0:
402,192,198976,128,0,199147:0:0:0:0:
109,192,199147,128,0,199319:0:0:0:0:
475,192,199319,1,2,1:0:0:0:
329,192,199319,128,0,199661:0:0:0:0:
36,192,199661,1,8,2:0:0:0:
182,192,199661,1,0,2:0:0:0:
256,192,200004,1,0,0:0:0:0:
475,192,200004,128,0,200347:0:0:0:0:
36,192,200347,1,2,1:0:0:0:
402,192,200347,128,0,201033:0:0:0:0:
109,192,200690,1,0,0:0:0:0:
182,192,201033,1,8,2:0:0:0:
475,192,201033,1,0,2:0:0:0:
36,192,201376,128,0,201547:0:0:0:0:
402,192,201376,1,0,0:0:0:0:
182,192,201547,128,0,201719:0:0:0:0:
329,192,201719,128,2,202061:1:0:0:0:
475,192,201719,1,0,0:0:0:0:
256,192,202061,128,2,202404:1:0:0:0:
36,192,202061,1,0,0:0:0:0:
182,192,202404,128,8,202747:2:0:0:0:
475,192,202404,1,0,2:0:0:0:
109,192,202747,128,0,203090:0:0:0:0:
329,192,202747,1,0,0:0:0:0:
402,192,203090,128,2,203433:2:0:0:0:
36,192,203090,1,2,1:0:0:0:
256,192,203433,1,0,0:0:0:0:
182,192,203776,128,0,204461:0:0:0:0:
475,192,203776,1,0,0:0:0:0:
402,192,204119,1,0,0:0:0:0:
329,192,204461,1,2,1:0:0:0:
36,192,204461,128,0,205147:0:0:0:0:
329,192,204804,1,2,1:0:0:0:
475,192,205147,1,0,0:0:0:0:
36,192,205833,1,4,2:0:0:0:
256,192,205833,1,4,1:0:0:0:
402,192,205833,1,2,2:0:0:0:
182,192,206519,1,8,2:0:0:0:
475,192,206519,1,0,0:0:0:0:
109,192,207204,1,2,1:0:0:0:
109,192,207547,1,2,1:0:0:0:
329,192,207890,1,8,2:0:0:0:
475,192,207890,1,0,0:0:0:0:
256,192,208576,1,2,1:0:0:0:
109,192,209261,1,8,2:0:0:0:
402,192,209261,1,0,0:0:0:0:
182,192,209947,1,2,1:0:0:0:
182,192,210290,1,2,1:0:0:0:
402,192,210633,1,8,2:0:0:0:
475,192,210633,1,0,0:0:0:0:
36,192,211319,1,4,2:0:0:0:
182,192,211319,1,4,1:0:0:0:
256,192,211319,1,0,0:0:0:0:
402,192,211661,128,0,212004:0:0:0:0:
109,192,212004,1,8,2:0:0:0:
256,192,212004,1,0,0:0:0:0:
182,192,212690,1,2,1:0:0:0:
329,192,213033,128,2,213376:1:0:0:0:
36,192,213376,1,8,2:0:0:0:
109,192,213376,1,0,0:0:0:0:
475,192,214061,1,2,1:0:0:0:
109,192,214404,128,0,214747:0:0:0:0:
329,192,214747,1,8,2:0:0:0:
475,192,214747,1,0,0:0:0:0:
256,192,215433,1,2,1:0:0:0:
256,192,215776,1,2,1:0:0:0:
109,192,216119,1,8,2:0:0:0:
402,192,216119,1,0,0:0:0:0:
36,192,216804,1,4,2:0:0:0:
256,192,216804,1,4,1:0:0:0:
475,192,216804,1,0,0:0:0:0:
109,192,217490,1,8,2:0:0:0:
402,192,217490,1,0,0:0:0:0:
182,192,218176,1,2,1:0:0:0:
182,192,218519,1,2,1:0:0:0:
329,192,218861,1,8,2:0:0:0:
475,192,218861,1,0,0:0:0:0:
109,192,219161,1,0,0:0:0:0:
256,192,219376,1,0,0:0:0:0:
402,192,219547,1,2,1:0:0:0:
36,192,220233,1,8,2:0:0:0:
475,192,220233,1,0,0:0:0:0:
182,192,220919,1,2,1:0:0:0:
182,192,221261,1,2,1:0:0:0:
109,192,221604,1,8,2:0:0:0:
402,192,221604,1,0,0:0:0:0:
256,192,222290,1,4,2:0:0:0:
182,192,222290,1,4,1:0:0:0:
109,192,222290,1,0,0:0:0:0:
329,192,222633,1,0,0:0:0:0:
402,192,222976,1,8,2:0:0:0:
36,192,222976,1,0,0:0:0:0:
109,192,223319,1,0,0:0:0:0:
182,192,223661,1,2,1:0:0:0:
182,192,224004,1,2,1:0:0:0:
402,192,224347,1,8,2:0:0:0:
475,192,224347,1,0,0:0:0:0:
329,192,224576,1,0,0:0:0:0:
256,192,224804,1,0,0:0:0:0:
182,192,225033,1,2,1:0:0:0:
329,192,225376,1,0,0:0:0:0:
475,192,225719,1,8,2:0:0:0:
109,192,225719,1,0,0:0:0:0:
182,192,226061,1,0,0:0:0:0:
256,192,226404,1,2,1:0:0:0:
256,192,226747,1,2,1:0:0:0:
109,192,227090,1,8,2:0:0:0:
402,192,227090,128,0,227776:0:0:0:0:
182,192,227776,1,4,2:0:0:0:
109,192,227776,1,4,1:0:0:0:
36,192,227776,128,2,229147:2:0:0:0:
475,192,229147,128,0,229833:0:0:0:0:
329,192,229833,128,0,230519:0:0:0:0:
109,192,230519,128,0,231204:0:0:0:0:
256,192,231204,128,0,231890:0:0:0:0:
402,192,231890,128,0,232404:0:0:0:0:
182,192,232404,1,0,0:0:0:0:
256,192,232490,1,0,0:0:0:0:
329,192,232576,128,0,232919:0:0:0:0:
109,192,233261,128,0,233947:0:0:0:0:
475,192,234461,1,0,0:0:0:0:
329,192,234633,128,0,235319:0:0:0:0:
36,192,235319,128,0,236004:0:0:0:0:
182,192,236004,128,0,236690:0:0:0:0:
329,192,237247,1,0,0:0:0:0:
402,192,237333,1,0,0:0:0:0:
475,192,237419,128,0,237719:0:0:0:0:
182,192,237719,128,0,238061:0:0:0:0:
402,192,238061,128,0,238319:0:0:0:0:
329,192,238319,128,0,238533:0:0:0:0:
256,192,238533,128,0,238747:0:0:0:0:
182,192,238747,128,0,239090:0:0:0:0:
256,192,239090,128,0,239433:0:0:0:0:
329,192,239433,128,0,239776:0:0:0:0:
402,192,239776,128,0,240119:0:0:0:0:
475,192,240119,128,0,240461:0:0:0:0:
402,192,240461,128,0,240804:0:0:0:0:
329,192,240804,128,0,241147:0:0:0:0:
256,192,241147,128,0,241490:0:0:0:0:
36,192,241490,1,8,1:0:0:0:
475,192,241490,1,2,2:0:0:0:
475,192,241719,1,2,1:0:0:0:
36,192,241719,1,2,2:0:0:0:
109,192,241947,1,2,2:0:0:0:
402,192,241947,1,2,1:0:0:0:
182,192,242004,1,2,1:0:0:0:
256,192,242061,1,2,1:0:0:0:
329,192,242119,1,2,1:0:0:0:
402,192,242176,1,8,1:0:0:0:
36,192,242176,1,2,2:0:0:0:
402,192,242404,1,8,1:0:0:0:
36,192,242404,1,2,2:0:0:0:
36,192,242633,1,2,1:0:0:0:
402,192,242633,1,2,2:0:0:0:
182,192,242861,1,10,2:0:0:0:
475,192,242861,1,8,2:0:0:0:
475,192,243090,1,10,2:0:0:0:
182,192,243090,1,2,1:0:0:0:
182,192,243319,1,10,2:0:0:0:
475,192,243319,1,8,2:0:0:0:
475,192,243547,1,10,2:0:0:0:
182,192,243547,1,8,2:0:0:0:
36,192,243719,1,0,0:0:0:0:
109,192,243804,1,0,0:0:0:0:
182,192,243890,1,0,0:0:0:0:
256,192,243976,1,0,0:0:0:0:
329,192,244061,1,0,0:0:0:0:
402,192,244147,1,0,0:0:0:0:
475,192,244233,1,4,1:0:0:0:
36,192,244233,1,4,1:0:0:0:
182,192,244233,1,4,2:0:0:0:
109,192,244490,1,0,0:0:0:0:
402,192,244490,1,0,0:0:0:0:
329,192,244576,1,2,1:0:0:0:
182,192,244576,1,0,0:0:0:0:
109,192,244747,1,0,0:0:0:0:
402,192,244747,1,0,0:0:0:0:
36,192,244919,1,8,2:0:0:0:
256,192,244919,1,8,1:0:0:0:
475,192,244919,1,0,0:0:0:0:
329,192,245090,1,0,0:0:0:0:
402,192,245261,1,2,1:0:0:0:
109,192,245261,1,0,0:0:0:0:
182,192,245433,1,0,0:0:0:0:
256,192,245604,1,2,1:0:0:0:
475,192,245604,1,0,0:0:0:0:
402,192,245776,1,0,0:0:0:0:
329,192,245947,1,2,1:0:0:0:
36,192,245947,1,0,0:0:0:0:
256,192,246119,1,0,0:0:0:0:
182,192,246290,1,8,2:0:0:0:
475,192,246290,1,8,1:0:0:0:
256,192,246461,1,0,0:0:0:0:
329,192,246633,1,2,1:0:0:0:
109,192,246633,1,0,0:0:0:0:
182,192,246804,1,0,0:0:0:0:
256,192,246976,1,2,1:0:0:0:
36,192,246976,1,0,0:0:0:0:
475,192,246976,128,0,247661:0:0:0:0:
329,192,247147,1,0,0:0:0:0:
182,192,247319,1,2,1:0:0:0:
36,192,247319,1,0,0:0:0:0:
256,192,247490,1,0,0:0:0:0:
329,192,247661,128,8,248347:2:0:0:0:
109,192,247661,1,8,1:0:0:0:
36,192,247661,1,0,0:0:0:0:
402,192,247833,1,0,0:0:0:0:
182,192,248004,1,2,1:0:0:0:
109,192,248004,1,0,0:0:0:0:
475,192,248176,1,0,0:0:0:0:
256,192,248347,1,2,1:0:0:0:
36,192,248347,128,0,248861:0:0:0:0:
182,192,248519,1,0,0:0:0:0:
109,192,248690,1,2,1:0:0:0:
402,192,248690,1,0,0:0:0:0:
256,192,248861,1,0,0:0:0:0:
329,192,248947,1,0,0:0:0:0:
109,192,249033,1,8,1:0:0:0:
36,192,249033,1,8,2:0:0:0:
402,192,249033,128,0,249376:0:0:0:0:
182,192,249204,1,0,0:0:0:0:
256,192,249376,1,2,1:0:0:0:
475,192,249376,1,0,0:0:0:0:
182,192,249547,1,0,0:0:0:0:
109,192,249719,1,2,1:0:0:0:
402,192,249719,1,0,0:0:0:0:
182,192,249890,1,0,0:0:0:0:
329,192,249890,1,0,0:0:0:0:
109,192,250061,1,2,1:0:0:0:
402,192,250061,1,0,0:0:0:0:
256,192,250233,1,0,0:0:0:0:
36,192,250404,1,8,2:0:0:0:
475,192,250404,1,8,1:0:0:0:
402,192,250404,1,0,0:0:0:0:
109,192,250576,1,0,0:0:0:0:
182,192,250747,1,2,1:0:0:0:
402,192,250747,1,0,0:0:0:0:
109,192,250919,1,0,0:0:0:0:
36,192,251090,1,2,1:0:0:0:
329,192,251090,1,0,0:0:0:0:
256,192,251261,1,0,0:0:0:0:
182,192,251433,1,2,1:0:0:0:
475,192,251433,1,0,0:0:0:0:
402,192,251604,1,0,0:0:0:0:
329,192,251776,1,8,1:0:0:0:
109,192,251776,1,8,2:0:0:0:
36,192,251776,1,0,0:0:0:0:
402,192,251947,1,0,0:0:0:0:
475,192,252119,1,2,1:0:0:0:
182,192,252119,1,0,0:0:0:0:
329,192,252290,1,0,0:0:0:0:
36,192,252461,1,2,1:0:0:0:
256,192,252461,1,0,0:0:0:0:
402,192,252633,1,0,0:0:0:0:
182,192,252804,1,2,1:0:0:0:
109,192,252804,1,0,0:0:0:0:
329,192,252976,1,0,0:0:0:0:
109,192,253147,1,8,2:0:0:0:
36,192,253147,1,8,1:0:0:0:
475,192,253147,1,0,0:0:0:0:
256,192,253319,1,0,0:0:0:0:
402,192,253490,1,2,1:0:0:0:
475,192,253490,1,0,0:0:0:0:
109,192,253661,1,0,0:0:0:0:
182,192,253747,1,0,0:0:0:0:
256,192,253833,1,2,1:0:0:0:
475,192,253833,1,0,0:0:0:0:
182,192,254004,1,0,0:0:0:0:
402,192,254004,1,0,0:0:0:0:
329,192,254176,1,2,1:0:0:0:
109,192,254176,1,0,0:0:0:0:
256,192,254347,1,0,0:0:0:0:
182,192,254519,1,8,1:0:0:0:
402,192,254519,1,8,2:0:0:0:
475,192,254519,1,0,0:0:0:0:
109,192,254690,1,8,3:0:0:0:
402,192,254776,1,4,3:0:0:0:
109,192,254861,1,2,1:0:0:0:
36,192,254861,1,0,0:0:0:0:
402,192,255033,1,8,2:0:0:0:
475,192,255033,1,2,1:0:0:0:
36,192,255204,1,4,1:0:0:0:
109,192,255204,1,4,2:0:0:0:
256,192,255204,128,0,255547:0:0:0:0:
475,192,255376,1,0,0:0:0:0:
329,192,255547,128,2,255890:1:0:0:0:
36,192,255547,1,0,0:0:0:0:
109,192,255547,1,0,0:0:0:0:
475,192,255719,1,0,0:0:0:0:
402,192,255890,128,8,256233:2:0:0:0:
109,192,255890,1,8,1:0:0:0:
182,192,255890,1,0,0:0:0:0:
256,192,256061,1,0,0:0:0:0:
475,192,256233,128,2,256576:1:0:0:0:
182,192,256233,1,0,0:0:0:0:
109,192,256233,1,0,0:0:0:0:
256,192,256404,1,0,0:0:0:0:
36,192,256576,128,2,256919:1:0:0:0:
329,192,256576,1,0,0:0:0:0:
402,192,256576,1,0,0:0:0:0:
402,192,256747,1,8,2:0:0:0:
475,192,256747,1,0,0:0:0:0:
182,192,256833,1,2,1:0:0:0:
256,192,256833,1,0,0:0:0:0:
109,192,256919,128,2,257261:1:0:0:0:
402,192,256919,1,0,0:0:0:0:
475,192,256919,1,0,0:0:0:0:
402,192,257090,1,8,2:0:0:0:
475,192,257090,1,0,0:0:0:0:
182,192,257261,128,8,257604:1:0:0:0:
36,192,257261,1,8,2:0:0:0:
329,192,257261,1,0,0:0:0:0:
475,192,257433,1,0,0:0:0:0:
402,192,257519,1,0,0:0:0:0:
256,192,257604,128,2,257947:1:0:0:0:
329,192,257604,1,0,0:0:0:0:
109,192,257604,1,0,0:0:0:0:
402,192,257776,1,2,1:0:0:0:
36,192,257776,1,0,0:0:0:0:
182,192,257947,1,2,2:0:0:0:
475,192,257947,128,0,258461:0:0:0:0:
329,192,258119,1,2,2:0:0:0:
36,192,258119,1,0,0:0:0:0:
109,192,258461,1,0,0:0:0:0:
182,192,258547,1,0,0:0:0:0:
256,192,258633,128,0,258976:0:0:0:0:
402,192,258976,128,0,259319:0:0:0:0:
182,192,259319,128,0,260004:0:0:0:0:
475,192,260004,128,0,260747:0:0:0:0:
36,192,260747,1,4,1:0:0:0:
109,192,260747,1,4,2:0:0:0:
329,192,260747,1,0,0:0:0:0:
256,192,260861,1,0,0:0:0:0:
182,192,261033,1,2,1:0:0:0:
402,192,261033,1,0,0:0:0:0:
329,192,261204,1,0,0:0:0:0:
256,192,261376,1,8,2:0:0:0:
36,192,261376,1,8,1:0:0:0:
109,192,261376,1,0,0:0:0:0:
329,192,261547,1,0,0:0:0:0:
402,192,261719,1,2,1:0:0:0:
182,192,261719,1,0,0:0:0:0:
475,192,261890,1,0,0:0:0:0:
256,192,262061,1,2,1:0:0:0:
36,192,262061,1,0,0:0:0:0:
329,192,262233,1,0,0:0:0:0:
402,192,262404,1,2,1:0:0:0:
109,192,262404,1,0,0:0:0:0:
182,192,262576,1,0,0:0:0:0:
256,192,262747,1,8,2:0:0:0:
402,192,262747,1,8,1:0:0:0:
475,192,262747,1,0,0:0:0:0:
182,192,262919,1,0,0:0:0:0:
109,192,263090,1,2,1:0:0:0:
36,192,263090,1,0,0:0:0:0:
329,192,263261,1,0,0:0:0:0:
402,192,263261,1,0,0:0:0:0:
36,192,263433,1,4,2:0:0:0:
109,192,263433,1,4,1:0:0:0:
182,192,263433,1,0,0:0:0:0:
329,192,263690,1,0,0:0:0:0:
402,192,263690,1,0,0:0:0:0:
109,192,263890,1,0,0:0:0:0:
329,192,263890,1,0,0:0:0:0:
402,192,264004,1,0,0:0:0:0:
182,192,264004,1,0,0:0:0:0:
256,192,264119,1,8,1:0:0:0:
475,192,264119,1,8,2:0:0:0:
475,192,264633,1,2,1:0:0:0:
182,192,264633,1,0,0:0:0:0:
402,192,264690,1,2,1:0:0:0:
329,192,264747,1,2,1:0:0:0:
256,192,264804,1,4,1:0:0:0:
36,192,264804,1,4,2:0:0:0:
182,192,264976,1,0,0:0:0:0:
475,192,264976,1,0,0:0:0:0:
182,192,265261,1,0,0:0:0:0:
475,192,265261,1,0,0:0:0:0:
402,192,265376,1,0,0:0:0:0:
109,192,265376,1,0,0:0:0:0:
36,192,265490,1,8,2:0:0:0:
329,192,265490,1,8,1:0:0:0:
109,192,266176,1,4,2:0:0:0:
329,192,266176,1,4,2:0:0:0:
402,192,266176,1,0,0:0:0:0:
329,192,266404,1,0,0:0:0:0:
402,192,266404,1,0,0:0:0:0:
329,192,266633,1,0,0:0:0:0:
402,192,266633,1,0,0:0:0:0:
109,192,266747,1,0,0:0:0:0:
182,192,266747,1,0,0:0:0:0:
402,192,266861,1,4,1:0:0:0:
475,192,266861,1,4,1:0:0:0:
402,192,267090,1,0,0:0:0:0:
475,192,267090,1,0,0:0:0:0:
402,192,267319,1,0,0:0:0:0:
475,192,267319,1,0,0:0:0:0:
109,192,267433,1,0,0:0:0:0:
36,192,267433,1,0,0:0:0:0:
256,192,267547,1,4,2:0:0:0:
329,192,267547,1,4,2:0:0:0:
256,192,267776,1,0,0:0:0:0:
329,192,267776,1,0,0:0:0:0:
256,192,268004,1,0,0:0:0:0:
329,192,268004,1,0,0:0:0:0:
36,192,268233,1,4,1:0:0:0:
182,192,268233,1,4,1:0:0:0:
475,192,268233,1,0,0:0:0:0:
402,192,268404,1,0,0:0:0:0:
182,192,268404,1,0,0:0:0:0:
109,192,268576,1,0,0:0:0:0:
329,192,268576,1,0,0:0:0:0:
182,192,268690,1,0,0:0:0:0:
402,192,268690,1,0,0:0:0:0:
256,192,268804,1,0,0:0:0:0:
475,192,268804,1,0,0:0:0:0:
329,192,268919,1,4,2:0:0:0:
109,192,268919,1,4,1:0:0:0:
36,192,268919,128,0,271661:0:0:0:0:
256,192,269604,1,8,2:0:0:0:
475,192,269604,128,8,270290:1:0:0:0:
402,192,270290,128,2,270976:1:0:0:0:
109,192,270290,1,0,0:0:0:0:
109,192,270633,1,2,1:0:0:0:
329,192,270976,128,8,271661:2:0:0:0:
256,192,270976,1,8,1:0:0:0:
182,192,271204,1,0,0:0:0:0:
109,192,271433,1,0,0:0:0:0:
256,192,271661,1,2,1:0:0:0:
402,192,271661,128,0,272347:0:0:0:0:
329,192,272347,128,8,273033:1:0:0:0:
36,192,272347,1,8,2:0:0:0:
475,192,272347,1,0,0:0:0:0:
256,192,273033,128,2,274404:1:0:0:0:
109,192,273033,1,0,0:0:0:0:
36,192,273033,1,0,0:0:0:0:
402,192,273376,1,2,1:0:0:0:
475,192,273376,1,0,0:0:0:0:
36,192,273490,1,0,0:0:0:0:
109,192,273604,1,0,0:0:0:0:
182,192,273719,1,8,1:0:0:0:
402,192,273719,1,8,2:0:0:0:
475,192,273719,1,0,0:0:0:0:
182,192,273947,1,0,0:0:0:0:
182,192,274176,1,0,0:0:0:0:
36,192,274404,1,12,1:0:0:0:
402,192,274404,1,4,2:0:0:0:
475,192,274404,128,0,274919:0:0:0:0:
109,192,274919,1,0,0:0:0:0:
182,192,275004,1,0,0:0:0:0:
256,192,275090,128,0,275604:0:0:0:0:
36,192,275604,1,0,0:0:0:0:
109,192,275690,1,0,0:0:0:0:
182,192,275776,128,0,276461:0:0:0:0:
475,192,276461,1,0,0:0:0:0:
402,192,276690,1,0,0:0:0:0:
329,192,276919,1,0,0:0:0:0:
256,192,277147,128,0,277833:0:0:0:0:
402,192,277833,128,0,278347:0:0:0:0:
109,192,278347,1,0,0:0:0:0:
475,192,278519,128,0,279204:0:0:0:0:
329,192,279204,128,0,279890:0:0:0:0:
36,192,279890,128,0,282633:0:0:0:0:
402,192,280404,1,0,0:0:0:0:
256,192,280490,1,0,0:0:0:0:
109,192,280576,128,0,282633:0:0:0:0:
329,192,282633,1,2,1:0:0:0:
402,192,282633,1,2,2:0:0:0:
475,192,282633,1,2,2:0:0:0:
