osu file format v14

[General]
AudioFilename: audio.mp3
AudioLeadIn: 0
PreviewTime: 52628
Countdown: 0
SampleSet: Soft
StackLeniency: 0.7
Mode: 0
LetterboxInBreaks: 0
WidescreenStoryboard: 0

[Editor]
DistanceSpacing: 0.5
BeatDivisor: 4
GridSize: 8
TimelineZoom: 2.1

[Metadata]
Title:Fallen (TV Edit)
TitleUnicode:Fallen (TV Edit)
Artist:EGOIST
ArtistUnicode:EGOIST
Creator:-Light-
Version:Guilty
Source:PSYCHO-PASS 2
Tags:サイコパス 2 ending ryo supercell anime Djulus Trynna m3gb3g bakkalo wajinshu
BeatmapID:1623645
BeatmapSetID:764096

[Difficulty]
HPDrainRate:6
CircleSize:4.2
OverallDifficulty:8.8
ApproachRate:9.2
SliderMultiplier:2
SliderTickRate:1

[Events]
//Background and Video events
0,0,"Guilty_Crown_Yuzuriha_Inori_Inori_Yuzuriha-192870.jpg",0,0
//Break Periods
//Storyboard Layer 0 (Background)
//Storyboard Layer 1 (Fail)
//Storyboard Layer 2 (Pass)
//Storyboard Layer 3 (Foreground)
//Storyboard Sound Samples

[TimingPoints]
401,310.880829015544,4,2,0,40,1,0
401,-133.333333333333,4,2,0,40,0,0
9105,-133.333333333333,4,2,0,40,0,0
10349,-117.647058823529,4,2,1,60,0,0
10426,-117.647058823529,4,2,3,40,0,0
19053,-200,4,2,1,40,0,0
20297,-200,4,2,1,40,0,0
21074,-200,4,2,1,40,0,0
21540,-200,4,2,1,40,0,0
22162,-200,4,2,1,40,0,0
22784,-100,4,2,1,60,0,0
32732,-200,4,2,1,70,0,0
32810,-200,4,2,4,40,0,0
35219,-200,4,2,1,40,0,0
35297,-200,4,2,4,40,0,0
37706,-200,4,2,1,40,0,0
37784,-200,4,2,4,40,0,0
40193,-200,4,2,1,40,0,0
40271,-200,4,2,4,40,0,0
40970,-133.333333333333,4,2,4,40,0,0
41437,-133.333333333333,4,2,4,40,0,0
42680,-111.111111111111,4,2,6,40,0,0
45167,-111.111111111111,4,2,1,70,0,0
45245,-111.111111111111,4,2,6,60,0,0
47654,-111.111111111111,4,2,2,70,0,0
47732,-111.111111111111,4,2,6,60,0,0
50141,-111.111111111111,4,2,1,70,0,0
50219,-111.111111111111,4,2,1,60,0,0
50297,-111.111111111111,4,2,1,60,0,0
52007,-200,4,2,1,60,0,0
52162,-200,4,2,2,40,0,0
52395,-200,4,2,1,40,0,0
52473,-100,4,2,1,60,0,1
56359,-100,4,2,1,60,0,1
56592,-100,4,2,1,60,0,1
56825,-100,4,2,1,60,0,1
57059,-100,4,2,1,60,0,1
61178,-80,4,2,1,60,0,1
62732,-100,4,2,1,60,0,1
78587,-100,4,2,2,60,0,1
78742,-100,4,2,2,60,0,0
79675,-133.333333333333,4,2,2,60,0,0
79986,-100,4,2,1,60,0,0
89856,-100,4,2,2,5,0,0

[Colours]
Combo1 : 235,126,80
Combo2 : 230,85,85
Combo3 : 103,136,222
Combo4 : 190,230,87

[HitObjects]
187,340,401,6,0,L|98:331,1,75.0000028610231,2|0,0:0|0:0,0:0:0:0:
14,244,711,2,0,L|88:236,1,75.0000028610231,0|0,0:0|0:0,0:0:0:0:
187,187,1022,2,0,B|202:154|202:154|199:103,1,75.0000028610231,0|0,0:0|0:0,0:0:0:0:
291,35,1333,1,0,0:0:0:0:
325,131,1489,6,0,P|361:142|414:136,1,75.0000028610231,2|0,0:0|0:0,0:0:0:0:
300,42,1799,2,0,P|264:31|211:37,1,75.0000028610231,0|0,0:0|0:0,0:0:0:0:
103,80,2110,2,0,L|108:159,1,75.0000028610231,0|0,0:0|0:0,0:0:0:0:
57,290,2421,2,0,B|132:280|129:327|219:302,1,150.000005722046,0|0,0:0|0:0,0:0:0:0:
327,342,2888,6,0,P|321:306|329:268,1,75.0000028610231,2|0,0:0|0:0,0:0:0:0:
407,185,3198,2,0,L|330:170,1,75.0000028610231,0|0,0:0|0:0,0:0:0:0:
218,86,3509,2,0,L|295:71,1,75.0000028610231,0|0,0:0|0:0,0:0:0:0:
219,200,3820,1,0,0:0:0:0:
136,134,3976,6,0,P|125:90|136:48,1,75.0000028610231,0|2,0:0|0:0,0:0:0:0:
229,210,4287,2,0,P|240:254|229:296,1,75.0000028610231,0|0,0:0|0:0,0:0:0:0:
147,368,4597,2,0,L|69:357,1,75.0000028610231,2|2,0:0|0:0,0:0:0:0:
5,227,4908,2,0,L|83:216,1,75.0000028610231,0|0,0:0|0:0,0:0:0:0:
206,84,5219,6,0,B|168:66|168:66|51:83,1,150.000005722046,2|0,0:0|0:0,0:0:0:0:
163,186,5685,2,0,L|245:171,1,75.0000028610231,0|0,0:0|0:0,0:0:0:0:
335,101,5996,2,0,L|417:116,1,75.0000028610231,0|0,0:0|0:0,0:0:0:0:
471,220,6307,1,0,0:0:0:0:
471,220,6463,1,0,0:0:0:0:
379,262,6618,6,0,P|370:209|377:166,1,75.0000028610231,2|0,0:0|0:0,0:0:0:0:
452,356,6929,2,0,L|365:347,1,75.0000028610231,2|0,0:0|0:0,0:0:0:0:
266,309,7240,1,0,0:0:0:0:
211,241,7395,2,0,P|252:226|292:230,1,75.0000028610231,0|0,0:0|0:0,0:0:0:0:
184,340,7706,6,0,B|104:320|119:370|23:347,1,150.000005722046,0|0,0:0|0:0,0:0:0:0:
22,233,8173,2,0,L|26:155,1,75.0000028610231,0|0,0:0|0:0,0:0:0:0:
119,49,8483,2,0,L|122:123,1,75.0000028610231,0|0,0:0|0:0,0:0:0:0:
176,225,8794,2,0,P|207:231|256:222,1,75.0000028610231,0|0,0:0|0:0,0:0:0:0:
319,32,9105,6,0,P|267:17|208:101,1,150.000005722046,2|0,0:0|0:0,0:0:0:0:
333,163,9571,1,0,0:0:0:0:
412,201,9727,2,0,B|427:113|381:118|405:28,1,150.000005722046,2|0,0:0|0:0,0:0:0:0:
495,137,10193,1,0,0:0:0:0:
446,290,10349,6,0,L|338:276,1,85.0000016212464,2|0,0:0|0:0,0:0:0:0:
250,174,10660,2,0,P|282:162|340:164,1,85.0000016212464,2|2,0:0|0:0,0:0:0:0:
259,313,10970,2,0,P|227:325|169:323,1,85.0000016212464,0|0,0:0|0:0,0:0:0:0:
92,232,11281,1,0,0:0:0:0:
92,232,11437,1,8,0:0:0:0:
47,106,11592,6,0,B|80:94|80:94|138:102,1,85.0000016212464,10|10,0:0|0:0,0:0:0:0:
188,238,11903,1,0,0:0:0:0:
188,238,12059,2,0,B|155:250|155:250|97:242,1,85.0000016212464,2|0,0:0|0:0,0:0:0:0:
268,158,12369,2,0,L|274:249,1,85.0000016212464,10|0,0:0|0:0,0:0:0:0:
358,330,12680,1,10,0:0:0:0:
464,244,12836,6,0,B|469:207|469:207|463:152,1,85.0000016212464,10|10,0:0|0:0,0:0:0:0:
387,21,13147,2,0,P|366:53|361:112,1,85.0000016212464,10|2,0:0|0:0,0:0:0:0:
296,235,13457,2,0,P|290:193|267:157,1,85.0000016212464,0|2,0:0|0:0,0:0:0:0:
148,105,13768,1,0,0:0:0:0:
125,234,13924,6,0,L|214:218,1,85.0000016212464,8|10,0:0|0:0,0:0:0:0:
160,98,14235,1,8,0:0:0:0:
160,98,14390,1,2,0:0:0:0:
44,183,14546,2,0,P|30:217|33:270,1,85.0000016212464,0|8,0:0|0:0,0:0:0:0:
221,300,14856,2,0,P|223:257|208:218,1,85.0000016212464,2|0,0:0|0:0,0:0:0:0:
173,92,15167,1,8,0:0:0:0:
173,92,15323,6,0,B|260:79|246:138|353:114,1,170.000003242493,10|10,0:0|0:0,0:0:0:0:
437,71,15789,1,2,0:0:0:0:
479,179,15945,2,0,L|385:167,1,85.0000016212464,0|2,0:0|0:0,0:0:0:0:
284,286,16255,2,0,L|368:275,1,85.0000016212464,0|10,0:0|0:0,0:0:0:0:
212,183,16566,6,0,B|192:231|192:231|210:359,1,170.000003242493,2|2,1:2|0:0,0:0:0:0:
290,216,17033,1,2,0:0:0:0:
290,216,17188,2,0,P|299:172|288:128,1,85.0000016212464,0|0,0:0|0:0,0:0:0:0:
113,191,17499,2,0,P|104:235|115:279,1,85.0000016212464,0|10,0:0|0:0,0:0:0:0:
215,40,17810,6,0,B|125:21|136:73|29:46,1,170.000003242493,2|2,0:0|0:0,0:0:0:0:
18,157,18276,1,2,0:0:0:0:
154,195,18432,2,0,P|173:160|177:105,1,85.0000016212464,0|2,0:0|0:0,0:0:0:0:
32,247,18742,2,0,P|36:289|56:326,1,85.0000016212464,0|10,0:0|0:0,0:0:0:0:
209,351,19053,6,0,L|424:327,1,200,0|0,0:0|0:0,0:0:0:0:
256,192,20297,5,0,0:0:0:0:
256,192,21074,12,0,22473,0:0:0:0:
325,320,22784,5,14,3:0:0:0:
139,200,22939,1,2,0:0:0:0:
339,188,23095,1,8,0:0:0:0:
201,353,23250,1,2,0:0:0:0:
145,119,23406,2,0,L|249:131,1,100,2|2,0:0|0:0,0:0:0:0:
151,275,23717,1,8,0:0:0:0:
151,275,23872,1,2,0:0:0:0:
67,155,24027,6,0,P|61:104|89:59,1,100,2|2,3:0|0:0,0:0:0:0:
249,15,24338,2,0,P|272:58|266:106,1,100,8|2,0:0|0:0,0:0:0:0:
155,256,24649,2,0,B|215:246|215:246|290:259|290:259|383:242,1,200,0|10,0:0|0:0,0:0:0:0:
453,126,25116,1,10,0:0:0:0:
407,309,25271,5,2,0:0:0:0:
325,146,25426,1,2,0:0:0:0:
349,140,25503,1,2,0:0:0:0:
302,353,25659,1,10,0:0:0:0:
278,362,25736,1,10,0:0:0:0:
254,363,25815,2,0,L|197:353,1,50,2|0,0:0|0:0,0:0:0:0:
255,178,26048,2,0,L|249:277,1,100,2|8,0:0|0:0,0:0:0:0:
96,192,26359,1,2,0:0:0:0:
213,96,26514,6,0,B|243:92|243:92|312:104,1,100,10|2,0:0|0:0,0:0:0:0:
237,194,26825,1,8,0:0:0:0:
125,115,26981,1,8,0:0:0:0:
123,90,27058,1,8,0:0:0:0:
129,65,27136,1,8,0:0:0:0:
285,14,27292,1,2,0:0:0:0:
354,192,27447,2,0,L|234:175,1,100,8|10,0:0|0:0,0:0:0:0:
446,62,27758,5,2,0:0:0:0:
446,62,27913,1,2,0:0:0:0:
464,182,28069,2,0,L|466:287,1,100,8|2,0:0|0:0,0:0:0:0:
268,161,28380,1,2,0:0:0:0:
268,161,28535,1,2,0:0:0:0:
387,105,28691,2,0,B|422:97|422:97|488:102,1,100,10|2,0:0|0:0,0:0:0:0:
356,222,29002,1,2,0:0:0:0:
264,324,29157,6,0,B|164:296|180:360|65:319,1,200,2|2,0:0|0:0,0:0:0:0:
44,207,29623,1,0,0:0:0:0:
44,207,29779,1,8,0:0:0:0:
160,135,29934,2,0,P|181:170|177:230,1,100,8|2,0:0|0:0,0:0:0:0:
48,78,30245,5,2,0:0:0:0:
202,38,30400,1,2,0:0:0:0:
226,42,30477,1,2,0:0:0:0:
357,150,30634,1,10,0:0:0:0:
343,180,30711,1,10,0:0:0:0:
343,213,30789,1,2,0:0:0:0:
358,242,30867,6,0,L|463:230,1,100,10|2,0:0|0:0,0:0:0:0:
419,96,31178,1,8,0:0:0:0:
236,184,31333,2,0,L|131:172,1,100,6|0,3:0|0:0,0:0:0:0:
310,46,31644,5,10,0:0:0:0:
259,330,31799,1,8,0:0:0:0:
102,89,31955,1,8,0:0:0:0:
357,150,32110,1,8,0:0:0:0:
156,281,32266,5,8,0:0:0:0:
194,56,32421,1,8,0:0:0:0:
321,244,32577,1,8,0:0:0:0:
32,187,32732,6,0,B|149:161|126:224|251:197,1,200,4|0,3:0|0:0,0:0:0:0:
218,67,33509,1,0,0:0:0:0:
218,67,33665,2,0,P|201:93|189:126,1,50,8|0,0:0|0:0,0:0:0:0:
228,201,33976,6,0,L|336:186,1,100,0|8,0:0|0:0,0:0:0:0:
443,85,34597,2,0,L|335:70,1,100,0|8,0:0|0:0,0:0:0:0:
407,353,35219,6,0,B|414:300|414:300|396:136,1,200,4|0,3:0|0:0,0:0:0:0:
265,204,35996,1,0,0:0:0:0:
265,204,36152,2,0,P|295:212|318:211,1,50,8|0,0:0|0:0,0:0:0:0:
284,120,36463,6,0,P|237:119|193:147,1,100,0|8,0:0|0:0,0:0:0:0:
263,379,37084,2,0,P|287:338|285:286,1,100,0|8,0:0|0:0,0:0:0:0:
0,232,37706,6,0,B|52:223|52:223|103:236|103:236|201:223,1,200,4|0,3:0|0:0,0:0:0:0:
251,140,38483,1,0,0:0:0:0:
251,140,38639,2,0,L|255:89,1,50,8|0,0:0|0:0,0:0:0:0:
349,37,38950,6,0,L|341:141,1,100,0|8,0:0|0:0,0:0:0:0:
169,236,39571,2,0,L|161:136,1,100,0|8,0:0|0:0,0:0:0:0:
476,231,40193,6,0,B|361:202|388:274|272:233,1,200,4|0,3:0|0:0,0:0:0:0:
170,169,40970,1,0,0:0:0:0:
303,81,41126,2,0,P|314:106|314:157,1,75.0000028610231,0|0,3:0|0:0,0:0:0:0:
200,289,41437,6,0,L|48:271,1,150.000005722046,0|0,0:0|0:0,0:0:0:0:
232,119,42059,2,0,L|380:101,1,150.000005722046,0|0,0:0|0:0,0:0:0:0:
349,238,42680,6,0,P|395:250|451:239,1,89.9999972534181,14|0,3:0|0:0,0:0:0:0:
381,102,42991,2,0,P|332:93|284:105,1,89.9999972534181,10|0,0:0|0:0,0:0:0:0:
195,254,43302,2,0,L|203:351,1,89.9999972534181,10|0,0:0|0:0,0:0:0:0:
285,190,43613,2,0,L|292:100,1,89.9999972534181,10|0,0:0|0:0,0:0:0:0:
182,18,43924,5,10,0:0:0:0:
101,76,44079,2,0,P|85:112|94:169,1,89.9999972534181,0|10,0:0|0:0,0:0:0:0:
195,254,44390,2,0,P|211:212|205:168,1,89.9999972534181,0|10,0:0|0:0,0:0:0:0:
112,351,44701,2,0,L|211:342,1,89.9999972534181,0|10,0:0|0:0,0:0:0:0:
354,308,45012,6,0,P|319:252|379:157,1,179.999994506836,0|0,0:0|0:0,0:0:0:0:
480,69,45478,2,0,L|391:53,1,89.9999972534181,10|0,0:0|0:0,0:0:0:0:
400,237,45789,2,0,L|489:221,1,89.9999972534181,10|0,0:0|0:0,0:0:0:0:
338,138,46100,1,10,0:0:0:0:
338,138,46255,1,0,0:0:0:0:
276,215,46411,6,0,P|263:258|268:309,1,89.9999972534181,10|0,0:0|0:0,0:0:0:0:
409,324,46722,1,10,0:0:0:0:
409,324,46877,2,0,P|412:279|399:236,1,89.9999972534181,0|10,0:0|0:0,0:0:0:0:
236,384,47188,2,0,L|327:367,1,89.9999972534181,0|10,0:0|0:0,0:0:0:0:
331,283,47499,1,0,0:0:0:0:
275,215,47654,6,0,B|177:190|209:259|83:222,1,179.999994506836,4|10,1:0|0:0,0:0:0:0:
53,112,48121,1,0,0:0:0:0:
127,62,48276,2,0,P|138:93|130:157,1,89.9999972534181,10|0,0:0|0:0,0:0:0:0:
28,209,48587,1,10,0:0:0:0:
61,301,48742,6,0,B|162:274|145:341|253:311,1,179.999994506836,0|0,0:0|0:0,0:0:0:0:
375,213,49209,2,0,P|387:253|374:304,1,89.9999972534181,10|0,0:0|0:0,0:0:0:0:
257,160,49520,2,0,P|246:116|258:73,1,89.9999972534181,10|0,0:0|0:0,0:0:0:0:
295,252,49831,2,0,L|197:235,1,89.9999972534181,10|0,0:0|0:0,0:0:0:0:
375,118,50141,5,14,3:0:0:0:
196,292,50297,1,2,0:0:0:0:
193,267,50374,1,2,0:0:0:0:
190,242,50452,1,10,0:0:0:0:
287,74,50608,1,2,0:0:0:0:
271,344,50763,1,8,0:0:0:0:
150,138,50919,1,2,0:0:0:0:
373,239,51074,1,8,0:0:0:0:
97,304,51230,5,2,0:0:0:0:
82,78,51385,1,10,0:0:0:0:
118,45,51462,1,10,0:0:0:0:
167,42,51540,1,10,0:0:0:0:
207,70,51618,1,10,0:0:0:0:
221,117,51695,1,10,0:0:0:0:
234,164,51774,1,10,0:0:0:0:
275,192,51852,1,10,0:0:0:0:
324,189,51930,1,10,0:0:0:0:
360,156,52007,6,0,P|372:116|354:52,1,100,2|2,0:0|0:0,0:0:0:0:
127,160,52473,6,0,P|106:195|117:267,1,100,14|2,3:0|0:0,0:0:0:0:
272,342,52784,1,2,0:0:0:0:
374,147,52939,1,8,0:0:0:0:
187,218,53095,1,0,0:0:0:0:
386,348,53250,2,0,L|378:228,1,100,2|0,0:0|0:0,0:0:0:0:
311,38,53561,1,8,0:0:0:0:
187,218,53717,6,0,P|236:224|286:206,1,100,0|2,0:0|0:0,0:0:0:0:
195,47,54027,2,0,P|146:41|96:59,1,100,0|8,0:0|0:0,0:0:0:0:
28,211,54338,1,0,0:0:0:0:
160,358,54494,1,2,0:0:0:0:
152,117,54649,1,2,0:0:0:0:
41,331,54805,1,8,0:0:0:0:
34,110,54960,6,0,L|43:-2,1,100,14|0,3:0|0:0,0:0:0:0:
267,85,55271,1,2,0:0:0:0:
185,257,55426,1,8,0:0:0:0:
151,17,55582,1,0,0:0:0:0:
308,159,55737,2,0,B|274:169|274:169|206:156,1,100,2|0,0:0|0:0,0:0:0:0:
326,35,56048,1,8,0:0:0:0:
343,237,56204,1,0,0:0:0:0:
469,76,56359,5,2,0:0:0:0:
475,99,56436,1,2,0:0:0:0:
476,124,56514,1,2,0:0:0:0:
409,304,56670,1,8,0:0:0:0:
327,147,56825,1,2,0:0:0:0:
351,151,56902,1,2,0:0:0:0:
376,156,56980,1,2,0:0:0:0:
270,358,57136,1,2,0:0:0:0:
83,225,57292,1,8,0:0:0:0:
244,62,57447,6,0,B|237:128|237:128|219:173|219:173|214:275,1,200,14|2,3:0|0:0,0:0:0:0:
409,304,57913,2,0,P|362:272|292:267,1,100,8|0,0:0|0:0,0:0:0:0:
142,363,58224,1,2,0:0:0:0:
111,137,58380,1,0,0:0:0:0:
111,137,58457,1,0,0:0:0:0:
111,137,58535,1,8,0:0:0:0:
195,268,58691,1,0,0:0:0:0:
32,192,58846,6,0,B|23:146|23:146|34:68,1,100,2|0,0:0|0:0,0:0:0:0:
260,34,59157,2,0,B|269:80|269:80|258:158,1,100,8|0,0:0|0:0,0:0:0:0:
210,351,59468,1,2,0:0:0:0:
111,137,59623,1,2,0:0:0:0:
377,194,59779,1,8,0:0:0:0:
219,343,59934,6,0,B|170:330|170:330|133:341|133:341|17:311,1,200,14|2,3:0|0:0,0:0:0:0:
280,209,60400,2,0,P|316:248|326:310,1,100,8|0,0:0|0:0,0:0:0:0:
100,246,60711,1,2,0:0:0:0:
264,72,60867,1,2,0:0:0:0:
219,343,61022,1,8,0:0:0:0:
154,39,61178,5,14,3:0:0:0:
336,143,61489,5,10,0:0:0:0:
324,162,61566,2,0,P|286:174|236:165,1,62.5,10|10,0:0|0:0,0:0:0:0:
264,72,61722,1,10,0:0:0:0:
276,53,61799,2,0,P|314:41|364:50,1,62.5,10|0,0:0|0:0,0:0:0:0:
425,95,61955,1,10,0:0:0:0:
441,121,62032,1,10,0:0:0:0:
447,151,62110,1,10,0:0:0:0:
441,182,62188,1,10,0:0:0:0:
424,207,62266,2,0,P|411:233|409:275,1,62.5,10|0,0:0|0:0,0:0:0:0:
444,368,62421,6,0,L|314:348,1,125,14|0,3:0|0:0,0:0:0:0:
105,240,62732,1,2,0:0:0:0:
278,152,62888,1,8,0:0:0:0:
207,376,63043,1,0,0:0:0:0:
143,148,63198,2,0,B|139:101|139:101|150:38,1,100,2|0,0:0|0:0,0:0:0:0:
286,162,63509,1,8,0:0:0:0:
166,237,63665,2,0,L|37:217,1,100,0|2,0:0|0:0,0:0:0:0:
239,76,63976,2,0,L|368:56,1,100,0|8,0:0|0:0,0:0:0:0:
447,183,64287,5,0,0:0:0:0:
331,343,64442,1,2,0:0:0:0:
230,67,64597,1,2,0:0:0:0:
453,192,64753,1,8,0:0:0:0:
229,297,64908,6,0,B|214:257|214:257|223:171,1,100,4|4,3:0|3:0,0:0:0:0:
379,84,65219,1,2,0:0:0:0:
324,352,65375,1,8,0:0:0:0:
159,139,65530,1,0,0:0:0:0:
397,255,65685,2,0,L|271:237,1,100,2|0,0:0|0:0,0:0:0:0:
385,78,65996,1,8,0:0:0:0:
468,211,66152,6,0,P|480:250|466:311,1,100,0|2,0:0|0:0,0:0:0:0:
420,360,66385,1,2,0:0:0:0:
407,368,66463,1,2,0:0:0:0:
210,283,66618,1,8,0:0:0:0:
367,155,66774,1,2,0:0:0:0:
391,151,66851,1,2,0:0:0:0:
416,148,66929,1,2,0:0:0:0:
217,294,67084,2,0,L|106:277,1,100,2|8,0:0|0:0,0:0:0:0:
77,44,67395,6,0,B|188:17|163:78|280:57,1,200,14|2,3:0|0:0,0:0:0:0:
146,221,67862,2,0,P|125:170|134:103,1,100,8|0,0:0|0:0,0:0:0:0:
346,35,68173,1,2,0:0:0:0:
293,279,68328,1,0,0:0:0:0:
177,65,68483,2,0,L|283:75,1,100,8|0,0:0|0:0,0:0:0:0:
457,199,68794,5,2,0:0:0:0:
296,377,68950,1,0,0:0:0:0:
296,377,69027,1,0,0:0:0:0:
296,377,69105,2,0,P|286:322|295:270,1,100,8|0,0:0|0:0,0:0:0:0:
404,104,69416,1,2,0:0:0:0:
363,323,69571,1,2,0:0:0:0:
286,14,69727,1,8,0:0:0:0:
409,243,69882,6,0,B|299:205|321:288|207:248,1,200,14|2,3:0|0:0,0:0:0:0:
44,112,70349,2,0,P|86:97|175:119,1,100,8|0,0:0|0:0,0:0:0:0:
184,329,70660,1,2,0:0:0:0:
13,216,70815,1,2,0:0:0:0:
219,64,70970,1,8,0:0:0:0:
176,344,71126,5,14,3:0:0:0:
108,161,71437,6,0,L|224:149,1,100,14|0,3:0|0:0,0:0:0:0:
275,209,71670,1,10,0:0:0:0:
275,209,71748,2,0,L|345:215,1,50,10|0,0:0|0:0,0:0:0:0:
401,167,71903,1,8,0:0:0:0:
413,145,71980,1,10,0:0:0:0:
419,121,72058,1,10,0:0:0:0:
418,96,72136,1,8,0:0:0:0:
411,72,72213,1,10,0:0:0:0:
196,35,72369,6,0,B|172:73|172:73|176:231,1,200,14|2,3:0|0:0,0:0:0:0:
338,362,72836,2,0,P|351:318|345:249,1,100,8|0,0:0|0:0,0:0:0:0:
85,217,73147,1,2,0:0:0:0:
262,304,73302,1,0,0:0:0:0:
196,35,73457,1,8,0:0:0:0:
75,205,73613,6,0,B|176:180|159:245|289:210,1,200,14|0,3:0|0:0,0:0:0:0:
444,57,74079,2,0,L|434:166,1,100,8|0,0:0|0:0,0:0:0:0:
346,334,74390,1,2,0:0:0:0:
261,130,74546,1,2,0:0:0:0:
460,230,74701,1,8,0:0:0:0:
256,283,74856,6,0,L|150:269,1,100,14|0,3:0|0:0,0:0:0:0:
51,172,75167,1,2,0:0:0:0:
241,67,75323,2,0,B|249:113|249:113|239:176,1,100,8|0,0:0|0:0,0:0:0:0:
142,355,75634,6,0,L|39:336,1,100,2|0,0:0|0:0,0:0:0:0:
229,240,75945,2,0,P|252:275|252:343,1,100,8|0,0:0|0:0,0:0:0:0:
94,263,76255,5,6,0:0:0:0:
88,238,76332,1,2,0:0:0:0:
89,213,76410,1,2,0:0:0:0:
170,19,76566,1,8,0:0:0:0:
229,240,76722,1,6,0:0:0:0:
204,235,76799,1,2,0:0:0:0:
179,230,76877,1,2,0:0:0:0:
333,77,77033,1,2,0:0:0:0:
283,324,77188,1,8,0:0:0:0:
152,135,77344,6,0,B|241:144|241:144|274:165|274:165|363:171,1,200,14|2,3:0|0:0,0:0:0:0:
469,296,77810,2,0,P|482:252|480:181,1,100,8|0,0:0|0:0,0:0:0:0:
257,50,78121,1,2,0:0:0:0:
347,273,78276,1,2,0:0:0:0:
418,22,78432,1,8,0:0:0:0:
225,205,78587,6,0,L|329:193,1,100,2|0,0:0|0:0,0:0:0:0:
97,45,79675,6,0,P|109:84|102:122,1,75.0000028610231,0|0,0:0|0:0,0:0:0:0:
83,204,79986,5,14,0:0:0:0:
289,142,80141,1,2,0:0:0:0:
200,336,80297,1,8,0:0:0:0:
188,94,80452,1,2,0:0:0:0:
307,274,80608,2,0,L|199:255,1,100,2|2,0:0|0:0,0:0:0:0:
276,60,80919,1,8,0:0:0:0:
276,60,81074,1,2,0:0:0:0:
386,215,81230,6,0,P|401:252|395:326,1,100,2|2,0:0|0:0,0:0:0:0:
222,352,81540,2,0,P|207:315|213:241,1,100,8|2,0:0|0:0,0:0:0:0:
315,131,81851,2,0,B|258:119|258:119|192:140|192:140|110:122,1,200,0|2,0:0|0:0,0:0:0:0:
188,25,82318,1,2,0:0:0:0:
289,211,82473,5,2,0:0:0:0:
195,362,82628,1,2,0:0:0:0:
171,356,82706,1,2,0:0:0:0:
79,265,82862,1,10,0:0:0:0:
77,240,82939,1,10,0:0:0:0:
74,215,83017,2,0,L|80:153,1,50,2|0,0:0|0:0,0:0:0:0:
173,35,83250,2,0,P|222:22|280:45,1,100,2|8,0:0|0:0,0:0:0:0:
365,175,83561,1,2,0:0:0:0:
207,215,83717,6,0,L|220:90,1,100,2|2,0:0|0:0,0:0:0:0:
372,50,84027,1,8,0:0:0:0:
393,255,84183,1,8,0:0:0:0:
368,259,84260,1,8,0:0:0:0:
343,256,84338,1,8,0:0:0:0:
292,109,84494,1,2,0:0:0:0:
468,186,84649,2,0,B|481:225|481:225|473:291,1,100,8|10,0:0|0:0,0:0:0:0:
321,367,84960,5,2,0:0:0:0:
321,367,85116,1,2,0:0:0:0:
138,180,85271,2,0,P|185:165|248:177,1,100,8|2,0:0|0:0,0:0:0:0:
84,361,85582,2,0,B|68:325|68:325|73:242,1,100,2|2,0:0|0:0,0:0:0:0:
235,172,85893,1,10,0:0:0:0:
246,317,86048,2,0,L|147:298,1,100,2|2,0:0|0:0,0:0:0:0:
42,172,86359,1,2,0:0:0:0:
213,71,86514,2,0,L|312:90,1,100,8|2,0:0|0:0,0:0:0:0:
488,250,86825,6,0,B|440:239|440:239|377:248|377:248|288:231,1,200,0|8,0:0|0:0,0:0:0:0:
146,148,87292,1,2,0:0:0:0:
367,39,87447,2,0,P|383:77|370:149,1,100,2|2,0:0|0:0,0:0:0:0:
258,334,87758,1,10,0:0:0:0:
234,87,87913,1,8,0:0:0:0:
234,87,87991,1,10,0:0:0:0:
234,87,88069,1,10,0:0:0:0:
360,277,88224,1,0,0:0:0:0:
101,222,88380,1,8,0:0:0:0:
323,152,88535,5,2,0:0:0:0:
372,147,88612,1,0,0:0:0:0:
422,143,88690,1,10,0:0:0:0:
258,334,88846,1,10,0:0:0:0:
145,95,89002,1,10,0:0:0:0:
148,70,89079,1,10,0:0:0:0:
152,45,89157,1,10,0:0:0:0:
311,230,89312,5,8,0:0:0:0:
268,255,89389,1,10,0:0:0:0:
219,251,89467,1,10,0:0:0:0:
180,220,89545,1,8,0:0:0:0:
137,195,89624,1,10,0:0:0:0:
88,199,89702,1,2,0:0:0:0:
49,230,89779,2,0,L|54:285,1,50,2|2,0:0|0:0,0:0:0:0:
