osu file format v14

[General]
AudioFilename: audio.mp3
AudioLeadIn: 0
PreviewTime: 36628
Countdown: 0
SampleSet: Soft
StackLeniency: 0.3
Mode: 0
LetterboxInBreaks: 0
WidescreenStoryboard: 1

[Editor]
DistanceSpacing: 1.6
BeatDivisor: 3
GridSize: 32
TimelineZoom: 1.8

[Metadata]
Title:Eiyuu Unmei no Uta
TitleUnicode:英雄 運命の詩
Artist:EGOIST
ArtistUnicode:EGOIST
Creator:ailv
Version:Hard
Source:Fate/Apocrypha
Tags:フェイト/アポクリファ feito apokurifa chelly supercell ryo anxient
BeatmapID:1514249
BeatmapSetID:682621

[Difficulty]
HPDrainRate:5
CircleSize:3.5
OverallDifficulty:7
ApproachRate:7
SliderMultiplier:1.5
SliderTickRate:1

[Events]
//Background and Video events
0,0,"858898.jpg",0,0
Video,0,"FATEOP.avi"
//Break Periods
2,2088,6412
2,7512,10480
2,35987,45734
//Storyboard Layer 0 (Background)
//Storyboard Layer 1 (Fail)
//Storyboard Layer 2 (Pass)
//Storyboard Layer 3 (Foreground)
//Storyboard Sound Samples

[TimingPoints]
533,338.9830508475,4,2,2,45,1,0
1888,-100,4,2,2,45,0,0
13414,-100,4,2,2,65,0,0
23582,-100,4,2,3,65,0,0
23583,-100,4,2,3,65,0,0
35786,-100,4,2,2,25,0,0
46633,-100,4,2,2,45,0,0
46634,-187.617260787992,4,2,2,45,0,0
57142,-187.617260787992,4,2,3,60,0,0
57482,-100,4,2,3,60,0,0
68328,-100,4,2,3,65,0,0
68329,-100,4,2,3,65,0,1
87312,-100,4,2,3,65,0,0
90023,-100,4,2,3,60,0,0

[Colours]
Combo1 : 225,136,111
Combo2 : 145,156,240
Combo3 : 239,186,107
Combo4 : 117,126,128

[HitObjects]
113,191,1888,5,6,0:0:0:0:
417,353,7312,5,4,3:0:0:0:
256,192,11380,12,2,12736,0:0:0:0:
305,148,13414,6,0,P|380:123|460:161,1,150,14|0,0:0|0:0,0:0:0:0:
494,239,13922,1,8,3:0:0:0:
439,329,14092,2,0,L|341:319,1,75,14|0,0:0|0:0,0:0:0:0:
278,261,14431,1,0,0:0:0:0:
278,261,14600,1,8,3:0:0:0:
211,342,14770,6,0,B|159:349|159:349|107:316|101:258,1,150,6|0,0:0|0:0,0:0:0:0:
162,185,15278,1,4,3:0:0:0:
66,141,15448,2,0,P|63:91|86:44,1,75,6|8,0:0|3:0,0:0:0:0:
169,23,15787,1,0,3:0:0:0:
169,23,15956,1,8,3:0:0:0:
237,105,16126,6,0,L|421:91,1,150,6|0,0:0|0:0,0:0:0:0:
469,28,16634,1,8,3:0:0:0:
386,93,16804,2,0,P|375:145|387:193,1,75,14|0,0:0|0:3,0:0:0:0:
470,218,17143,2,0,P|481:270|469:318,1,75,0|8,0:0|3:0,0:0:0:0:
389,371,17482,6,0,P|320:342|243:337,1,150,14|0,0:0|0:0,0:0:0:0:
144,363,17990,1,4,3:0:0:0:
144,363,18160,1,4,0:0:0:0:
56,75,18668,5,8,3:0:0:0:
56,75,18753,1,8,3:0:0:0:
56,75,18838,2,0,P|29:107|24:174,1,75,12|0,0:0|0:0,0:0:0:0:
118,183,19177,2,0,P|145:151|150:84,1,75,8|8,0:0|0:0,0:0:0:0:
211,31,19516,2,0,L|298:31,1,75,6|0,3:0|0:0,0:0:0:0:
341,47,19770,1,0,0:0:0:0:
341,47,19855,6,0,P|330:100|335:149,1,75,4|10,3:0|3:0,0:0:0:0:
436,113,20194,2,0,P|447:166|442:215,1,75,4|0,0:0|0:0,0:0:0:0:
512,273,20533,1,4,3:0:0:0:
512,273,20702,1,8,3:0:0:0:
442,351,20871,6,0,P|379:262|268:275,1,225,4|8,3:0|3:0,0:0:0:0:
184,327,21549,2,0,P|76:335|15:247,1,225,4|4,3:0|0:3,0:0:0:0:
38,135,22227,6,0,B|72:86|72:86|167:61|263:114,1,225,4|10,0:0|3:0,0:0:0:0:
284,199,22905,2,0,B|313:250|313:250|404:285|506:242,1,225,6|0,3:0|0:0,0:0:0:0:
507,138,23583,6,0,L|499:40,1,75,12|2,3:0|0:0,0:0:0:0:
413,5,23922,2,0,L|421:103,1,75,8|2,0:0|0:0,0:0:0:0:
342,151,24261,2,0,L|334:53,1,75,8|0,0:0|0:0,0:0:0:0:
248,18,24600,2,0,L|256:116,1,75,8|2,0:0|0:0,0:0:0:0:
194,179,24939,6,0,P|129:192|97:187,2,75,8|2|8,0:0|0:0|0:0,0:0:0:0:
295,224,25448,1,2,0:0:0:0:
295,224,25617,2,0,P|332:225|368:236,2,75,8|2|8,0:0|0:0|0:0,0:0:0:0:
219,298,26126,1,10,3:0:0:0:
218,297,26295,6,0,L|225:372,2,75,4|2|8,3:0|0:0|0:0,0:0:0:0:
150,216,26804,1,2,0:0:0:0:
150,216,26973,2,0,L|157:141,2,75,8|0|0,0:0|0:0|0:0,0:0:0:0:
84,299,27482,1,2,0:0:0:0:
84,299,27651,6,0,P|38:288|7:258,1,75,0|0,0:0|0:0,0:0:0:0:
41,169,27990,2,0,P|27:123|38:81,1,75,8|2,0:0|0:0,0:0:0:0:
132,66,28329,2,0,P|164:31|206:19,1,75,8|10,0:0|0:0,0:0:0:0:
266,93,28668,2,0,P|312:103|342:134,1,75,4|10,0:3|3:0,0:0:0:0:
384,213,29007,6,0,L|462:211,1,75,12|2,0:0|0:0,0:0:0:0:
507,304,29346,2,0,L|429:302,1,75,8|2,0:0|0:0,0:0:0:0:
328,319,29685,2,0,L|250:317,1,75,8|2,0:0|0:0,0:0:0:0:
181,232,30024,2,0,L|103:230,1,75,8|0,0:0|0:0,0:0:0:0:
24,296,30363,6,0,P|16:346|27:383,2,75,0|2|8,0:0|0:0|0:0,0:0:0:0:
110,235,30871,1,2,0:0:0:0:
110,235,31041,2,0,P|118:185|107:148,1,75,8|2,0:0|0:0,0:0:0:0:
73,64,31380,1,8,0:0:0:0:
159,4,31549,1,10,3:0:0:0:
239,72,31719,6,0,L|322:74,1,75,0|2,0:0|0:0,0:0:0:0:
383,153,32058,2,0,L|300:155,1,75,8|2,0:0|0:0,0:0:0:0:
239,234,32397,2,0,L|322:236,1,75,8|0,0:0|0:0,0:0:0:0:
383,315,32736,2,0,L|300:317,1,75,8|2,0:0|0:0,0:0:0:0:
210,355,33075,5,8,0:0:0:0:
127,296,33244,2,0,L|122:252,2,37.5,2|0|8,0:0|0:0|0:0,0:0:0:0:
20,335,33583,2,0,L|24:297,1,37.5,2|0,0:0|0:0,0:0:0:0:
73,167,33753,6,0,L|21:161,2,50
166,103,34092,2,0,L|218:97,2,50
256,192,34516,12,0,35787,0:0:0:0:
243,193,46634,6,0,B|271:75|131:28|131:28|22:112|106:225|106:225|164:198|153:128,1,559.64999103344,12|0,3:0|0:0,0:0:0:0:
25,260,49346,6,0,B|142:193|296:220|296:220|221:247|181:304|181:304|227:359|317:346,1,559.64999103344,0|0,0:0|0:0,0:0:0:0:
498,258,52058,6,0,B|517:198|475:102|475:102|425:110|373:80|373:80|312:171|210:102|210:102|246:55|306:46,1,559.64999103344,12|0,3:0|0:0,0:0:0:0:
392,193,54770,6,0,B|445:288|342:379|342:379|233:305|265:208|265:208|239:255|182:280|126:251,1,559.64999103344,0|14,0:0|3:0,0:0:0:0:
31,79,57482,6,0,B|17:115|17:115|32:185|80:206,1,150,14|10,0:0|0:0,0:0:0:0:
179,177,57991,2,0,P|177:137|181:87,1,75,2|10,0:0|0:0,0:0:0:0:
239,16,58329,1,0,0:0:0:0:
338,52,58499,2,0,L|427:59,1,75,10|2,0:0|0:0,0:0:0:0:
488,131,58838,6,0,P|441:205|385:191,1,150,10|10,0:0|0:0,0:0:0:0:
307,132,59346,1,2,0:0:0:0:
256,223,59516,2,0,B|248:278|248:278|256:311,1,75,12|0,3:0|0:0,0:0:0:0:
345,349,59855,2,0,B|337:294|337:294|345:261,1,75,6|0,3:0|0:0,0:0:0:0:
409,195,60194,6,0,P|487:215|508:286,1,150,6|10,0:3|0:0,0:0:0:0:
425,336,60702,1,0,0:0:0:0:
341,275,60871,2,0,P|288:271|244:282,2,75,10|2|10,0:0|0:0|0:0,0:0:0:0:
342,171,61380,1,2,0:0:0:0:
342,171,61549,2,0,B|370:117|370:62|370:62|349:24,1,150,8|8,0:0|0:0,0:0:0:0:
246,34,62058,1,2,0:0:0:0:
153,81,62227,6,0,B|105:62|63:54|63:54|22:70,1,112.5,8|0,0:0|0:0,0:0:0:0:
14,103,62566,2,0,P|10:150|12:199,1,75,4|0,3:0|0:0,0:0:0:0:
103,308,62905,6,0,P|66:299|35:280,2,75,12|0|0,0:0|0:0|0:0,0:0:0:0:
126,208,63414,2,0,P|153:181|186:163,2,75,4|0|8,0:3|0:0|0:0,0:0:0:0:
227,273,63922,1,14,0:0:0:0:
256,192,64939,5,4,0:0:0:0:
512,117,65617,5,4,3:0:0:0:
357,258,65956,1,0,0:0:0:0:
512,117,66295,1,8,0:0:0:0:
357,258,66634,1,4,3:0:0:0:
310,53,66973,5,12,3:0:0:0:
310,53,67651,6,0,P|278:13|285:75,1,150,0|0,0:0|0:0,0:0:0:0:
371,177,68329,6,0,P|323:163|269:164,1,75,6|0,0:3|0:0,0:0:0:0:
174,102,68668,1,8,0:3:0:0:
174,102,68838,2,0,P|105:108|37:166,1,150,14|0,0:0|0:0,0:0:0:0:
149,230,69346,1,4,0:3:0:0:
149,230,69516,2,0,P|234:226|279:266,1,150,14|0,0:0|0:0,0:0:0:0:
188,344,70024,1,4,0:3:0:0:
188,344,70194,2,0,B|106:328|106:328|59:318|27:339,1,150,14|0,0:0|0:0,0:0:0:0:
58,195,70702,5,4,0:3:0:0:
58,195,70871,2,0,P|65:134|-5:95,1,150,14|2,0:0|0:0,0:0:0:0:
87,15,71380,1,4,0:3:0:0:
87,15,71549,2,0,B|127:38|165:41|165:41|266:29,1,150,6|0,0:0|0:0,0:0:0:0:
358,18,72058,1,4,0:3:0:0:
358,18,72227,2,0,P|329:110|331:181,1,150,14|2,0:0|0:3,0:0:0:0:
450,203,72736,1,6,0:3:0:0:
450,203,72905,2,0,P|479:141|412:122,1,150,12|0,0:0|0:0,0:0:0:0:
364,257,73414,5,6,0:3:0:0:
364,257,73583,2,0,B|253:242|253:242|222:255|208:277,1,150,12|0,0:0|0:0,0:0:0:0:
135,349,74092,1,4,0:3:0:0:
135,349,74261,2,0,P|130:263|105:195,1,150,12|0,0:0|0:0,0:0:0:0:
28,111,74770,1,4,0:3:0:0:
28,111,74939,2,0,P|92:96|55:34,1,150,12|0,0:0|0:0,0:0:0:0:
183,84,75448,1,6,0:3:0:0:
183,84,75617,2,0,B|209:115|239:115|239:115|351:87,1,150,14|0,0:0|0:0,0:0:0:0:
436,139,76126,1,0,0:0:0:0:
436,139,76295,1,12,0:0:0:0:
337,214,76465,6,0,L|352:319,1,75,12|0,3:0|0:0,0:0:0:0:
245,370,76804,2,0,L|234:295,1,75,4|12,0:3|0:0,0:0:0:0:
127,216,77143,2,0,L|142:321,1,75,4|0,0:3|0:0,0:0:0:0:
35,372,77482,2,0,L|24:297,1,75,4|12,0:3|0:0,0:0:0:0:
46,168,77821,6,0,L|37:108,2,37.5,8|0|8,0:0|0:0|0:0,0:0:0:0:
158,111,78160,2,0,L|152:73,2,37.5,8|0|12,0:0|0:0|0:0,0:0:0:0:
306,75,78499,6,0,L|312:113,3,37.5,12|8|0|0,0:3|0:0|0:0|0:0,0:0:0:0:
364,52,78838,2,0,L|370:14,3,37.5,0|0|12|0,0:0|0:0|0:0|0:0,0:0:0:0:
429,58,79177,6,0,L|439:132,1,75,14|0,0:0|0:0,0:0:0:0:
504,238,79516,1,6,0:3:0:0:
428,330,79685,2,0,B|408:308|382:292|382:292|287:288|287:288|271:310,1,150,12|0,0:0|0:0,0:0:0:0:
184,344,80194,1,4,0:3:0:0:
184,344,80363,2,0,P|173:255|192:179,1,150,12|0,0:0|0:0,0:0:0:0:
314,149,80871,1,6,0:3:0:0:
314,149,81041,2,0,P|241:201|161:184,1,150,14|0,0:0|0:0,0:0:0:0:
123,71,81549,5,6,0:3:0:0:
123,71,81719,2,0,B|140:51|166:42|166:42|285:46,1,150,12|2,0:0|0:3,0:0:0:0:
387,14,82227,1,4,0:3:0:0:
387,14,82397,2,0,P|347:108|345:171,1,150,12|2,0:0|0:3,0:0:0:0:
444,252,82905,1,4,0:3:0:0:
444,252,83075,2,0,P|395:202|301:189,1,150,12|2,0:0|0:3,0:0:0:0:
276,314,83583,1,4,0:3:0:0:
276,314,83753,2,0,P|222:243|188:286,1,150,12|0,0:0|0:0,0:0:0:0:
89,355,84261,5,0,0:0:0:0:
89,355,84431,2,0,P|64:273|79:192,1,150,12|0,0:0|0:0,0:0:0:0:
12,90,84939,1,12,0:3:0:0:
12,90,85109,2,0,B|77:115|99:115|99:115|183:103,1,150,12|0,0:0|0:0,0:0:0:0:
276,40,85617,1,4,0:3:0:0:
276,40,85787,2,0,B|341:15|363:15|363:15|447:27,1,150,12|2,0:0|0:3,0:0:0:0:
399,151,86295,1,4,0:3:0:0:
399,151,86465,2,0,P|328:137|265:205,1,150,12|2,0:0|0:3,0:0:0:0:
230,304,86973,5,6,0:3:0:0:
347,362,87143,1,14,0:0:0:0:
346,361,88668,6,0,L|339:287,1,75,4|4,0:3|0:3,0:0:0:0:
394,169,89007,2,0,L|386:94,1,75,4|4,0:3|0:3,0:0:0:0:
266,60,89346,1,4,0:3:0:0:
266,60,89516,1,4,0:3:0:0:
235,186,89685,1,4,0:3:0:0:
235,186,89855,1,0,0:0:0:0:
106,212,90024,6,0,P|61:274|104:335,1,150,4|8,0:0|0:0,0:0:0:0:
226,340,90702,2,0,P|271:278|228:217,1,150,8|10,0:0|0:0,0:0:0:0:
79,127,91380,6,0,P|187:150|230:132,1,150,8|8,0:0|0:0,0:0:0:0:
226,19,92058,2,0,P|118:-4|75:14,1,150,8|10,0:0|0:0,0:0:0:0:
0,105,92736,6,0,L|15:276,1,150,8|8,0:0|0:0,0:0:0:0:
139,331,93414,2,0,L|124:160,1,150,8|8,0:0|0:0,0:0:0:0:
220,115,94092,6,0,L|228:215,1,75,4|4,0:3|0:3,0:0:0:0:
317,274,94431,2,0,L|308:180,1,75,4|4,0:3|0:3,0:0:0:0:
386,93,94770,2,0,L|394:193,1,75,14|10,0:3|0:0,0:0:0:0:
483,252,95109,2,0,L|474:158,1,75,10|8,0:0|0:0,0:0:0:0:
