osu file format v14

[General]
AudioFilename: audio.mp3
AudioLeadIn: 0
PreviewTime: 36628
Countdown: 0
SampleSet: Soft
StackLeniency: 0.2
Mode: 0
LetterboxInBreaks: 0
WidescreenStoryboard: 0

[Editor]
DistanceSpacing: 0.7
BeatDivisor: 4
GridSize: 32
TimelineZoom: 1.8

[Metadata]
Title:Eiyuu Unmei no Uta
TitleUnicode:英雄 運命の詩
Artist:EGOIST
ArtistUnicode:EGOIST
Creator:ailv
Version:Mediator
Source:Fate/Apocrypha
Tags:フェイト/アポクリファ feito apokurifa chelly supercell ryo anxient
BeatmapID:1443585
BeatmapSetID:682621

[Difficulty]
HPDrainRate:6
CircleSize:5
OverallDifficulty:8
ApproachRate:9.4
SliderMultiplier:2.2
SliderTickRate:1

[Events]
//Background and Video events
0,0,"858898.jpg",0,0
Video,0,"FATEOP.avi"
//Break Periods
2,35987,46094
//Storyboard Layer 0 (Background)
//Storyboard Layer 1 (Fail)
//Storyboard Layer 2 (Pass)
//Storyboard Layer 3 (Foreground)
//Storyboard Sound Samples

[TimingPoints]
533,338.9830508475,4,2,2,45,1,0
1888,-100,4,2,2,45,0,0
1973,-100,4,2,2,45,0,0
11380,-125,4,2,2,45,0,0
12397,-100,4,2,2,45,0,0
13244,-83.3333333333333,4,2,2,45,0,0
13414,-66.6666666666667,4,2,2,65,0,0
13753,-66.6666666666667,4,2,2,65,0,0
14092,-100,4,2,2,65,0,0
14770,-55.5555555555556,4,2,2,65,0,0
15109,-55.5555555555556,4,2,2,65,0,0
15448,-66.6666666666667,4,2,2,65,0,0
16126,-50,4,2,2,65,0,0
16465,-50,4,2,2,65,0,0
16804,-66.6666666666667,4,2,2,65,0,0
17482,-50,4,2,2,65,0,0
17821,-50,4,2,2,65,0,0
19177,-66.6666666666667,4,2,2,65,0,0
20871,-66.6666666666667,4,2,2,65,0,0
22227,-50,4,2,2,65,0,0
23582,-50,4,2,3,65,0,0
23583,-100,4,2,3,65,0,0
35786,-100,4,2,2,25,0,0
35787,-100,4,2,2,25,0,0
46633,-100,4,2,2,45,0,0
46634,-100,4,2,2,45,0,0
57142,-100,4,2,3,60,0,0
57482,-100,4,2,3,60,0,0
67651,-300.0003000003,4,2,3,60,0,0
67990,-100,4,2,3,60,0,0
68328,-100,4,2,3,65,0,0
68329,-66.6666666666667,4,2,3,65,0,1
71041,-66.6666666666667,4,2,3,65,0,1
77143,-50,4,2,3,65,0,1
77651,-66.6666666666667,4,2,3,65,0,1
77821,-50,4,2,3,65,0,1
79177,-66.6666666666667,4,2,3,65,0,1
87312,-66.6666666666667,4,2,3,65,0,0
88668,-66.6666666666667,4,2,3,65,0,0
90023,-66.6666666666667,4,2,3,60,0,0

[Colours]
Combo1 : 225,136,111
Combo2 : 145,156,240
Combo3 : 239,186,107
Combo4 : 117,126,128

[HitObjects]
133,149,1888,5,6,0:0:0:0:
133,149,2566,1,0,0:0:0:0:
133,149,3244,1,0,0:0:0:0:
133,149,3922,1,0,0:0:0:0:
394,52,4600,5,0,0:0:0:0:
394,52,5278,1,0,0:0:0:0:
394,52,5956,1,0,0:0:0:0:
394,52,6634,1,0,0:0:0:0:
269,267,7312,5,4,3:0:0:0:
269,267,7990,1,0,0:0:0:0:
269,267,8668,1,0,0:0:0:0:
269,267,9346,1,0,0:0:0:0:
269,267,10024,1,0,0:0:0:0:
269,267,10702,1,0,0:0:0:0:
512,336,11380,6,0,B|434:284|341:302|341:302|311:356|233:349,1,264,0|0,0:0|0:0,0:0:0:0:
384,367,11973,1,0,0:0:0:0:
384,367,12058,2,0,P|423:370|447:377,1,44,8|0,0:0|0:0,0:0:0:0:
271,276,12227,2,0,P|232:279|208:286,1,44,8|8,0:0|0:0,0:0:0:0:
56,290,12397,6,0,B|12:359|12:359|109:390,1,165,8|0,0:0|0:0,0:0:0:0:
143,309,12736,1,2,0:0:0:0:
136,203,13244,6,0,P|92:167|58:160,1,65.9999979858399,0|0,0:0|2:0,0:0:0:0:
84,164,13414,6,0,P|149:222|179:69,1,330.000012588501,14|0,0:0|0:0,0:0:0:0:
161,144,13922,1,8,3:0:0:0:
296,218,14092,6,0,P|357:196|417:229,1,110,14|0,0:0|0:0,0:0:0:0:
410,234,14346,1,4,3:0:0:0:
410,234,14431,1,0,0:0:0:0:
466,128,14600,2,0,L|452:216,1,55,8|8,3:0|3:0,0:0:0:0:
481,321,14770,6,0,B|401:299|346:359|346:359|360:166|119:181,1,395.999987915039,6|0,0:0|0:0,0:0:0:0:
216,319,15278,1,4,3:0:0:0:
126,202,15448,6,0,P|65:138|5:171,1,165.000006294251,6|8,0:0|3:0,0:0:0:0:
5,213,15702,1,0,0:0:0:0:
5,213,15787,1,0,3:0:0:0:
160,104,15956,2,0,P|122:80|79:71,1,82.5000031471254,8|0,3:0|0:0,0:0:0:0:
181,208,16126,6,0,B|250:169|336:199|336:199|344:83|260:19|260:19|226:121,1,440,6|0,0:0|0:0,0:0:0:0:
405,39,16634,1,8,3:0:0:0:
489,297,16804,6,0,P|393:263|316:278,1,165.000006294251,14|0,0:0|0:3,0:0:0:0:
304,291,17058,1,4,3:0:0:0:
304,291,17143,1,0,0:0:0:0:
444,356,17312,2,0,P|399:339|332:352,1,82.5000031471254,8|0,3:0|0:0,0:0:0:0:
203,369,17482,6,0,B|97:372|57:250|124:188|182:176|182:176|194:89|99:74,1,440,14|0,0:0|0:0,0:0:0:0:
198,272,17990,1,4,3:0:0:0:
198,272,18160,1,4,0:0:0:0:
481,13,18668,6,0,P|507:71|483:148,1,110,8|8,3:0|3:0,0:0:0:0:
410,80,18838,1,12,0:0:0:0:
164,68,19177,6,0,P|152:98|169:171,1,82.5000031471254,8|8,0:0|0:0,0:0:0:0:
312,158,19346,2,0,P|324:128|307:55,1,82.5000031471254,8|8,0:0|0:0,0:0:0:0:
238,113,19516,1,6,3:0:0:0:
304,336,19685,5,0,0:0:0:0:
304,336,19770,1,0,0:0:0:0:
304,336,19855,1,4,3:0:0:0:
129,244,20024,2,0,P|87:249|42:273,1,82.5000031471254,10|0,3:0|0:0,0:0:0:0:
378,269,20194,5,4,0:0:0:0:
129,244,20363,2,0,P|89:248|51:264,1,82.5000031471254,0|0,0:0|0:0,0:0:0:0:
354,187,20533,6,0,P|316:202|276:208,1,82.5000031471254,4|0,3:0|0:0,0:0:0:0:
130,244,20702,1,8,3:0:0:0:
386,21,20871,6,0,P|464:81|322:67,1,330.000012588501,4|8,3:0|3:0,0:0:0:0:
320,120,21380,1,8,3:0:0:0:
205,25,21549,6,0,B|46:3|4:173|4:173|112:166,1,330.000012588501,4|8,3:0|0:3,0:0:0:0:
53,169,22058,1,4,0:3:0:0:
221,383,22227,6,0,B|324:238|323:42|100:57|144:243,1,440,4|2,0:0|3:0,0:0:0:0:
139,191,22736,1,10,3:0:0:0:
356,89,22905,6,0,P|163:14|29:170,1,440,6|0,3:0|0:0,0:0:0:0:
28,170,23414,1,0,0:0:0:0:
109,278,23583,5,12,3:0:0:0:
178,322,23753,1,2,0:0:0:0:
223,253,23922,1,8,0:0:0:0:
153,208,24092,1,2,0:0:0:0:
95,165,24261,5,8,0:0:0:0:
117,97,24431,1,0,0:0:0:0:
188,97,24600,1,8,0:0:0:0:
210,165,24770,1,2,0:0:0:0:
208,245,24939,5,8,0:0:0:0:
153,208,25108,1,2,0:0:0:0:
149,274,25278,1,8,0:0:0:0:
208,245,25448,1,2,0:0:0:0:
211,316,25617,5,8,0:0:0:0:
304,283,25787,1,2,0:0:0:0:
211,316,25956,1,8,0:0:0:0:
304,283,26126,1,10,3:0:0:0:
116,342,26295,5,4,3:0:0:0:
186,221,26465,1,2,0:0:0:0:
211,316,26634,5,8,0:0:0:0:
116,342,26803,1,2,0:0:0:0:
90,246,26973,1,8,0:0:0:0:
186,221,27142,1,0,0:0:0:0:
263,247,27313,5,0,0:0:0:0:
358,221,27482,1,2,0:0:0:0:
384,317,27652,1,0,0:0:0:0:
288,342,27821,1,0,0:0:0:0:
75,189,27990,5,8,0:0:0:0:
10,284,28160,1,2,0:0:0:0:
81,378,28329,1,8,0:0:0:0:
190,337,28499,1,10,0:0:0:0:
186,221,28668,5,4,0:3:0:0:
72,154,28838,1,10,3:0:0:0:
323,66,29007,5,12,0:0:0:0:
153,122,29177,1,2,0:0:0:0:
265,179,29346,5,8,0:0:0:0:
323,66,29516,1,2,0:0:0:0:
210,9,29685,1,8,0:0:0:0:
153,122,29855,1,2,0:0:0:0:
265,179,30024,5,8,0:0:0:0:
170,228,30194,1,0,0:0:0:0:
120,132,30364,1,0,0:0:0:0:
216,82,30533,1,2,0:0:0:0:
350,28,30702,5,8,0:0:0:0:
442,39,30872,1,2,0:0:0:0:
460,131,31041,1,8,0:0:0:0:
379,177,31211,1,2,0:0:0:0:
310,113,31380,5,8,0:0:0:0:
460,131,31550,1,10,3:0:0:0:
350,28,31720,5,0,0:0:0:0:
379,177,31889,1,2,0:0:0:0:
218,229,32058,5,8,0:0:0:0:
279,314,32228,1,2,0:0:0:0:
379,281,32397,1,8,0:0:0:0:
379,177,32567,1,0,0:0:0:0:
279,144,32736,5,8,0:0:0:0:
129,208,32905,1,2,0:0:0:0:
22,88,33075,5,8,0:0:0:0:
172,24,33244,1,2,0:0:0:0:
129,208,33414,5,8,0:0:0:0:
172,24,33583,1,2,0:0:0:0:
341,84,33753,6,0,P|374:70|410:72,2,73.3333333333333,8|8|8,3:0|3:0|3:0,0:0:0:0:
435,172,34092,2,0,P|483:188|523:177,2,73.3333333333333,8|8|8,3:0|3:0|3:0,0:0:0:0:
256,192,34431,12,0,35787,0:0:0:0:
91,265,46634,6,0,L|79:188,2,55,12|0|0,3:0|0:0|0:0,0:0:0:0:
179,135,46973,2,0,L|187:80,2,55,0|0|0,0:0|0:0|0:0,0:0:0:0:
101,234,47312,6,0,L|89:157,2,55,0|0|0,0:0|0:0|0:0,0:0:0:0:
204,162,47651,2,0,L|212:107,2,55,0|0|0,0:0|0:0|0:0,0:0:0:0:
289,39,47990,6,0,L|343:47,2,55,0|0|0,0:0|0:0|0:0,0:0:0:0:
435,153,48329,2,0,L|380:161,2,55,0|0|0,0:0|0:0|0:0,0:0:0:0:
310,67,48668,6,0,L|364:75,2,55,0|0|0,0:0|0:0|0:0,0:0:0:0:
456,181,49007,2,0,L|401:189,2,55,0|0|0,0:0|0:0|0:0,0:0:0:0:
400,341,49346,6,0,L|389:273,2,55,0|0|0,0:0|0:0|0:0,0:0:0:0:
284,264,49685,2,0,L|295:196,2,55,0|0|0,0:0|0:0|0:0,0:0:0:0:
165,369,50024,2,0,L|154:301,2,55,0|0|0,0:0|0:0|0:0,0:0:0:0:
58,245,50363,2,0,L|69:177,2,55,0|0|0,0:0|0:0|0:0,0:0:0:0:
400,341,50702,6,0,L|389:273,1,55,0|0,0:0|0:0,0:0:0:0:
292,209,50871,2,0,L|284:264,1,55,0|0,0:0|0:0,0:0:0:0:
165,369,51041,2,0,L|154:301,1,55,0|0,0:0|0:0,0:0:0:0:
66,190,51210,2,0,L|58:245,1,55,0|0,0:0|0:0,0:0:0:0:
173,114,51380,6,0,L|241:125,2,55,0|0|0,0:0|0:0|0:0,0:0:0:0:
58,28,51719,2,0,L|-10:39,2,55,0|0|0,0:0|0:0|0:0,0:0:0:0:
312,80,52058,6,0,L|307:25,2,55,12|0|0,3:0|0:0|0:0,0:0:0:0:
440,145,52397,2,0,L|445:90,2,55,0|0|0,0:0|0:0|0:0,0:0:0:0:
334,63,52736,6,0,L|343:154,2,55,0|0|0,0:0|0:0|0:0,0:0:0:0:
467,182,53075,2,0,L|472:127,2,55,0|0|0,0:0|0:0|0:0,0:0:0:0:
495,350,53414,6,0,L|489:295,2,55,0|0|0,0:0|0:0|0:0,0:0:0:0:
364,199,53753,2,0,L|358:253,2,55,0|0|0,0:0|0:0|0:0,0:0:0:0:
512,322,54092,6,0,L|506:267,2,55,2|0|0,0:0|0:0|0:0,0:0:0:0:
381,171,54431,2,0,L|375:225,2,55,0|0|0,0:0|0:0|0:0,0:0:0:0:
295,380,54770,6,0,L|351:376,2,55,0|0|0,0:0|0:0|0:0,0:0:0:0:
204,280,55109,2,0,L|148:276,2,55,0|0|0,2:0|0:0|0:0,0:0:0:0:
352,127,55448,2,0,L|408:123,2,55,0|0|0,0:0|0:0|0:0,0:0:0:0:
179,4,55787,2,0,L|123:0,2,55,0|0|0,0:0|0:0|0:0,0:0:0:0:
256,192,56126,5,0,0:0:0:0:
256,192,56804,5,10,0:0:0:0:
256,192,57143,6,0,B|302:201|302:201|354:152|416:162,1,165,14|0,3:0|0:0,0:0:0:0:
449,220,57482,6,0,P|454:281|440:345,1,110,14|0,0:0|0:0,0:0:0:0:
263,368,57821,1,10,0:0:0:0:
370,240,57990,1,2,0:0:0:0:
450,352,58160,6,0,B|388:329|327:337|327:337|341:385,1,165,10|0,0:0|0:0,0:0:0:0:
467,371,58499,2,0,P|467:310|492:243,1,110,10|2,0:0|0:0,0:0:0:0:
500,277,58753,1,0,0:0:0:0:
500,277,58838,2,0,P|470:282|377:264,1,110,10|0,0:0|0:0,0:0:0:0:
168,290,59177,6,0,B|212:275|241:300|241:300|223:326|186:316,1,110,10|2,0:0|0:0,0:0:0:0:
160,359,59431,1,0,0:0:0:0:
160,359,59516,2,0,P|152:304|154:249,1,110,12|0,3:0|0:0,0:0:0:0:
72,159,59855,6,0,P|25:141|32:91,1,110,6|0,3:0|0:0,0:0:0:0:
144,41,60109,1,0,0:0:0:0:
144,41,60194,2,0,P|172:95|172:167,1,110,6|0,0:3|0:0,0:0:0:0:
204,243,60533,2,0,P|267:288|219:371,1,165,10|0,0:0|0:0,0:0:0:0:
183,384,60871,5,10,0:0:0:0:
129,188,61041,1,2,0:0:0:0:
62,339,61210,1,10,0:0:0:0:
268,283,61380,1,2,0:0:0:0:
0,215,61549,6,0,B|27:245|27:245|89:249|134:234,1,110,8|2,0:0|0:0,0:0:0:0:
168,140,61888,2,0,B|175:133|237:137|237:137|264:167,1,110,8|2,0:0|0:0,0:0:0:0:
298,229,62143,1,0,0:0:0:0:
298,229,62227,1,8,0:0:0:0:
481,174,62397,1,0,0:0:0:0:
478,361,62566,6,0,L|468:306,1,55,4|0,3:0|0:0,0:0:0:0:
392,190,62736,2,0,L|377:275,1,55,0|0,0:0|0:0,0:0:0:0:
318,354,62905,5,12,0:0:0:0:
318,354,63244,5,0,0:0:0:0:
296,232,63414,1,4,0:3:0:0:
296,232,63752,5,8,0:0:0:0:
309,99,63922,2,0,P|129:8|20:188,1,440,14|0,0:0|0:0,0:0:0:0:
170,160,64770,1,8,0:0:0:0:
238,192,64939,6,0,P|114:109|150:232,1,330,4|0,0:0|0:0,0:0:0:0:
11,295,65617,6,0,B|219:382|191:203|393:297,1,385,4|0,3:0|0:0,0:0:0:0:
299,200,66295,6,0,P|241:200|173:235,1,110,8|2,0:0|0:0,0:0:0:0:
375,355,66634,2,0,P|323:364|243:350,1,110,4|0,3:0|0:0,0:0:0:0:
150,115,66973,5,12,3:0:0:0:
150,115,67651,6,0,L|157:183,1,54.9999440511637,0|0,0:0|0:0,0:0:0:0:
251,364,67990,6,0,L|256:309,1,55,0|0,0:0|0:0,0:0:0:0:
412,163,68160,2,0,L|417:217,1,55,0|0,0:0|0:0,0:0:0:0:
512,259,68329,6,0,B|466:223|416:217|416:217|225:241,1,247.500009441376,6|0,0:3|0:0,0:0:0:0:
48,359,68668,6,0,P|107:363|150:340,1,82.5000031471254,8|0,0:3|0:0,0:0:0:0:
109,165,68838,2,0,P|179:299|45:358,1,330.000012588501,14|0,0:0|0:0,0:0:0:0:
4,185,69346,6,0,P|62:160|115:168,1,82.5000031471254,4|0,0:3|0:0,0:0:0:0:
200,48,69516,2,0,P|156:194|4:185,1,330.000012588501,14|0,0:0|0:0,0:0:0:0:
34,29,70024,6,0,B|-9:36|-9:36|15:72,1,82.5000031471254,4|0,0:3|0:0,0:0:0:0:
115,88,70194,1,14,0:0:0:0:
285,77,70363,6,0,P|297:52|268:68,1,82.5000031471254,6|0,0:3|0:0,0:0:0:0:
137,106,70533,1,0,0:0:0:0:
377,85,70702,6,0,P|379:29|358:-4,1,82.5000031471254,4|0,0:3|0:0,0:0:0:0:
494,189,70871,2,0,B|430:235|351:181|351:181|256:222|171:188,1,330.000012588501,14|2,0:0|0:0,0:0:0:0:
258,281,71380,6,0,P|266:340|290:384,1,82.5000031471254,4|0,0:3|0:0,0:0:0:0:
432,357,71549,2,0,P|396:226|350:342,1,330.000012588501,6|0,0:0|0:0,0:0:0:0:
432,357,72058,6,0,P|466:321|471:285,1,82.5000031471254,4|0,0:3|0:0,0:0:0:0:
427,147,72227,2,0,P|317:166|296:398,1,330.000012588501,14|2,0:0|0:3,0:0:0:0:
232,35,72736,6,0,B|271:37|271:37|247:72,1,82.5000031471254,6|0,0:3|0:0,0:0:0:0:
178,187,72905,1,12,0:0:0:0:
151,36,73075,6,0,P|128:47|162:57,1,82.5000031471254,6|0,0:3|0:0,0:0:0:0:
169,207,73244,1,0,0:0:0:0:
0,170,73414,6,0,L|12:251,1,82.5000031471254,6|0,0:3|0:0,0:0:0:0:
58,384,73583,2,0,B|21:140|21:140|95:212,1,330.000012588501,12|0,0:0|0:0,0:0:0:0:
256,261,74092,6,0,P|335:220|377:246,1,82.5000031471254,4|0,0:3|0:0,0:0:0:0:
384,321,74261,2,0,B|423:219|430:90|273:96|266:188|335:229,1,330.000012588501,12|0,0:0|0:0,0:0:0:0:
466,75,74770,6,0,P|496:123|510:166,1,82.5000031471254,4|0,0:3|0:0,0:0:0:0:
467,339,74939,2,0,P|491:202|384:36,1,330.000012588501,12|0,0:0|0:0,0:0:0:0:
285,49,75448,6,0,P|262:66|286:54,1,82.5000031471254,6|0,0:3|0:0,0:0:0:0:
239,173,75617,2,0,P|357:152|408:44,1,247.500009441376,14|0,0:0|0:0,0:0:0:0:
136,62,75956,2,0,P|145:101|168:135,1,82.5000031471254,0|2,0:0|0:3,0:0:0:0:
383,39,76126,6,0,P|374:78|347:109,1,82.5000031471254,0|0,0:0|0:0,0:0:0:0:
204,119,76295,2,0,P|178:89|168:49,1,82.5000031471254,12|0,0:0|0:0,0:0:0:0:
333,35,76465,6,0,P|264:114|216:21,1,247.500009441376,12|0,3:0|0:0,0:0:0:0:
272,51,76804,1,4,0:3:0:0:
135,104,76973,2,0,P|155:142|185:167,1,82.5000031471254,12|0,0:0|0:0,0:0:0:0:
394,178,77143,6,0,P|242:225|103:97,1,330,4|0,0:3|0:0,0:0:0:0:
273,51,77482,1,4,0:3:0:0:
410,205,77651,2,0,P|372:232|316:251,1,82.5000031471254,12|0,0:0|0:0,0:0:0:0:
52,181,77821,6,0,B|-2:207|-2:207|59:249,1,110,8|0,0:0|0:0,0:0:0:0:
190,234,77990,1,8,0:0:0:0:
133,347,78160,6,0,B|79:321|79:321|140:279,1,110,8|0,0:0|0:0,0:0:0:0:
190,234,78329,1,12,0:0:0:0:
244,384,78499,6,0,P|287:302|343:264,1,110,12|8,0:3|0:0,0:0:0:0:
384,273,78668,1,0,0:0:0:0:
454,336,78753,1,0,0:0:0:0:
392,384,78838,6,0,P|417:262|472:240,1,110,0|0,0:0|0:0,0:0:0:0:
450,236,79007,1,12,0:0:0:0:
428,175,79092,1,0,0:0:0:0:
364,173,79177,6,0,P|315:163|92:176,1,247.500009441376,14|0,0:0|0:0,0:0:0:0:
245,224,79516,6,0,P|196:240|133:205,1,82.5000031471254,6|0,0:3|0:0,0:0:0:0:
225,83,79685,2,0,P|122:135|263:208,1,330.000012588501,12|0,0:0|0:0,0:0:0:0:
295,55,80194,6,0,P|268:24|219:13,1,82.5000031471254,4|0,0:3|0:0,0:0:0:0:
4,160,80363,2,0,B|103:126|103:126|196:161|196:161|346:119,1,330.000012588501,12|0,0:0|0:0,0:0:0:0:
427,271,80871,6,0,P|449:297|419:279,1,82.5000031471254,6|0,0:3|0:0,0:0:0:0:
243,233,81041,1,14,0:0:0:0:
419,154,81210,6,0,B|456:170|456:170|397:173,1,82.5000031471254,0|0,0:0|0:0,0:0:0:0:
198,81,81380,1,0,0:0:0:0:
348,7,81549,6,0,P|406:26|445:65,1,82.5000031471254,6|0,0:3|0:0,0:0:0:0:
512,193,81719,2,0,B|424:157|355:126|355:126|273:133|170:174,1,330.000012588501,12|2,0:0|0:3,0:0:0:0:
341,42,82227,6,0,P|399:61|438:100,1,82.5000031471254,4|0,0:3|0:0,0:0:0:0:
505,228,82397,2,0,B|417:192|348:161|348:161|266:168|163:209,1,330.000012588501,12|2,0:0|0:3,0:0:0:0:
236,291,82905,6,0,P|228:350|204:394,1,82.5000031471254,4|0,0:3|0:0,0:0:0:0:
62,367,83075,2,0,P|98:236|144:352,1,330.000012588501,12|2,0:0|0:3,0:0:0:0:
62,367,83583,6,0,P|28:331|23:295,1,82.5000031471254,4|0,0:3|0:0,0:0:0:0:
90,146,83753,2,0,P|149:156|244:380,1,330.000012588501,12|0,0:0|0:0,0:0:0:0:
305,108,84261,6,0,B|302:155|302:155|265:129,1,82.5000031471254,0|0,0:0|0:0,0:0:0:0:
75,68,84431,2,0,P|271:89|292:-8,1,330.000012588501,12|0,0:0|0:0,0:0:0:0:
467,27,84939,6,0,B|439:-5|439:-5|391:14,1,82.5000031471254,12|0,0:3|0:0,0:0:0:0:
484,295,85109,2,0,P|347:201|494:89,1,330.000012588501,12|0,0:0|0:0,0:0:0:0:
512,184,85617,6,0,L|394:195,1,82.5000031471254,4|0,0:3|0:0,0:0:0:0:
115,196,85787,2,0,B|278:118|300:284|444:182,1,330.000012588501,12|2,0:0|0:3,0:0:0:0:
198,263,86295,2,0,P|190:303|199:355,1,82.5000031471254,4|0,0:3|0:0,0:0:0:0:
429,347,86465,6,0,P|437:258|281:316,1,330.000012588501,12|2,0:0|0:3,0:0:0:0:
429,347,86973,6,0,P|447:298|434:249,1,82.5000031471254,6|0,0:3|0:0,0:0:0:0:
246,94,87143,2,0,P|194:102|158:138,1,82.5000031471254,14|0,0:0|0:0,0:0:0:0:
174,374,87312,5,4,0:3:0:0:
68,248,88668,5,4,0:3:0:0:
187,184,88838,1,4,0:3:0:0:
299,263,89007,1,4,0:3:0:0:
418,203,89177,1,4,0:3:0:0:
68,248,89346,5,4,0:3:0:0:
299,263,89516,1,4,0:3:0:0:
187,184,89685,5,4,0:3:0:0:
418,203,89855,1,0,0:0:0:0:
483,327,90024,6,0,P|380:284|341:325,1,165.000006294251,4|0,0:0|0:0,0:0:0:0:
349,309,90363,2,0,P|452:352|491:311,1,165.000006294251,8|0,0:0|0:0,0:0:0:0:
320,202,90702,6,0,P|217:245|178:204,1,165.000006294251,8|0,0:0|0:0,0:0:0:0:
186,220,91041,2,0,P|289:177|328:218,1,165.000006294251,10|0,0:0|0:0,0:0:0:0:
68,224,91380,6,0,B|26:299|26:299|82:367,1,165.000006294251,8|0,0:0|0:0,0:0:0:0:
181,354,91719,2,0,B|223:279|223:279|167:211,1,165.000006294251,8|0,0:0|0:0,0:0:0:0:
180,1,92058,6,0,B|112:53|112:53|137:138,1,165.000006294251,8|0,0:0|0:0,0:0:0:0:
233,164,92397,2,0,B|300:111|300:111|275:26,1,165.000006294251,10|0,0:0|0:0,0:0:0:0:
512,222,92736,6,0,L|285:212,1,165.000006294251,8|0,0:0|0:0,0:0:0:0:
89,302,93075,2,0,L|316:292,1,165.000006294251,8|0,0:0|0:0,0:0:0:0:
512,384,93414,6,0,L|285:374,1,165.000006294251,8|0,0:0|0:0,0:0:0:0:
2,203,93753,2,0,L|229:213,1,165.000006294251,8|2,0:0|0:0,0:0:0:0:
362,98,94092,5,4,0:3:0:0:
338,351,94261,1,4,0:3:0:0:
362,98,94431,5,4,0:3:0:0:
338,351,94600,1,4,0:3:0:0:
148,98,94770,5,14,0:3:0:0:
155,179,94855,1,0,0:0:0:0:
164,264,94939,1,10,0:0:0:0:
174,351,95024,1,0,0:0:0:0:
227,301,95109,6,0,L|280:295,7,41.2500015735627,10|0|0|0|8|0|8|0,0:0|0:0|0:0|0:0|0:0|0:0|0:0|0:0,0:0:0:0:
