osu file format v14

[General]
AudioFilename: egoist.mp3
AudioLeadIn: 0
PreviewTime: 69183
Countdown: 0
SampleSet: Soft
StackLeniency: 0.3
Mode: 0
LetterboxInBreaks: 0
StoryFireInFront: 0
WidescreenStoryboard: 0

[Editor]
Bookmarks: 1386,13589,24436,36640,47487,58335,69182,80030,90877
DistanceSpacing: 0.6
BeatDivisor: 16
GridSize: 4
TimelineZoom: 3.599999

[Metadata]
Title:Eiyuu Unmei no Uta (TV Edit)
TitleUnicode:英雄 運命の詩 (TV Edit)
Artist:EGOIST
ArtistUnicode:EGOIST
Creator:handsome
Version:winber1's Extreme
Source:Fate/Apocrypha
Tags:フェイト/アポクリファ feito apokurifa chelly supercell ryo regou sing neilperry cheesecake yf_bmp irreversible emilia winber1 meg image-- slayed anime tv size version opening short
BeatmapID:1417513
BeatmapSetID:637050

[Difficulty]
HPDrainRate:4
CircleSize:3.7
OverallDifficulty:8.9
ApproachRate:9.6
SliderMultiplier:1.4
SliderTickRate:1

[Events]
//Background and Video events
0,0,"egoist.jpg",0,0
//Break Periods
//Storyboard Layer 0 (Background)
//Storyboard Layer 1 (Fail)
//Storyboard Layer 2 (Pass)
//Storyboard Layer 3 (Foreground)
//Storyboard Sound Samples

[TimingPoints]
1386,338.9830508475,4,2,1,5,1,0
2741,-250,4,2,1,15,0,0
8165,-125,4,2,1,30,0,0
8843,-250,4,2,1,15,0,0
11555,-166.6666666667,4,2,1,30,0,0
12572,-100,4,2,1,20,0,0
12911,-50,4,2,1,30,0,0
13419,-33.33333333333,4,2,1,80,0,0
13589,-1000,4,2,1,30,0,0
14097,-50,4,2,1,60,0,0
14267,-28.57142857143,4,2,1,65,0,1
14606,-40,4,2,1,65,0,1
14945,-200,4,2,1,65,0,1
15453,-50,4,2,1,65,0,1
15623,-25,4,2,1,65,0,1
16131,-40,4,2,1,65,0,1
16301,-28.57142857143,4,2,1,65,0,1
16809,-40,4,2,1,65,0,1
16979,-25,4,2,1,65,0,1
17318,-40,4,2,1,65,0,1
17657,-200,4,2,1,65,0,1
18165,-50,4,2,1,65,0,1
18335,-25,4,2,1,65,0,1
18589,-200,4,2,1,65,0,1
18674,-33.33333333333,4,2,1,65,0,1
19013,-200,4,2,1,30,0,0
19691,-25,4,2,1,65,0,1
20030,-50,4,2,1,65,0,1
20369,-200,4,2,1,65,0,1
20877,-33.33333333333,4,2,1,65,0,1
21047,-28.57142857143,4,2,1,65,0,1
21386,-25,4,2,1,65,0,1
21724,-33.33333333333,4,2,1,65,0,1
22402,-28.57142857143,4,2,1,65,0,1
22741,-40,4,2,1,65,0,1
23250,-28.57142857143,4,2,1,65,0,1
23589,-40,4,2,1,65,0,1
23761,-50,4,3,0,30,0,1
24436,-50,4,2,1,80,0,0
24521,-50,4,2,1,30,0,0
33928,-33.33333333333,4,2,1,45,0,0
34606,-50,4,2,1,45,0,0
36640,-100,4,2,1,20,0,0
46809,-28.57142857143,4,2,1,20,0,0
47487,-76.92307692308,4,2,1,40,0,0
52911,-66.66666666667,4,2,1,40,0,0
53419,-76.92307692308,4,2,1,40,0,0
59013,-33.33333333333,4,2,1,60,0,0
59352,-50,4,2,1,60,0,0
59691,-28.57142857143,4,2,1,30,0,0
60030,-100,4,2,1,60,0,0
61047,-33.33333333333,4,2,1,60,0,0
61386,-50,4,2,1,60,0,0
61724,-20,4,2,1,60,0,0
62402,-33.33333333333,4,2,1,60,0,0
64267,-25,4,2,1,60,0,0
64606,-33.33333333333,4,2,1,60,0,0
64775,-100,4,2,1,60,0,0
65284,-50,4,2,1,60,0,0
65792,-100,4,2,1,60,0,0
66809,-66.66666666667,4,2,1,60,0,0
67148,-50,4,2,1,60,0,0
67487,-40,4,2,1,60,0,0
68504,-500,4,2,1,60,0,0
69013,-37.03703703704,4,2,1,80,0,0
69182,-25,4,2,1,100,0,1
69267,-25,4,2,1,60,0,1
77318,-50,4,2,1,60,0,1
78674,-33.33333333333,4,2,1,60,0,1
79013,-25,4,2,1,60,0,1
88165,-133.3333333333,4,2,1,60,0,1
89521,-37.03703703704,4,2,1,60,0,1
90199,-25,4,2,1,70,0,0
91555,-20,4,2,1,80,0,1
91894,-20,4,2,1,70,0,0
92911,-16.66666666667,4,2,1,90,0,1
93250,-13.33333333333,4,2,1,70,0,0
94267,-14.28571428571,4,2,1,100,0,1
94606,-10,4,2,1,80,0,0
94945,-20,4,2,1,80,0,0
96131,-28.57142857143,4,2,1,80,0,0
96301,-28.57142857143,4,2,1,5,0,0

[Colours]
Combo1 : 255,247,89
Combo2 : 68,255,236
Combo3 : 255,183,111
Combo4 : 255,85,85
Combo5 : 205,205,205
Combo6 : 155,155,155

[HitObjects]
256,192,1386,12,0,2402,0:0:0:0:
108,84,2571,53,0,0:0:0:0:
108,84,2741,2,0,P|83:117|88:164,1,84,4|0,1:0|0:0,0:0:0:0:
85,157,3419,2,0,P|126:162|164:134,1,84,2|0,0:0|0:0,0:0:0:0:
160,139,4097,2,0,P|144:101|101:82,1,84
107,82,4775,1,2,0:0:0:0:
404,84,5283,5,0,0:0:0:0:
404,84,5453,2,0,P|429:117|424:164,1,84
427,157,6131,2,0,P|386:162|348:134,1,84,2|0,0:0|0:0,0:0:0:0:
352,139,6809,2,0,P|368:101|411:82,1,84
405,82,7486,1,0,0:0:0:0:
216,180,7996,69,0,0:0:0:0:
216,180,8165,2,0,P|275:226|267:321,1,168,4|0,1:0|0:0,0:0:0:0:
272,312,8843,2,0,P|299:276|334:265,1,84,2|0,0:0|0:0,0:0:0:0:
334,264,9521,2,0,P|288:259|261:234,1,84
261,234,10199,2,0,P|279:275|271:311,1,84,2|0,0:0|0:0,0:0:0:0:
270,311,10877,6,0,P|243:346|204:356,1,83.99999743652
132,292,11556,2,0,P|139:231|143:192,1,83.99999743652
69,147,12063,2,0,P|65:122|61:91,1,41.99999871826
291,38,12572,69,0,0:0:0:0:
278,64,12657,1,0,0:0:0:0:
280,106,12741,1,0,0:0:0:0:
312,145,12826,1,0,0:0:0:0:
394,141,12911,2,0,P|384:102|354:77,3,70
467,195,13250,5,0,0:0:0:0:
388,230,13335,1,0,0:0:0:0:
412,312,13419,38,0,P|353:312|315:278,1,105.0000040054
304,186,13589,6,0,L|307:206,1,21
467,195,14267,70,0,B|368:152|307:236|307:236|247:312|136:272,1,367.5000035048,4|0,1:0|0:0,0:0:0:0:
125,269,14607,2,0,P|120:224|112:176,1,87.5
205,114,14775,1,0,0:0:0:0:
412,312,14945,6,0,L|409:350,1,35,0|0,3:0|0:0,0:0:0:0:
437,115,15199,2,0,L|440:77,1,35,0|0,3:0|0:0,0:0:0:0:
173,330,15453,70,0,L|165:296,1,35,8|0,0:3|0:0,0:0:0:0:
197,317,15538,2,0,L|189:283,1,35
272,270,15623,6,0,B|323:339|412:312|412:312|360:200|360:200|202:110,1,420,4|0,0:0|0:0,0:0:0:0:
106,63,15962,1,0,0:0:0:0:
67,360,16131,70,0,P|64:311|80:275,1,87.5,0|0,3:0|0:0,0:0:0:0:
206,244,16302,2,0,B|236:221|252:174|241:119|241:119|216:174|238:287|339:336|339:336|340:288|373:243,1,490.000004673,0|0,3:0|0:0,0:0:0:0:
454,80,16809,6,0,L|441:122,1,43.75,0|0,3:0|0:0,0:0:0:0:
424,87,16894,2,0,L|411:129,1,43.75
338,95,16979,70,0,B|294:171|323:272|425:292|484:252|484:252|430:217|367:251,1,420,4|0,1:0|0:0,0:0:0:0:
307,327,17318,2,0,P|267:293|248:252,1,87.5
237,119,17487,1,0,0:0:0:0:
83,331,17657,6,0,L|124:324,1,35,0|0,3:0|0:0,0:0:0:0:
369,249,17911,2,0,L|328:242,1,35,0|0,3:0|0:0,0:0:0:0:
51,126,18165,70,0,L|59:79,1,35,0|0,3:0|0:0,0:0:0:0:
82,122,18250,2,0,L|90:75,1,35
143,174,18335,6,0,B|230:184|284:118|284:118|403:145,1,280,0|0,1:0|0:0,0:0:0:0:
475,239,18589,2,0,L|471:200,1,35,0|0,3:0|0:0,0:0:0:0:
253,29,18843,2,0,B|274:53|274:53|283:138,1,105.0000040054,0|0,3:0|0:0,0:0:0:0:
266,322,19013,38,0,P|318:322|358:354,1,105.0000040054,4|0,0:0|3:0,0:0:0:0:
160,342,19606,1,0,3:0:0:0:
123,360,19691,2,0,B|86:319|31:334|31:334|56:246|156:270|156:270|240:295|302:233,1,420,0|0,1:0|0:0,0:0:0:0:
381,166,20030,38,0,P|373:130|367:89,1,70,2|0,0:0|0:0,0:0:0:0:
195,111,20199,2,0,P|203:147|209:188,1,70,2|0,0:0|0:0,0:0:0:0:
410,173,20369,70,0,L|401:127,1,35,0|0,3:0|0:0,0:0:0:0:
165,102,20623,2,0,L|174:148,1,35,0|0,3:0|0:0,0:0:0:0:
493,24,20877,2,0,P|500:83|475:128,1,105.0000040054,0|0,3:0|0:0,0:0:0:0:
434,357,21047,6,0,P|427:297|418:232,1,122.5000011683,0|0,1:0|0:0,0:0:0:0:
402,114,21216,2,0,L|410:175|418:236,1,122.5000011683,2|0,0:0|0:0,0:0:0:0:
105,302,21386,70,0,L|121:158,1,140
135,22,21555,2,0,L|120:162,1,140,0|0,3:0|0:0,0:0:0:0:
205,354,21724,6,0,B|293:307|268:170|222:141|222:141|230:171|215:217,1,315.0000120163,0|0,3:0|0:0,0:0:0:0:
105,302,22063,1,2,0:0:0:0:
418,236,22233,1,0,0:0:0:0:
51,49,22402,70,0,P|112:55|156:97,1,122.5000011683,0|0,1:0|0:0,0:0:0:0:
483,84,22572,2,0,P|422:90|378:132,1,122.5000011683
79,130,22741,6,0,P|82:175|84:226,1,87.5
457,167,22911,2,0,P|454:211|452:262,1,87.5,0|0,3:0|0:0,0:0:0:0:
105,302,23080,69,0,0:0:0:0:
384,352,23250,2,0,B|353:335|353:335|253:340|253:340|203:292|203:292|250:244|250:244|354:238,1,367.5000035048,0|0,3:0|0:0,0:0:0:0:
345,238,23589,2,0,B|337:206|337:206|350:141,1,87.5
236,28,23758,53,2,3:0:0:0:
228,62,23843,1,2,3:0:0:0:
189,107,23928,1,2,3:0:0:0:
105,122,24013,1,2,3:0:0:0:
36,67,24097,5,2,3:0:0:0:
49,69,24182,1,2,3:0:0:0:
62,71,24267,1,2,3:0:0:0:
75,73,24352,1,2,3:0:0:0:
114,261,24436,21,0,3:0:0:0:
145,18,24605,1,0,0:0:0:0:
201,251,24775,69,0,3:0:0:0:
166,42,24944,1,0,0:0:0:0:
281,211,25114,5,0,3:0:0:0:
198,52,25283,1,0,0:0:0:0:
330,137,25453,69,0,3:0:0:0:
230,51,25622,1,0,0:0:0:0:
330,137,25792,5,0,3:0:0:0:
344,34,25961,1,0,0:0:0:0:
366,149,26131,69,0,3:0:0:0:
416,82,26301,1,0,0:0:0:0:
394,172,26470,5,0,3:0:0:0:
446,144,26640,1,0,0:0:0:0:
500,216,26809,69,0,3:0:0:0:
220,320,26979,1,0,0:0:0:0:
24,92,27148,5,0,3:0:0:0:
394,172,27318,1,0,0:0:0:0:
108,260,27487,69,0,3:0:0:0:
394,172,27657,1,0,0:0:0:0:
192,128,27826,5,0,3:0:0:0:
394,172,27996,1,0,0:0:0:0:
272,204,28165,69,0,3:0:0:0:
312,36,28335,1,0,0:0:0:0:
428,320,28505,5,0,3:0:0:0:
108,260,28674,1,0,0:0:0:0:
448,172,28844,69,0,3:0:0:0:
88,128,29013,1,0,0:0:0:0:
472,36,29182,5,0,3:0:0:0:
240,332,29352,1,0,0:0:0:0:
68,0,29521,1,0,3:0:0:0:
448,172,29691,1,0,0:0:0:0:
84,376,29860,69,0,3:0:0:0:
232,56,30030,1,0,0:0:0:0:
316,292,30199,1,0,3:0:0:0:
0,140,30369,1,0,0:0:0:0:
232,56,30538,5,0,3:0:0:0:
198,226,30708,1,0,0:0:0:0:
366,260,30877,1,0,3:0:0:0:
400,85,31047,1,0,0:0:0:0:
366,260,31216,69,0,3:0:0:0:
336,144,31386,1,0,0:0:0:0:
462,112,31555,1,0,3:0:0:0:
492,228,31725,1,0,0:0:0:0:
113,203,31894,5,0,3:0:0:0:
92,284,32064,1,0,0:0:0:0:
177,307,32233,1,0,3:0:0:0:
198,226,32403,1,0,0:0:0:0:
448,344,32572,69,0,3:0:0:0:
400,44,32741,1,0,0:0:0:0:
316,344,32911,5,0,3:0:0:0:
313,99,33080,1,0,0:0:0:0:
177,307,33250,69,0,3:0:0:0:
218,103,33419,1,0,0:0:0:0:
60,240,33589,5,0,3:0:0:0:
128,72,33758,1,0,0:0:0:0:
472,220,33929,70,0,P|382:237|270:194,1,210.0000080109,0|0,3:0|0:0,0:0:0:0:
112,168,34182,1,0,3:0:0:0:
100,156,34267,2,0,P|190:139|302:182,1,210.0000080109,0|0,3:0|0:0,0:0:0:0:
376,320,34521,1,0,3:0:0:0:
388,336,34606,5,0,3:0:0:0:
416,136,34719,1,0,3:0:0:0:
416,136,34832,1,0,3:0:0:0:
338,248,34945,69,0,3:0:0:0:
310,48,35058,1,0,3:0:0:0:
310,48,35171,1,0,3:0:0:0:
310,48,36640,22,0,L|300:124,2,70,2|0|0,0:0|0:0|0:0,0:0:0:0:
228,56,37318,2,0,L|218:132,2,70,2|0|0,0:0|0:0|0:0,0:0:0:0:
152,248,37996,6,0,L|142:172,2,70,2|0|0,0:0|0:0|0:0,0:0:0:0:
70,240,38674,2,0,L|60:164,2,70,2|0|0,0:0|0:0|0:0,0:0:0:0:
236,352,39352,70,0,L|246:276,2,70,2|0|0,0:0|0:0|0:0,0:0:0:0:
318,344,40030,2,0,L|328:268,2,70,2|0|0,0:0|0:0|0:0,0:0:0:0:
340,140,40708,5,2,0:0:0:0:
391,68,40876,1,0,0:0:0:0:
474,95,41046,1,0,0:0:0:0:
475,183,41215,1,0,0:0:0:0:
392,210,41385,1,0,0:0:0:0:
340,140,41894,69,0,0:0:0:0:
340,140,41979,1,0,0:0:0:0:
340,140,42063,2,0,L|352:60,2,70,2|0|0,0:0|0:0|0:0,0:0:0:0:
260,116,42741,2,0,L|272:36,2,70,2|0|0,0:0|0:0|0:0,0:0:0:0:
168,192,43419,6,0,L|180:272,2,70,2|0|0,0:0|0:0|0:0,0:0:0:0:
88,216,44097,2,0,L|100:296,2,70,2|0|0,0:0|0:0|0:0,0:0:0:0:
36,56,44775,70,0,P|132:44|212:120,1,210,2|0,0:0|0:0,0:0:0:0:
292,176,45453,2,0,P|352:172|404:112,1,140,2|0,0:0|0:0,0:0:0:0:
104,156,46131,6,0,P|112:256|196:324,1,210,2|0,0:0|0:0,0:0:0:0:
297,307,46724,1,0,0:0:0:0:
277,324,46809,1,0,0:0:0:0:
277,324,47487,38,0,P|335:274|437:280,1,181.9999916687,0|0,1:0|0:0,0:0:0:0:
218,216,47996,1,0,0:0:0:0:
218,216,48165,2,0,P|221:172|193:129,1,90.99999583435,2|0,0:0|0:0,0:0:0:0:
324,166,48504,2,0,P|359:182|417:177,1,90.99999583435
463,43,48843,6,0,P|378:52|274:64,1,181.9999916687
98,26,49352,1,0,0:0:0:0:
98,26,49436,1,0,0:0:0:0:
98,26,49521,2,0,P|95:73|93:126,2,90.99999583435,2|0|0,0:0|0:0|0:0,0:0:0:0:
171,233,50030,69,0,0:0:0:0:
171,233,50199,2,0,P|267:224|331:146,1,181.9999916687
366,35,50708,2,0,P|270:44|206:122,1,181.9999916687,2|0,0:0|0:0,0:0:0:0:
476,187,51216,2,0,P|463:140|450:83,1,90.99999583435
426,287,51555,5,2,0:0:0:0:
292,332,51723,1,0,0:0:0:0:
374,217,51893,1,0,0:0:0:0:
375,359,52062,1,0,0:0:0:0:
291,244,52232,1,0,0:0:0:0:
426,287,52741,69,0,0:0:0:0:
426,287,52911,2,0,L|192:308,1,210.0000080109,0|0,1:0|0:0,0:0:0:0:
118,360,53419,1,0,0:0:0:0:
56,273,53589,2,0,P|60:229|62:183,1,90.99999583435,2|0,0:0|0:0,0:0:0:0:
359,35,54097,5,0,0:0:0:0:
359,35,54267,2,0,P|351:122|343:223,1,181.9999916687
343,216,54775,1,0,0:0:0:0:
264,164,54945,2,0,P|271:118|275:73,1,90.99999583435,2|0,0:0|0:0,0:0:0:0:
409,243,55623,70,0,P|367:307|263:327,1,181.9999916687,2|0,0:0|0:0,0:0:0:0:
264,164,56131,2,0,P|340:168|409:248,1,181.9999916687,2|0,0:0|0:0,0:0:0:0:
268,328,56640,2,0,P|233:259|268:159,2,181.9999916687,0|2|0,0:3|0:0|0:3,0:3:0:0:
344,241,57487,21,0,0:0:0:0:
363,272,57572,1,0,0:0:0:0:
394,290,57657,1,0,0:0:0:0:
429,294,57741,1,0,0:0:0:0:
463,281,57826,1,0,0:0:0:0:
489,255,57911,1,0,0:0:0:0:
418,212,57996,69,0,3:0:0:0:
418,212,58080,2,0,L|410:148,2,45.49999791718,0|0|0,3:0|0:0|0:0,0:0:0:0:
464,96,58335,69,0,3:0:0:0:
192,36,58504,1,0,0:0:0:0:
464,96,58674,1,0,3:0:0:0:
192,36,58843,1,0,0:0:0:0:
60,80,59013,6,0,P|96:116|104:176,1,105.0000040054,0|0,3:0|0:0,0:0:0:0:
195,237,59182,2,0,P|187:293|139:333,1,105.0000040054
48,368,59352,1,0,3:0:0:0:
48,368,59691,70,0,P|100:328|160:328,1,122.5000011683,0|0,3:0|0:0,0:0:0:0:
195,237,59860,2,0,P|262:240|310:275,1,122.5000011683
404,264,60030,6,0,P|397:301|392:340,2,70,0|0|0,3:0|0:0|3:0,0:0:0:0:
416,172,60538,1,0,0:0:0:0:
426,169,60623,1,0,0:0:0:0:
436,166,60708,1,0,3:0:0:0:
425,72,60877,1,0,0:0:0:0:
415,69,60962,1,0,0:0:0:0:
405,66,61047,70,0,B|195:114|319:-6|101:42,1,315.0000120163,0|0,3:0|0:0,0:0:0:0:
73,35,61386,6,0,P|77:68|80:115,1,70,0|0,3:0|0:0,0:0:0:0:
191,121,61555,2,0,P|187:154|184:201,1,70
39,239,61724,70,0,B|66:198|98:187|98:187|99:180|99:180|105:185|105:185|140:174|185:191,1,175,0|0,3:0|0:0,0:0:0:0:
183,190,61894,2,0,B|156:231|124:242|124:242|123:249|123:249|117:244|117:244|82:255|37:238,1,175
39,239,62063,6,0,B|73:213|73:213|207:227,1,175,0|0,3:0|0:0,0:0:0:0:
369,214,62234,2,0,B|335:240|335:240|201:226,1,175
47,131,62402,70,0,B|84:100|95:50|95:50|140:168|37:240|37:240|94:242|127:295,1,420.0000160217,0|0,3:0|3:0,0:0:0:0:
121,302,62826,1,0,0:0:0:0:
118,312,62911,1,0,0:0:0:0:
265,271,63080,1,0,3:0:0:0:
262,260,63165,1,0,0:0:0:0:
259,249,63250,1,0,0:0:0:0:
434,364,63419,5,0,3:0:0:0:
461,319,63504,1,0,0:0:0:0:
455,266,63589,1,0,0:0:0:0:
412,235,63674,1,0,0:0:0:0:
463,168,63758,70,0,B|457:90|457:90|474:56,1,105.0000040054,0|0,3:0|0:0,0:0:0:0:
140,54,63928,1,0,0:0:0:0:
140,54,64013,1,0,0:0:0:0:
140,54,64098,2,0,B|146:132|146:132|129:166,1,105.0000040054
51,241,64267,6,0,B|15:293|15:293|179:245|179:245|239:148|239:148|314:132,1,420,0|0,1:0|0:0,0:0:0:0:
380,211,64606,2,0,B|304:228|304:228|290:254,1,105.0000040054,0|0,3:0|0:0,0:0:0:0:
220,342,64775,69,0,3:0:0:0:
221,335,64860,1,0,0:0:0:0:
223,328,64945,1,0,0:0:0:0:
112,162,65114,1,0,0:0:0:0:
113,169,65199,1,0,0:0:0:0:
115,176,65284,2,0,P|206:168|273:267,1,210,0|0,3:0|0:0,0:0:0:0:
77,364,65623,5,0,3:0:0:0:
39,80,65792,2,0,L|44:36,5,35,0|0|0|0|0|0,3:0|0:0|0:0|0:0|0:0|0:0,0:0:0:0:
115,176,66301,21,0,3:0:0:0:
77,364,66470,2,0,P|72:329|66:288,1,70,0|0,3:0|0:0,0:0:0:0:
266,359,66809,2,0,P|218:352|172:302,1,105.0000040054,0|0,3:0|0:0,0:0:0:0:
397,242,67148,2,0,P|331:233|257:266,1,140,0|0,3:0|0:0,0:0:0:0:
151,91,67487,2,0,P|236:87|313:134,1,175,0|0,3:0|0:0,0:0:0:0:
459,344,67826,69,0,0:0:0:0:
459,344,68504,6,0,L|464:315,1,28
478,233,69013,6,0,P|430:237|396:273,1,94.50000036049
155,309,69182,6,0,B|204:324|227:362|227:362|362:360|400:267|400:267|341:304|286:277,1,420,4|0,1:0|0:0,0:0:0:0:
216,194,69520,1,0,3:0:0:0:
208,181,69606,1,0,0:0:0:0:
200,169,69691,2,0,P|275:157|331:192,1,140
432,36,69860,70,0,P|296:52|140:68,1,280,0|0,3:0|0:0,0:0:0:0:
57,55,70114,1,0,0:0:0:0:
69,76,70199,1,0,3:0:0:0:
472,144,70369,1,0,0:0:0:0:
327,188,70538,6,0,L|43:163,2,280,0|0|0,3:0|0:0|3:0,0:0:0:0:
416,192,70962,1,0,0:0:0:0:
426,183,71047,1,0,0:0:0:0:
56,296,71216,1,0,3:0:0:0:
67,304,71301,1,0,0:0:0:0:
78,312,71386,2,0,P|148:300|217:292,1,140
375,269,71555,69,0,3:0:0:0:
153,59,71724,2,0,B|78:20|6:66|-6:166|60:213|141:219|168:149|168:149|134:159|118:194,1,420
184,260,72063,2,0,P|234:213|258:135,1,140
251,58,72233,5,0,3:0:0:0:
446,243,72402,2,0,B|376:221|310:264|310:264|363:183|339:88|339:88|382:117|382:168,1,420
391,336,72741,2,0,B|354:357|354:357|250:346,1,140
126,338,72911,69,0,3:0:0:0:
255,148,73080,2,0,B|265:62|186:17|186:17|154:113|211:179|294:179|341:152,1,420
429,39,73419,5,0,0:0:0:0:
421,78,73504,1,0,0:0:0:0:
412,115,73589,1,0,3:0:0:0:
465,324,73758,1,0,0:0:0:0:
153,273,73928,70,0,P|299:261|438:247,2,280,0|0|0,3:0|0:0|3:0,0:0:0:0:
64,280,74352,1,0,0:0:0:0:
52,269,74436,1,0,0:0:0:0:
412,115,74606,6,0,B|440:144|471:166|471:166|293:182|293:182|278:132|302:58|362:36,1,420,0|0,3:0|0:0,0:0:0:0:
151,32,74945,1,0,3:0:0:0:
157,38,75030,1,0,0:0:0:0:
163,44,75114,2,0,B|182:77|182:77|172:193,1,140
64,280,75284,69,0,3:0:0:0:
427,247,75453,1,0,0:0:0:0:
64,280,75624,2,0,B|45:247|45:247|55:131,1,140,0|0,3:0|0:0,0:0:0:0:
53,145,75792,1,0,0:0:0:0:
303,260,75962,6,0,B|308:322|374:359|374:359|292:401|198:360|170:280|205:207,1,420,0|0,3:0|0:0,0:0:0:0:
441,107,76301,1,0,3:0:0:0:
441,107,76386,1,0,0:0:0:0:
441,107,76470,2,0,P|434:175|425:255,1,140
336,26,76640,69,0,3:0:0:0:
57,149,76809,1,0,0:0:0:0:
441,107,76979,2,0,P|388:153|318:158,1,140
57,149,77148,1,0,0:0:0:0:
126,83,77318,6,0,P|150:156|52:245,1,210,0|0,3:0|0:0,0:0:0:0:
66,244,77657,1,0,3:0:0:0:
126,83,77826,1,0,0:0:0:0:
66,244,77996,70,0,P|42:171|140:82,1,210,0|0,3:0|0:0,0:0:0:0:
126,83,78335,1,0,3:0:0:0:
66,244,78504,1,0,0:0:0:0:
319,341,78674,6,0,P|290:295|293:237,1,105.0000040054,0|0,3:0|0:0,0:0:0:0:
433,307,78843,2,0,P|432:255|404:211,1,105.0000040054,0|0,3:0|0:0,0:0:0:0:
173,272,79013,2,0,P|182:199|222:141,1,140,0|0,3:0|0:0,0:0:0:0:
507,161,79182,2,0,P|453:110|385:92,1,140,0|0,3:0|0:0,0:0:0:0:
209,59,79352,69,0,3:0:0:0:
307,130,79436,1,0,3:0:0:0:
242,60,79521,1,0,3:0:0:0:
295,99,79606,1,0,3:0:0:0:
272,75,79691,1,0,3:0:0:0:
96,40,80030,6,0,B|136:117|104:247|17:290|17:290|59:222|130:220,1,420,4|0,1:0|0:0,0:0:0:0:
248,290,80369,1,0,3:0:0:0:
252,317,80453,1,0,0:0:0:0:
257,344,80538,2,0,P|187:345|129:300,1,140
254,85,80708,1,0,3:0:0:0:
275,68,80792,1,0,0:0:0:0:
296,50,80877,2,0,P|331:110|321:182,1,140
98,210,81047,1,0,3:0:0:0:
72,200,81131,1,0,0:0:0:0:
46,191,81216,2,0,P|80:129|148:102,1,140
450,277,81386,69,0,3:0:0:0:
452,249,81470,1,0,0:0:0:0:
456,221,81555,2,0,L|468:78,1,140
215,106,81724,1,0,3:0:0:0:
217,134,81808,1,0,0:0:0:0:
221,162,81894,2,0,L|233:305,1,140
46,191,82063,6,0,B|75:175|85:136|85:136|155:148|213:103|213:103|209:163|271:239|364:219,1,420,0|0,3:0|0:0,0:0:0:0:
331,102,82402,1,0,3:0:0:0:
149,227,82572,1,0,0:0:0:0:
490,262,82741,69,0,3:0:0:0:
474,301,82826,1,0,0:0:0:0:
438,322,82911,2,0,P|412:287|441:197,1,140
416,36,83080,1,0,3:0:0:0:
458,30,83165,1,0,0:0:0:0:
494,51,83250,2,0,P|476:91|384:110,1,140,0|0,0:0|0:0,0:0:0:0:
254,210,83419,1,0,3:0:0:0:
227,176,83504,1,0,0:0:0:0:
227,134,83589,2,0,P|270:128|333:199,1,140,0|0,0:0|0:0,0:0:0:0:
143,338,83758,1,0,3:0:0:0:
101,344,83843,1,0,0:0:0:0:
65,323,83928,2,0,P|82:282|174:263,1,140,0|0,0:0|0:0,0:0:0:0:
438,322,84097,5,0,3:0:0:0:
453,267,84182,1,0,0:0:0:0:
423,219,84267,2,0,P|434:157|449:79,1,140
78,27,84436,1,0,3:0:0:0:
63,82,84521,1,0,0:0:0:0:
93,130,84606,2,0,P|82:192|67:270,1,140
143,338,84775,69,0,3:0:0:0:
402,305,84945,1,0,0:0:0:0:
369,46,85114,1,0,3:0:0:0:
110,79,85284,1,0,0:0:0:0:
215,263,85453,5,0,3:0:0:0:
284,275,85538,1,0,0:0:0:0:
343,238,85623,2,0,P|393:189|404:116,1,140
215,263,85792,69,0,3:0:0:0:
291,252,85877,1,0,0:0:0:0:
339,191,85962,2,0,P|373:133|365:58,1,140
215,263,86131,5,0,3:0:0:0:
290,226,86216,1,0,0:0:0:0:
327,150,86301,2,0,P|332:80|292:17,1,140
91,126,86470,69,0,3:0:0:0:
91,126,86640,1,0,0:0:0:0:
444,58,86809,5,0,3:0:0:0:
485,139,86894,1,0,0:0:0:0:
460,226,86979,2,0,P|411:283|346:296,1,140
444,58,87148,69,0,3:0:0:0:
445,156,87233,1,0,0:0:0:0:
392,239,87318,2,0,P|324:273|255:265,1,140
444,58,87487,5,0,3:0:0:0:
403,155,87572,1,0,0:0:0:0:
310,206,87657,2,0,P|235:208|171:161,1,140
153,39,87826,69,0,3:0:0:0:
153,39,87996,1,0,0:0:0:0:
78,337,88165,54,0,P|131:335|183:331,1,105.0000040054,2|0,0:0|0:0,0:0:0:0:
207,245,88843,2,0,P|154:247|102:251,1,105.0000040054,2|0,0:0|0:0,0:0:0:0:
320,52,89521,38,0,B|344:52|344:52|384:28|416:16,1,94.50000036049,0|0,3:0|0:0,0:0:0:0:
196,52,89691,2,0,B|172:52|172:52|132:28|100:16,1,94.50000036049,0|0,3:0|0:0,0:0:0:0:
352,136,89860,2,0,P|396:124|448:124,1,94.50000036049,0|0,3:0|0:0,0:0:0:0:
160,136,90030,2,0,P|116:124|64:124,1,94.50000036049,0|0,3:0|0:0,0:0:0:0:
484,261,90199,70,0,B|440:252|404:228|404:228|351:233,1,140,0|0,3:0|0:0,0:0:0:0:
28,261,90369,2,0,B|72:252|108:228|108:228|161:233,1,140,0|0,3:0|0:0,0:0:0:0:
439,371,90538,2,0,P|383:329|316:312,1,140,0|0,3:0|0:0,0:0:0:0:
72,371,90708,2,0,P|128:329|196:312,1,140,0|0,3:0|0:0,0:0:0:0:
256,216,90877,37,0,3:0:0:0:
234,104,91047,1,0,0:0:0:0:
112,85,91216,1,0,3:0:0:0:
106,82,91301,1,0,0:0:0:0:
100,78,91386,1,0,0:0:0:0:
24,200,91555,70,0,B|81:283|156:308|156:308|178:264|160:116|55:49|55:49|67:173|178:240,1,700,6|0,0:0|3:0,0:0:0:0:
353,267,92063,1,0,0:0:0:0:
442,138,92233,5,0,3:0:0:0:
280,179,92402,1,0,0:0:0:0:
325,350,92572,1,0,3:0:0:0:
333,352,92657,1,0,0:0:0:0:
341,354,92741,1,0,0:0:0:0:
490,316,92911,70,0,B|525:222|506:110|413:66|413:66|351:114|330:222|419:269|419:269|444:214|424:160|367:121|367:121|324:100|266:100|227:140,1,840.0000320435,6|0,0:0|3:0,0:0:0:0:
126,292,93419,1,0,0:0:0:0:
50,119,93589,5,0,3:0:0:0:
242,237,93758,1,0,0:0:0:0:
43,336,93928,1,0,3:0:0:0:
35,334,94013,1,0,0:0:0:0:
27,332,94097,1,0,0:0:0:0:
50,119,94267,70,2,B|73:42|170:-3|274:10|342:107|337:232|251:303|129:302|78:233|78:233|162:235|247:176|247:78|247:78|289:32|355:56,1,980.000009346,6|2,0:0|3:0,0:0:0:0:
477,228,94775,1,0,0:0:0:0:
276,344,94945,6,0,P|345:285|378:206,1,175,4|0,0:0|0:0,0:0:0:0:
241,33,95114,1,0,3:0:0:0:
81,86,95284,70,0,P|155:41|241:33,1,175,4|0,0:0|0:0,0:0:0:0:
377,208,95453,1,0,3:0:0:0:
129,256,95623,5,6,3:1:0:0:
121,234,95708,1,0,3:0:0:0:
196,162,95792,69,0,3:0:0:0:
188,184,95877,1,0,3:0:0:0:
255,266,95962,5,0,3:0:0:0:
247,244,96047,1,0,3:0:0:0:
290,132,96131,70,0,P|318:126|349:117,4,61.25000058413,0|0|0|0|0,3:0|3:0|3:0|3:0|0:0,3:0:0:0:
