osu file format v14

[General]
AudioFilename: egoist.mp3
AudioLeadIn: 0
PreviewTime: 69183
Countdown: 0
SampleSet: Soft
StackLeniency: 0.7
Mode: 0
LetterboxInBreaks: 0
StoryFireInFront: 0
WidescreenStoryboard: 0

[Editor]
DistanceSpacing: 0.8
BeatDivisor: 4
GridSize: 4
TimelineZoom: 3.599999

[Metadata]
Title:Eiyuu Unmei no Uta (TV Edit)
TitleUnicode:英雄 運命の詩 (TV Edit)
Artist:EGOIST
ArtistUnicode:EGOIST
Creator:handsome
Version:Meg's Insane
Source:Fate/Apocrypha
Tags:フェイト/アポクリファ feito apokurifa chelly supercell ryo regou sing neilperry cheesecake yf_bmp irreversible emilia winber1 meg image-- slayed anime tv size version opening short
BeatmapID:1426308
BeatmapSetID:637050

[Difficulty]
HPDrainRate:6
CircleSize:4
OverallDifficulty:8
ApproachRate:9
SliderMultiplier:1.7
SliderTickRate:1

[Events]
//Background and Video events
0,0,"egoist.jpg",0,0
//Break Periods
//Storyboard Layer 0 (Background)
//Storyboard Layer 1 (Fail)
//Storyboard Layer 2 (Pass)
//Storyboard Layer 3 (Foreground)
//Storyboard Sound Samples

[TimingPoints]
1386,338.9830508475,4,2,1,50,1,0
2741,-200,4,2,1,50,0,0
12911,-100,4,2,1,50,0,0
14097,-100,4,2,1,60,0,0
14267,-66.66666666667,4,2,1,70,0,1
14775,-100,4,2,1,70,0,1
15623,-66.66666666667,4,2,1,70,0,1
16131,-100,4,2,1,70,0,1
16979,-66.66666666667,4,2,1,70,0,1
17487,-100,4,2,1,70,0,1
18335,-66.66666666667,4,2,1,70,0,1
18674,-100,4,2,1,70,0,1
19013,-100,4,2,1,70,0,0
19691,-100,4,2,1,70,0,1
21047,-80,4,2,1,70,0,1
21724,-133.3333333333,4,2,1,70,0,1
22402,-100,4,2,1,70,0,1
23080,-80,4,2,1,70,0,1
23758,-100,4,2,1,70,0,1
24436,-100,4,2,1,60,0,0
34606,-100,4,2,1,60,0,0
36640,-200,4,2,1,40,0,0
47148,-100,4,2,1,60,0,0
47487,-133.3333333333,4,2,1,50,0,0
58335,-100,4,2,1,60,0,0
63758,-66.6666666666667,4,2,1,60,0,0
65792,-100,4,2,1,60,0,0
68504,-133.3333333333,4,2,1,60,0,0
69013,-83.33333333333,4,2,1,80,0,1
88165,-100,4,2,1,60,0,0
89521,-100,4,2,1,80,0,1
89860,-66.66666666667,4,2,1,80,0,1
90199,-100,4,2,1,80,0,1
90877,-100,4,2,1,60,0,0
91555,-100,4,2,1,60,0,1
92233,-100,4,2,1,60,0,0
92911,-66.66666666667,4,2,1,70,0,1
93589,-66.66666666667,4,2,1,60,0,0
94267,-50,4,2,1,90,0,1
94945,-50,4,2,1,60,0,0
95623,-40,4,2,1,90,0,1
96301,-100,4,2,1,60,0,0

[Colours]
Combo1 : 255,247,89
Combo2 : 68,255,236
Combo3 : 255,183,111
Combo4 : 255,85,85
Combo5 : 205,205,205
Combo6 : 155,155,155

[HitObjects]
313,330,2741,69,2,0:0:0:0:
405,179,3419,1,2,0:0:0:0:
290,46,4097,1,2,0:0:0:0:
127,114,4775,1,2,0:0:0:0:
142,289,5453,69,2,0:0:0:0:
290,46,6131,1,2,0:0:0:0:
313,330,6809,1,2,0:0:0:0:
127,114,7487,1,2,0:0:0:0:
127,114,8165,6,0,B|141:283,1,170,4|2,0:1|0:0,0:0:0:0:
385,270,9521,2,0,B|370:100,1,170,2|2,0:0|0:0,0:0:0:0:
190,337,10877,70,0,P|111:352|67:285,2,170,2|2|2,0:0|0:0|0:0,0:0:0:0:
260,201,12572,2,0,L|254:180,3,21.25,0|0|0|0,0:0|0:0|0:0|0:0,0:0:0:0:
313,120,12911,6,0,L|354:126,1,42.5,2|2,0:0|0:0,0:0:0:0:
289,277,13080,2,2,L|263:310,1,42.5,2|2,0:0|0:0,0:0:0:0:
165,178,13250,2,0,L|150:138,3,42.5,2|2|2|2,0:0|0:0|0:0|0:0,0:0:0:0:
256,192,13589,53,2,0:0:0:0:
256,192,14097,2,0,P|259:214|256:235,1,42.5,8|0,3:0|0:0,0:0:0:0:
196,328,14267,70,0,L|70:347,1,127.5000048637,6|0,0:0|0:0,1:0:0:0:
405,312,14775,1,0,3:0:0:0:
404,312,14945,6,0,P|421:272|428:230,1,85,0|0,3:0|0:0,0:0:0:0:
404,149,15199,2,0,P|420:188|427:230,1,85,0|0,3:0|0:0,0:0:0:0:
342,250,15453,2,0,P|348:229|345:208,1,42.5,8|0,3:0|0:0,0:0:0:0:
193,102,15623,70,0,L|319:120,1,127.5000048637,6|0,0:0|0:0,0:0:0:0:
154,335,16131,1,0,3:0:0:0:
154,335,16301,6,0,L|196:328,1,42.5,0|0,3:0|0:0,0:0:0:0:
194,222,16470,2,0,L|229:247,1,42.5,2|0,0:0|0:0,0:0:0:0:
357,335,16640,70,0,L|316:328,1,42.5,2|0,0:0|0:0,0:0:0:0:
317,222,16809,2,0,L|283:247,1,42.5,8|0,3:0|0:0,0:0:0:0:
256,144,16979,6,0,L|256:16,1,127.5000048637,6|0,0:0|0:0,0:0:0:0:
467,196,17487,1,0,3:0:0:0:
467,196,17657,70,0,P|453:212|445:232,2,42.5,0|0|0,3:0|0:0|0:0,0:0:0:0:
366,201,17911,1,0,3:0:0:0:
363,231,17996,2,0,P|365:252|373:271,2,42.5,0|0|8,0:0|0:0|3:0,0:0:0:0:
295,305,18250,1,0,0:0:0:0:
314,329,18335,6,0,L|440:314,1,127.5000048637,6|0,0:0|0:0,0:0:0:0:
488,208,18589,1,0,0:0:0:0:
467,196,18674,70,0,L|462:153,1,42.5
488,34,18843,2,0,L|492:76,1,42.5,0|0,3:0|0:0,0:0:0:0:
440,314,19013,6,0,L|271:333,1,170,0|0,0:0|0:0,0:0:0:0:
39,343,19521,1,0,3:0:0:0:
48,351,19606,1,0,3:0:0:0:
59,353,19691,69,0,1:0:0:0:
158,270,19860,1,0,0:0:0:0:
169,141,20030,1,2,0:0:0:0:
86,42,20199,1,2,0:0:0:0:
157,269,20369,6,0,P|200:266|239:249,1,85,0|0,3:0|0:0,0:0:0:0:
284,177,20623,2,0,P|279:197|277:218,1,42.5,0|0,3:0|0:0,0:0:0:0:
450,357,20877,2,0,P|445:336|443:315,1,42.5,8|0,3:0|0:0,0:0:0:0:
504,239,21047,70,0,L|451:244,1,53.125,6|0,0:0|0:0,0:0:0:0:
316,319,21216,2,0,L|368:313,1,53.125,2|0,0:0|0:0,0:0:0:0:
437,88,21386,5,2,0:0:0:0:
438,74,21555,69,2,0:0:0:0:
439,60,21724,6,0,P|349:41|284:106,1,191.2500072956,6|0,0:0|3:0,0:0:0:0:
146,141,22318,1,0,0:0:0:0:
120,121,22402,70,0,P|236:91|296:193,1,255,6|0,0:0|3:0,0:0:0:0:
434,227,22996,1,0,0:0:0:0:
459,207,23080,6,0,P|436:193|410:186,1,53.125,6|0,0:0|0:0,0:0:0:0:
296,192,23250,2,0,P|270:199|247:212,1,53.125,0|0,0:0|0:0,0:0:0:0:
52,321,23419,70,0,P|74:307|100:300,1,53.125
215,306,23589,2,0,P|240:312|263:325,1,53.125,0|0,3:0|0:0,0:0:0:0:
404,355,23758,5,2,0:0:0:0:
454,341,23843,1,2,0:0:0:0:
487,301,23928,1,2,0:0:0:0:
488,249,24013,1,2,0:0:0:0:
458,206,24097,2,2,P|443:182|435:155,2,56.66666666667,0|0|0,0:0|0:0|0:0,0:0:0:0:
333,301,24436,37,6,3:0:0:0:
367,102,24606,1,0,0:0:0:0:
259,288,24775,5,0,3:0:0:0:
293,115,24945,1,0,0:0:0:0:
186,275,25114,5,0,3:0:0:0:
220,127,25284,1,0,0:0:0:0:
113,263,25453,5,0,3:0:0:0:
147,140,25623,1,0,0:0:0:0:
39,250,25792,37,0,3:0:0:0:
74,153,25962,1,0,0:0:0:0:
113,263,26131,5,0,3:0:0:0:
143,175,26301,1,0,0:0:0:0:
186,275,26470,5,0,3:0:0:0:
213,196,26640,1,0,0:0:0:0:
259,288,26809,5,0,3:0:0:0:
296,114,26979,1,0,0:0:0:0:
294,103,27063,1,0,0:0:0:0:
293,92,27148,37,6,3:0:0:0:
434,154,27318,1,0,0:0:0:0:
291,81,27487,2,0,L|206:92,1,85,0|0,3:0|0:0,0:0:0:0:
42,229,27826,5,0,3:0:0:0:
40,239,27911,1,0,0:0:0:0:
39,250,27996,1,0,0:0:0:0:
78,79,28165,1,0,3:0:0:0:
139,332,28335,1,0,0:0:0:0:
213,196,28504,5,0,3:0:0:0:
42,229,28674,1,0,0:0:0:0:
157,360,28843,2,0,L|167:275,1,85,0|0,3:0|0:0,0:0:0:0:
171,191,29097,1,0,0:0:0:0:
213,196,29182,6,0,L|255:201,1,42.5,0|0,3:0|0:0,0:0:0:0:
42,228,29352,1,0,0:0:0:0:
175,87,29521,38,0,L|217:92,1,42.5,0|0,3:0|0:0,0:0:0:0:
386,112,29691,1,2,0:0:0:0:
428,117,29775,1,2,0:0:0:0:
470,122,29860,5,6,3:0:0:0:
272,160,30030,1,0,0:0:0:0:
462,139,30199,5,0,3:0:0:0:
280,142,30369,1,0,0:0:0:0:
450,154,30538,5,0,3:0:0:0:
291,128,30708,1,0,0:0:0:0:
437,164,30877,37,0,3:0:0:0:
304,117,31047,1,0,0:0:0:0:
424,170,31216,5,0,3:0:0:0:
318,111,31386,1,0,0:0:0:0:
331,259,31555,5,0,3:0:0:0:
275,165,31724,1,0,0:0:0:0:
212,286,31894,5,0,3:0:0:0:
210,189,32063,1,0,0:0:0:0:
100,251,32233,37,0,3:0:0:0:
188,92,32402,1,0,0:0:0:0:
193,82,32487,1,0,0:0:0:0:
199,72,32572,5,6,3:0:0:0:
210,189,32741,1,0,0:0:0:0:
205,62,32911,2,0,L|289:74,1,85,0|0,3:0|0:0,0:0:0:0:
424,200,33250,2,0,L|339:212,1,85,0|0,3:0|0:0,0:0:0:0:
205,338,33589,2,0,L|289:350,1,85,0|0,3:0|0:0,0:0:0:0:
373,362,33928,5,0,3:0:0:0:
429,242,34097,1,0,3:0:0:0:
427,220,34182,1,0,3:0:0:0:
423,199,34267,1,0,3:0:0:0:
289,74,34436,1,0,0:0:0:0:
285,95,34521,1,0,0:0:0:0:
283,117,34606,6,0,L|226:108,2,56.66666666667,6|2|2,3:0|3:0|3:0,0:0:0:0:
429,242,34945,2,0,L|485:233,2,56.66666666667,2|2|2,3:0|3:0|3:0,0:0:0:0:
256,192,35284,12,0,36301,0:0:0:0:
168,296,36640,6,0,P|203:272|243:281,1,85,2|0,0:0|0:0,0:0:0:0:
333,343,37148,1,0,0:0:0:0:
333,343,37318,2,0,L|374:352,1,42.5,2|0,0:0|0:0,0:0:0:0:
500,276,37657,2,0,L|459:286,1,42.5,0|0,0:0|0:0,0:0:0:0:
374,161,37996,6,0,L|381:76,1,85,2|0,0:0|0:0,0:0:0:0:
381,76,38504,1,0,0:0:0:0:
461,199,38674,2,0,L|468:114,1,85,2|0,0:0|0:0,0:0:0:0:
468,114,39182,1,0,0:0:0:0:
377,239,39352,70,0,P|335:230|293:222,1,85,2|0,0:0|0:0,0:0:0:0:
137,179,39860,2,0,P|178:170|220:162,1,85
196,268,40369,2,0,L|193:310,1,42.5
88,354,40708,6,0,L|90:311,1,42.5,2|0,0:0|0:0,0:0:0:0:
46,211,41047,2,0,L|3:208,1,42.5
196,268,41386,2,0,L|238:270,2,42.5,2|0|0,0:0|0:0|0:0,0:0:0:0:
135,171,41894,70,0,L|113:169,2,21.25,0|0|2,0:0|0:0|0:0,0:0:0:0:
202,38,42402,2,0,P|219:77|214:119,1,85,0|2,0:0|0:0,0:0:0:0:
29,199,43250,1,0,0:0:0:0:
6,120,43419,6,0,P|26:117|47:120,1,42.5,2|0,0:0|0:0,0:0:0:0:
147,169,43758,2,0,P|126:172|105:169,1,42.5,0|0,0:0|0:0,0:0:0:0:
114,12,44097,2,0,L|119:96,1,85,2|0,0:0|0:0,0:0:0:0:
90,327,44775,70,0,P|129:308|171:305,1,85,2|0,0:0|0:0,0:0:0:0:
219,217,45284,2,0,P|259:232|292:259,1,85,0|0,0:0|0:0,0:0:0:0:
388,232,45792,2,0,P|399:249|405:270,1,42.5,0|0,0:0|0:0,0:0:0:0:
469,348,46131,5,2,0:0:0:0:
469,348,46470,1,2,0:0:0:0:
469,348,46809,1,2,0:0:0:0:
469,348,47148,70,0,L|458:263,1,85,2|0,0:0|0:0,0:0:0:0:
482,352,47487,22,0,L|465:225,1,127.5000048637,4|0,0:0|0:0,0:0:0:0:
382,57,47996,1,2,0:0:0:0:
447,106,48165,2,0,P|423:128|393:138,1,63.75000243187,2|0,0:0|0:0,0:0:0:0:
365,141,48419,1,0,0:0:0:0:
365,141,48504,2,0,L|302:127,1,63.75000243187,2|0,0:0|0:0,0:0:0:0:
235,22,48843,6,0,P|191:68|175:129,1,127.5000048637,2|0,0:0|0:0,0:0:0:0:
46,129,49352,1,0,0:0:0:0:
46,129,49521,2,0,P|89:174|105:235,1,127.5000048637,2|0,0:0|0:0,0:0:0:0:
235,235,50030,1,0,0:0:0:0:
235,235,50114,1,0,0:0:0:0:
234,235,50199,70,0,P|298:228|362:227,1,127.5000048637,2|0,0:0|0:0,0:0:0:0:
169,341,50708,2,0,P|105:347|41:348,1,127.5000048637,2|0,0:0|0:0,0:0:0:0:
264,323,51216,2,0,L|268:354,2,31.87500121594,2|0|0,0:0|0:0|0:0,0:0:0:0:
161,168,51555,5,2,0:0:0:0:
234,235,51724,1,2,0:0:0:0:
256,139,51894,1,2,0:0:0:0:
329,206,52063,1,2,0:0:0:0:
351,110,52233,69,2,0:0:0:0:
256,139,52402,1,0,0:0:0:0:
278,43,52572,1,0,0:0:0:0:
373,14,52741,1,2,0:0:0:0:
445,80,52911,6,0,P|455:111|461:142,1,63.75000243187,4|0,0:0|0:0,0:0:0:0:
329,206,53250,2,0,P|334:174|344:144,1,63.75000243187,2|0,0:0|0:0,0:0:0:0:
410,264,53589,2,0,P|359:302|297:301,1,127.5000048637,2|0,0:0|0:0,0:0:0:0:
166,237,54097,1,2,0:0:0:0:
166,237,54182,1,0,0:0:0:0:
166,237,54267,70,0,L|156:300,1,63.75000243187,2|0,0:0|0:0,0:0:0:0:
49,360,54606,2,0,L|39:296,1,63.75000243187,2|0,0:0|0:0,0:0:0:0:
60,182,54945,2,0,L|41:55,1,127.5000048637,2|0,0:0|0:0,0:0:0:0:
39,42,55623,6,0,P|123:82|212:54,2,191.2500072956,2|2|2,0:0|0:0|0:0,0:0:0:0:
325,34,56979,1,2,0:0:0:0:
325,34,57487,2,0,L|319:65,1,31.87500121594,0|0,0:0|0:0,0:0:0:0:
258,149,57657,69,0,0:0:0:0:
284,144,57741,1,0,0:0:0:0:
310,140,57826,1,0,0:0:0:0:
336,136,57911,1,0,0:0:0:0:
362,132,57996,1,0,3:0:0:0:
389,128,58080,1,0,3:0:0:0:
415,124,58165,2,0,L|446:118,1,31.87500121594,2|0,0:0|0:0,0:0:0:0:
325,34,58335,21,4,0:0:0:0:
433,203,58504,1,0,0:0:0:0:
258,149,58674,2,0,P|217:137|175:129,1,85,0|0,3:0|0:0,0:0:0:0:
310,286,59013,2,0,L|318:244,1,42.5,2|0,3:0|0:0,0:0:0:0:
424,161,59182,2,0,L|432:202,1,42.5,2|0,0:0|0:0,0:0:0:0:
501,317,59352,2,0,P|460:328|418:336,1,85,2|0,3:0|0:0,0:0:0:0:
143,261,59691,6,0,P|205:247|268:256,1,127.5,2|0,3:0|0:0,0:0:0:0:
310,286,60030,2,0,L|318:244,2,42.5,2|0|0,3:0|0:0|0:0,0:0:0:0:
111,340,60369,1,0,3:0:0:0:
77,314,60453,1,0,0:0:0:0:
61,275,60538,1,0,0:0:0:0:
67,233,60623,1,0,0:0:0:0:
92,199,60708,1,0,3:0:0:0:
196,61,60877,2,0,L|246:85,1,42.5,0|0,0:0|0:0,0:0:0:0:
306,130,61047,70,0,L|431:106,1,127.5,0|0,3:0|0:0,0:0:0:0:
447,103,61386,5,0,3:0:0:0:
346,36,61555,1,0,0:0:0:0:
427,184,61724,69,0,3:0:0:0:
308,208,61894,1,0,0:0:0:0:
469,255,62063,5,0,3:0:0:0:
402,356,62233,1,0,0:0:0:0:
427,184,62402,70,0,L|432:141,1,42.5,4|0,3:0|0:0,0:0:0:0:
401,163,62572,2,0,L|406:120,1,42.5,0|0,0:0|0:0,0:0:0:0:
282,229,62741,6,0,L|287:271,1,42.5,0|0,3:0|0:0,0:0:0:0:
256,250,62911,2,0,L|261:292,1,42.5,0|0,0:0|0:0,0:0:0:0:
416,268,63080,69,4,3:0:0:0:
241,124,63250,1,0,0:0:0:0:
416,36,63419,1,2,3:0:0:0:
413,57,63504,1,0,0:0:0:0:
410,78,63589,1,0,0:0:0:0:
408,99,63674,1,0,0:0:0:0:
405,120,63758,54,0,L|342:107,1,63.75000243187,4|0,0:0|0:0,0:0:0:0:
107,264,64097,1,0,0:0:0:0:
107,264,64267,6,0,L|169:276,1,63.75000243187,4|0,1:0|0:0,0:0:0:0:
328,341,64606,1,0,3:0:0:0:
328,341,64775,70,0,L|340:278,1,63.75000243187,4|0,1:0|0:0,0:0:0:0:
184,43,65114,1,0,0:0:0:0:
184,43,65284,6,0,L|171:105,1,63.75000243187,0|0,1:0|0:0,0:0:0:0:
256,192,65453,2,0,L|269:130,1,63.75000243187,0|0,0:0|0:0,0:0:0:0:
63,51,65623,1,0,3:0:0:0:
51,60,65708,1,0,0:0:0:0:
38,69,65792,70,0,B|0:207|102:176|49:315,1,255,0|0,1:0|3:0,0:0:0:0:
36,325,66470,6,0,P|79:320|121:316,1,85,6|0,0:0|0:0,0:0:0:0:
234,356,66809,2,0,P|229:313|225:271,1,85,0|0,0:0|0:0,0:0:0:0:
265,158,67148,2,0,P|222:162|180:166,1,85,0|0,0:0|0:0,0:0:0:0:
67,127,67487,69,0,0:0:0:0:
69,148,67572,1,0,0:0:0:0:
71,169,67657,1,0,0:0:0:0:
73,190,67741,1,0,0:0:0:0:
75,211,67826,1,0,0:0:0:0:
74,211,68504,54,0,P|151:202|201:260,1,159.3750060797
211,361,69013,54,0,P|223:338|241:321,1,50.9999984436
301,274,69182,2,0,L|401:299,1,101.9999968872,4|0,0:0|0:0,0:0:0:0:
491,182,69521,1,2,3:0:0:0:
393,46,69691,1,4,0:0:0:0:
393,46,69775,1,0,0:0:0:0:
393,46,69860,6,0,P|380:68|372:92,1,50.9999984436,0|0,3:0|0:0,0:0:0:0:
344,174,70030,2,0,P|351:198|362:221,1,50.9999984436,0|0,0:0|0:0,0:0:0:0:
401,299,70199,2,0,P|423:311|447:319,1,50.9999984436,2|0,3:0|0:0,0:0:0:0:
491,182,70369,1,4,0:0:0:0:
301,273,70538,70,0,P|220:215|121:229,1,203.9999937744,0|2,3:0|3:0,0:0:0:0:
344,174,71047,1,4,0:0:0:0:
382,175,71131,1,0,0:0:0:0:
420,170,71216,1,0,3:0:0:0:
456,160,71301,1,0,0:0:0:0:
491,144,71386,6,0,P|468:132|443:125,1,50.9999984436,0|0,0:0|0:0,0:0:0:0:
340,51,71555,2,0,P|315:59|293:71,1,50.9999984436,2|0,3:0|0:0,0:0:0:0:
166,92,71724,70,0,P|123:153|122:228,1,152.9999953308,4|0,0:0|0:0,0:0:0:0:
198,202,72063,2,0,B|194:171|218:159,1,50.9999984436,0|0,0:0|0:0,0:0:0:0:
314,182,72233,2,0,B|318:213|293:224,1,50.9999984436,2|0,3:0|0:0,0:0:0:0:
345,291,72402,6,0,P|388:230|389:155,1,152.9999953308,4|0,0:0|0:0,0:0:0:0:
147,192,72741,2,0,L|198:202,1,50.9999984436,0|0,0:0|0:0,0:0:0:0:
364,191,72911,2,0,L|313:181,1,50.9999984436,2|0,3:0|0:0,0:0:0:0:
122,229,73080,70,0,P|122:153|166:92,1,152.9999953308,4|0,0:0|0:0,0:0:0:0:
256,32,73419,2,0,L|256:83,1,50.9999984436,0|0,0:0|0:0,0:0:0:0:
256,165,73589,2,0,L|256:216,1,50.9999984436,2|0,3:0|0:0,0:0:0:0:
256,301,73758,6,0,L|256:352,2,50.9999984436,4|0|0,0:0|0:0|3:0,0:0:0:0:
176,232,74013,1,0,0:0:0:0:
152,252,74097,2,0,L|101:252,1,50.9999984436,0|0,0:0|0:0,0:0:0:0:
256,165,74267,2,0,L|256:216,1,50.9999984436,2|0,3:0|0:0,0:0:0:0:
364,252,74436,2,0,L|415:252,1,50.9999984436,4|0,0:0|0:0,0:0:0:0:
478,68,74606,70,0,B|432:83|432:83|374:55|374:55|336:71,1,152.9999953308,0|0,3:0|0:0,0:0:0:0:
272,126,74945,2,0,P|258:104|253:79,1,50.9999984436,2|0,3:0|0:0,0:0:0:0:
433,205,75114,2,0,P|427:229|414:251,1,50.9999984436,4|0,0:0|0:0,0:0:0:0:
256,301,75284,2,0,P|205:293|154:290,1,101.9999968872,0|0,3:0|0:0,0:0:0:0:
85,333,75538,1,0,0:0:0:0:
68,357,75623,6,0,L|59:306,1,50.9999984436,2|0,3:0|0:0,0:0:0:0:
0,231,75792,2,0,L|8:180,1,50.9999984436,4|0,0:0|0:0,0:0:0:0:
68,105,75962,70,0,L|51:4,2,101.9999968872,0|0|2,3:0|0:0|3:0,0:0:0:0:
159,252,76470,1,4,0:0:0:0:
180,237,76555,1,0,0:0:0:0:
201,222,76640,6,0,P|225:227|247:240,1,50.9999984436,0|0,3:0|0:0,0:0:0:0:
318,182,76809,2,0,P|331:203|338:227,1,50.9999984436,0|0,0:0|0:0,0:0:0:0:
410,282,76979,1,2,3:0:0:0:
255,131,77148,2,0,P|274:113|298:106,1,50.9999984436,4|0,0:0|0:0,0:0:0:0:
466,90,77318,70,0,L|265:53,1,203.9999937744,2|2,3:0|3:0,0:0:0:0:
48,89,77826,1,4,0:0:0:0:
44,63,77911,1,0,0:0:0:0:
40,38,77996,1,0,3:0:0:0:
191,113,78165,1,0,0:0:0:0:
15,190,78335,2,0,L|115:171,1,101.9999968872,2|4,3:0|0:0,0:0:0:0:
263,196,78674,5,0,3:0:0:0:
48,89,78843,1,0,3:0:0:0:
284,49,79013,1,0,3:0:0:0:
116,220,79182,1,0,3:0:0:0:
337,155,79352,69,0,3:0:0:0:
346,204,79436,1,0,3:0:0:0:
325,250,79521,1,0,3:0:0:0:
282,276,79606,1,0,3:0:0:0:
232,272,79691,6,0,L|226:221,1,50.9999984436,0|0,3:0|0:0,0:0:0:0:
143,45,79860,2,0,L|137:95,1,50.9999984436,2|0,0:0|0:0,0:0:0:0:
27,237,80030,70,0,P|101:247|141:309,1,152.9999953308,4|0,0:0|0:0,0:0:0:0:
140,342,80369,1,2,3:0:0:0:
324,223,80538,2,0,B|276:209|276:209|224:221,1,101.9999968872,4|0,0:0|3:0,0:0:0:0:
369,353,80877,1,0,0:0:0:0:
419,344,80962,1,0,0:0:0:0:
469,336,81047,1,2,3:0:0:0:
324,223,81216,1,4,0:0:0:0:
489,137,81386,6,0,B|472:203|472:203|484:270|484:270|469:336,1,203.9999937744,0|2,3:0|3:0,0:0:0:0:
215,331,81894,2,0,P|236:317|260:308,1,50.9999984436,4|0,0:0|0:0,0:0:0:0:
369,245,82063,2,0,P|347:231|323:222,1,50.9999984436,0|0,3:0|0:0,0:0:0:0:
189,207,82233,2,0,P|213:213|237:223,1,50.9999984436,0|0,0:0|0:0,0:0:0:0:
355,366,82402,2,0,P|349:341|339:317,1,50.9999984436,2|0,3:0|0:0,0:0:0:0:
323,222,82572,70,0,B|315:114|315:114|354:134,1,152.9999953308,4|0,0:0|0:0,0:0:0:0:
431,116,82911,2,0,P|432:141|426:165,1,50.9999984436,0|0,0:0|0:0,0:0:0:0:
235,130,83080,2,0,P|233:104|239:80,1,50.9999984436,2|0,3:0|0:0,0:0:0:0:
397,261,83250,6,0,P|322:250|246:251,1,152.9999953308,4|0,0:0|0:0,0:0:0:0:
167,218,83589,2,0,L|155:267,1,50.9999984436,0|0,0:0|0:0,0:0:0:0:
32,360,83758,2,0,L|21:311,1,50.9999984436,2|0,3:0|0:0,0:0:0:0:
33,181,83928,69,4,0:0:0:0:
215,333,84097,1,0,3:0:0:0:
222,144,84267,1,0,0:0:0:0:
21,311,84436,1,2,3:0:0:0:
272,244,84606,5,4,0:0:0:0:
278,241,84691,1,0,0:0:0:0:
284,238,84775,2,0,L|288:288,1,50.9999984436,0|0,3:0|0:0,0:0:0:0:
158,99,84945,69,0,0:0:0:0:
152,96,85030,1,0,0:0:0:0:
146,93,85114,2,0,L|141:143,1,50.9999984436,2|0,3:0|0:0,0:0:0:0:
33,181,85284,2,0,L|28:231,1,50.9999984436,4|0,0:0|0:0,0:0:0:0:
72,55,85453,6,0,P|132:13|204:32,1,152.9999953308,0|0,3:0|0:0,0:0:0:0:
224,58,85792,2,0,L|325:44,1,101.9999968872,2|4,3:0|0:0,0:0:0:0:
469,200,86131,69,0,3:0:0:0:
457,198,86216,1,0,0:0:0:0:
444,197,86301,1,0,0:0:0:0:
431,195,86386,1,0,0:0:0:0:
419,193,86470,1,2,3:0:0:0:
489,83,86640,1,4,0:0:0:0:
344,255,86809,6,0,P|326:207|328:157,1,101.9999968872,0|0,3:0|0:0,0:0:0:0:
439,329,87148,2,0,L|388:323,1,50.9999984436,2|0,3:0|0:0,0:0:0:0:
235,306,87318,2,0,L|285:311,1,50.9999984436,4|0,0:0|0:0,0:0:0:0:
413,128,87487,69,0,3:0:0:0:
383,87,87572,1,0,0:0:0:0:
336,68,87657,1,0,0:0:0:0:
287,76,87741,1,0,0:0:0:0:
249,110,87826,1,2,3:0:0:0:
211,143,87911,1,0,0:0:0:0:
161,152,87996,1,4,0:0:0:0:
115,133,88080,1,0,0:0:0:0:
85,92,88165,21,2,0:0:0:0:
85,92,88843,1,0,0:0:0:0:
85,92,89521,21,0,3:0:0:0:
328,156,89691,1,0,3:0:0:0:
344,142,89775,1,0,0:0:0:0:
360,128,89860,6,0,L|352:64,1,63.75000243187,0|0,3:0|0:0,0:0:0:0:
227,242,90030,2,0,L|234:305,1,63.75000243187,0|0,3:0|0:0,0:0:0:0:
478,289,90199,1,0,3:0:0:0:
467,290,90284,1,0,0:0:0:0:
457,292,90369,1,0,3:0:0:0:
446,294,90453,1,0,0:0:0:0:
436,295,90538,1,0,3:0:0:0:
425,297,90623,1,0,0:0:0:0:
415,299,90708,1,0,3:0:0:0:
404,300,90792,1,0,0:0:0:0:
394,302,90877,5,4,0:0:0:0:
118,82,91216,1,0,3:0:0:0:
256,172,91555,6,2,L|256:214,6,42.5,6|0|0|0|0|0|0,0:0|0:0|0:0|0:0|3:0|0:0|0:0,1:0:0:0:
104,313,92233,69,4,0:0:0:0:
407,71,92572,1,0,3:0:0:0:
256,161,92911,6,2,L|256:224,6,63.75000243187,6|0|0|0|0|0|0,0:0|0:0|0:0|0:0|3:0|0:0|0:0,1:0:0:0:
421,324,93589,69,4,0:0:0:0:
90,60,93928,1,0,3:0:0:0:
256,150,94267,6,2,L|256:235,6,85,6|0|0|0|0|0|0,0:0|0:0|0:0|0:0|3:0|0:0|0:0,1:0:0:0:
73,337,94945,69,4,0:0:0:0:
438,46,95284,1,4,0:0:0:0:
256,139,95623,6,0,L|256:245,8,106.25,4|0|0|0|0|0|0|0|0,0:0|3:0|3:0|3:0|3:0|3:0|3:0|3:0|3:0,3:0:0:0:
