osu file format v14

[General]
AudioFilename: egoist.mp3
AudioLeadIn: 0
PreviewTime: 69183
Countdown: 0
SampleSet: Soft
StackLeniency: 0.3
Mode: 0
LetterboxInBreaks: 0
StoryFireInFront: 0
WidescreenStoryboard: 0

[Editor]
DistanceSpacing: 0.8
BeatDivisor: 4
GridSize: 32
TimelineZoom: 3.599999

[Metadata]
Title:Eiyuu Unmei no Uta (TV Edit)
TitleUnicode:英雄 運命の詩 (TV Edit)
Artist:EGOIST
ArtistUnicode:EGOIST
Creator:handsome
Version:Master
Source:Fate/Apocrypha
Tags:フェイト/アポクリファ feito apokurifa chelly supercell ryo regou sing neilperry cheesecake yf_bmp irreversible emilia winber1 meg image-- slayed anime tv size version opening short
BeatmapID:1351501
BeatmapSetID:637050

[Difficulty]
HPDrainRate:4
CircleSize:4
OverallDifficulty:10
ApproachRate:9.6
SliderMultiplier:1.4
SliderTickRate:1

[Events]
//Background and Video events
0,0,"egoist.jpg",0,0
//Break Periods
//Storyboard Layer 0 (Background)
//Storyboard Layer 1 (Fail)
//Storyboard Layer 2 (Pass)
//Storyboard Layer 3 (Foreground)
//Storyboard Sound Samples

[TimingPoints]
1386,338.9830508475,4,2,1,5,1,0
2741,-285.7142857143,4,2,1,30,0,0
8165,-66.66666666667,4,2,1,50,0,0
8843,-285.7142857143,4,2,1,30,0,0
10877,-142.8571428571,4,2,1,30,0,0
12826,-66.66666666667,4,2,1,30,0,0
13419,-25,4,2,1,80,0,0
13589,-500,4,2,1,30,0,0
14097,-50,4,2,1,60,0,0
14267,-25,4,2,1,80,0,1
14606,-50,4,2,1,80,0,1
15623,-25,4,2,1,80,0,1
15962,-50,4,2,1,80,0,1
16979,-25,4,2,1,80,0,1
17318,-50,4,2,1,80,0,1
18335,-25,4,2,1,80,0,1
18674,-50,4,2,1,80,0,1
19013,-500,4,2,1,30,0,0
19691,-50,4,2,1,80,0,1
20708,-50,4,2,1,80,0,1
21047,-33.33333333333,4,2,1,80,0,1
21386,-25,4,2,1,80,0,1
21724,-100,4,2,1,85,0,1
22402,-100,4,2,1,90,0,1
23080,-100,4,2,1,95,0,1
23758,-50,4,2,1,100,0,1
24436,-50,4,2,1,60,0,0
34606,-50,4,2,1,70,0,0
36640,-100,4,2,1,30,0,0
47487,-83.33333333333,4,2,1,40,0,0
54606,-55.555555555554,4,2,1,40,0,0
55623,-83.3333333333299,4,2,1,40,0,0
59013,-33.33333333333,4,2,1,60,0,0
59352,-50,4,2,1,60,0,0
59691,-33.33333333333,4,2,1,60,0,0
60030,-66.66666666667,4,2,1,60,0,0
62402,-100,4,2,1,60,0,0
63080,-50,4,2,1,60,0,0
64775,-100,4,2,1,60,0,0
65284,-50,4,2,1,60,0,0
65792,-100,4,2,1,60,0,0
68504,-50,4,2,1,60,0,0
69013,-37.03703703704,4,2,1,80,0,0
71216,-71.4285714285826,4,2,1,80,0,0
78674,-37.03703703704,4,2,1,80,0,0
79860,-71.4285714285826,4,2,1,80,0,0
80030,-37.03703703704,4,2,1,90,0,0
88165,-37.03703703704,4,2,1,50,0,0
90199,-20,4,2,1,90,0,0
91555,-20,4,2,1,100,0,1
91894,-20,4,2,1,90,0,0
92911,-13.33333333333,4,2,1,100,0,1
93250,-13.33333333333,4,2,1,90,0,0
94267,-10,4,2,1,100,0,1
94606,-10,4,2,1,90,0,0
94945,-20,4,2,1,90,0,0
95623,-20,4,2,1,100,0,1
96131,-100,4,2,1,90,0,0

[Colours]
Combo1 : 255,247,89
Combo2 : 68,255,236
Combo3 : 255,183,111
Combo4 : 255,85,85
Combo5 : 205,205,205
Combo6 : 155,155,155

[HitObjects]
256,192,1386,12,0,2403,0:0:0:0:
302,32,2741,70,0,P|336:42|363:67,1,73.49999775696,2|0,0:0|0:0,0:0:0:0:
510,87,3419,2,0,P|474:78|438:87,1,73.49999775696,2|0,0:0|0:0,0:0:0:0:
267,181,4097,2,0,P|287:151|319:133,1,73.49999775696,2|0,0:0|0:0,0:0:0:0:
465,234,4775,2,0,P|461:197|442:166,1,73.49999775696,2|0,0:0|0:0,0:0:0:0:
370,195,5453,69,2,0:0:0:0:
233,122,6131,1,2,0:0:0:0:
121,229,6809,1,2,0:0:0:0:
188,368,7487,1,2,0:0:0:0:
343,348,8165,6,0,B|398:325|416:270|416:270|346:181|255:195|195:284,1,367.500014019,4|0,0:1|0:0,0:0:0:0:
123,290,8843,70,0,P|124:254|142:222,1,73.49999775696,2|0,0:0|0:0,0:0:0:0:
102,85,9521,2,0,P|132:104|152:135,1,73.49999775696,2|0,0:0|0:0,0:0:0:0:
290,169,10199,2,0,P|257:186|221:187,1,73.49999775696,2|0,0:0|0:0,0:0:0:0:
230,18,10877,6,0,P|171:59|162:130,1,146.9999955139,2|0,0:0|0:0,0:0:0:0:
12,273,11555,2,0,P|77:302|143:275,1,146.9999955139,2|0,0:0|0:0,0:0:0:0:
343,330,12233,2,0,P|336:258|279:215,1,146.9999955139,2|0,0:0|0:0,0:0:0:0:
285,214,12826,69,0,0:0:0:0:
289,212,12910,1,0,0:0:0:0:
294,211,12995,1,0,0:0:0:0:
299,210,13080,1,0,0:0:0:0:
304,209,13164,1,0,0:0:0:0:
308,208,13249,1,0,0:0:0:0:
197,207,13419,54,0,P|300:213|346:323,1,210,4|0,0:1|0:0,0:0:0:0:
363,321,13589,2,0,L|368:286,1,35,0|0,0:0|0:0,0:0:0:0:
403,211,14097,6,0,L|443:197,3,35,8|0|0|0,3:3|0:0|0:0|0:0,0:0:0:0:
392,215,14267,2,0,B|419:305|506:292|506:292|573:200|461:30|256:79,1,560,6|0,1:0|0:0,0:0:0:0:
0,85,14775,70,0,L|78:68,1,70,0|0,3:0|0:0,0:0:0:0:
129,18,14945,2,0,P|165:84|155:172,1,140,0|0,3:0|0:0,0:0:0:0:
240,177,15199,2,0,P|200:241|119:276,1,140,0|0,3:0|0:0,0:0:0:0:
20,347,15453,6,0,L|4:298,3,35,8|0|0|0,3:0|0:0|0:0|0:0,0:0:0:0:
25,358,15623,2,0,B|82:272|207:280|248:374|248:374|325:372|367:286|367:286|371:361|453:391,1,560,6|0,1:0|0:0,0:0:0:0:
464,81,16131,70,0,P|423:98|376:91,1,70,0|0,3:0|0:0,0:0:0:0:
324,60,16301,1,0,3:0:0:0:
239,220,16470,2,0,P|197:203|169:164,1,70,2|0,0:0|0:0,0:0:0:0:
182,162,16640,1,2,0:0:0:0:
26,26,16809,6,0,L|35:59,3,35,8|0|0|0,3:0|0:0|0:0|0:0,0:0:0:0:
24,15,16979,2,0,B|130:6|225:161|200:276|97:422|98:253|131:137|179:104|316:116,1,560,6|0,1:0|0:0,0:0:0:0:
512,215,17487,70,0,L|485:150,1,70,0|0,3:0|0:0,0:0:0:0:
418,105,17657,2,0,P|362:134|336:231,1,140,0|0,3:0|0:0,0:0:0:0:
249,207,17911,2,0,P|247:269|317:340,1,140,0|0,3:0|0:0,0:0:0:0:
391,311,18165,6,0,L|406:275,3,35,8|0|0|0,3:0|0:0|0:0|0:0,0:0:0:0:
386,322,18335,2,0,B|370:271|295:235|198:272|283:347|162:339|116:357|65:348|-9:221|70:140|163:108|234:168|227:230,1,560,6|0,1:0|0:0,0:0:0:0:
457,15,18843,5,0,3:0:0:0:
457,15,19013,2,0,L|459:42,1,28,0|0,0:0|0:0,0:0:0:0:
325,104,19521,53,0,3:0:0:0:
401,120,19606,1,0,3:0:0:0:
478,137,19691,2,0,P|426:155|400:256,1,140,0|0,1:0|0:0,0:0:0:0:
455,295,19945,1,2,0:3:0:0:
392,352,20030,6,0,L|310:336,1,70,2|0,0:3|0:0,0:0:0:0:
265,188,20199,2,0,L|183:204,1,70,2|0,0:3|0:0,0:0:0:0:
55,358,20369,70,0,P|21:298|53:216,1,140,0|0,3:0|0:0,0:0:0:0:
122,268,20623,1,0,3:0:0:0:
156,123,20708,6,0,P|161:90|129:40,1,70,2|0,0:0|0:0,0:0:0:0:
58,73,20877,2,0,P|53:106|85:156,1,70,2|0,3:2|0:0,0:0:0:0:
315,367,21047,70,0,P|341:322|333:271,1,105.0000040054,6|0,0:0|0:0,0:0:0:0:
241,257,21216,2,0,P|214:301|222:352,1,105.0000040054,2|0,0:0|0:0,0:0:0:0:
496,134,21386,6,0,P|511:78|438:-1,1,140,2|0,0:0|0:0,0:0:0:0:
372,33,21555,2,0,P|356:88|429:168,1,140,2|0,0:0|0:0,0:0:0:0:
442,371,21724,70,0,L|454:330,1,35,6|0,1:0|0:0,0:0:0:0:
456,321,21894,1,0,0:0:0:0:
414,332,21979,1,0,0:0:0:0:
371,323,22063,1,0,0:0:0:0:
337,296,22148,1,0,0:0:0:0:
319,257,22233,1,0,3:0:0:0:
328,27,22402,6,0,L|339:65,1,35,6|0,1:0|0:0,0:0:0:0:
341,72,22572,1,0,0:0:0:0:
285,69,22657,1,0,0:0:0:0:
235,92,22741,1,0,0:0:0:0:
202,137,22826,1,0,0:0:0:0:
194,192,22911,1,0,3:0:0:0:
41,343,23080,70,0,L|33:300,1,35,6|0,1:0|0:0,0:0:0:0:
33,294,23250,1,0,0:0:0:0:
102,299,23335,1,0,0:0:0:0:
172,304,23419,1,0,0:0:0:0:
242,310,23504,1,0,0:0:0:0:
312,315,23589,1,0,3:0:0:0:
499,67,23758,5,2,0:1:0:0:
426,38,23843,1,2,0:3:0:0:
350,53,23928,1,2,0:3:0:0:
294,106,24013,1,2,0:3:0:0:
275,182,24097,38,2,L|289:230,1,35,2|2,0:0|0:0,0:0:0:0:
203,204,24182,2,2,L|216:251,1,35,2|2,0:0|0:0,0:0:0:0:
135,154,24267,6,2,L|148:106,1,35,0|0,0:0|0:0,0:0:0:0:
62,132,24352,2,2,L|75:84,1,35,2|2,0:0|0:0,0:0:0:0:
5,192,24436,21,6,3:1:0:0:
102,340,24606,1,0,0:0:0:0:
277,293,24775,1,0,3:0:0:0:
287,112,24945,1,0,0:0:0:0:
271,289,25114,21,0,3:0:0:0:
280,116,25284,1,0,0:0:0:0:
119,54,25453,1,0,3:0:0:0:
11,188,25623,1,0,0:0:0:0:
121,61,25792,69,0,3:0:0:0:
18,189,25962,1,0,0:0:0:0:
107,326,26131,1,0,3:0:0:0:
264,284,26301,1,0,0:0:0:0:
110,319,26470,5,0,3:0:0:0:
260,279,26640,1,0,0:0:0:0:
122,69,26809,69,0,3:0:0:0:
24,189,26979,1,0,0:0:0:0:
267,124,27148,69,6,3:1:0:0:
330,360,27318,1,0,0:0:0:0:
331,167,27487,5,0,3:0:0:0:
266,317,27657,1,0,0:0:0:0:
335,243,27826,5,0,3:0:0:0:
262,241,27996,1,0,0:0:0:0:
399,205,28165,69,0,3:0:0:0:
198,279,28335,1,0,0:0:0:0:
463,247,28504,5,0,3:0:0:0:
134,237,28674,1,0,0:0:0:0:
463,247,28843,1,0,3:0:0:0:
134,237,29013,1,0,0:0:0:0:
512,185,29182,69,0,3:0:0:0:
85,299,29352,1,0,0:0:0:0:
512,185,29521,1,0,3:0:0:0:
85,299,29691,69,2,0:0:0:0:
98,222,29775,69,2,0:0:0:0:
111,145,29860,5,6,3:1:0:0:
236,21,30030,1,0,0:0:0:0:
405,66,30199,1,0,3:0:0:0:
451,236,30369,1,0,0:0:0:0:
399,72,30538,5,0,3:0:0:0:
442,233,30708,1,0,0:0:0:0:
324,351,30877,1,0,3:0:0:0:
164,308,31047,1,0,0:0:0:0:
322,343,31216,5,0,3:0:0:0:
169,302,31386,1,0,0:0:0:0:
128,149,31555,1,0,3:0:0:0:
240,38,31724,1,0,0:0:0:0:
137,151,31894,69,0,3:0:0:0:
242,46,32063,1,0,0:0:0:0:
320,334,32233,5,0,3:0:0:0:
176,296,32402,1,0,0:0:0:0:
347,132,32572,53,6,3:1:0:0:
93,30,32741,1,0,0:0:0:0:
317,62,32911,21,0,3:0:0:0:
123,100,33080,1,0,0:0:0:0:
242,46,33250,69,0,3:0:0:0:
198,116,33419,1,0,0:0:0:0:
174,6,33589,69,0,3:0:0:0:
266,156,33758,1,0,0:0:0:0:
63,297,33928,69,0,3:0:0:0:
94,125,34097,1,0,3:0:0:0:
94,125,34182,1,0,3:0:0:0:
94,125,34267,1,0,3:0:0:0:
405,359,34436,5,0,0:0:0:0:
339,29,34606,1,6,3:2:0:0:
438,113,34719,1,2,3:2:0:0:
359,165,34832,1,2,3:2:0:0:
414,224,34945,1,2,3:2:0:0:
372,294,35058,1,2,3:2:0:0:
405,359,35171,1,2,3:2:0:0:
256,192,35284,12,0,36301,0:0:0:0:
36,293,36640,6,0,L|48:375,2,70,0|0|0,0:0|0:0|0:0,0:0:0:0:
119,281,37318,2,0,L|131:363,2,70,0|0|0,0:0|0:0|0:0,0:0:0:0:
150,100,37996,6,0,L|162:18,2,70,0|0|0,0:0|0:0|0:0,0:0:0:0:
233,112,38674,2,0,L|245:30,2,70,0|0|0,0:0|0:0|0:0,0:0:0:0:
265,254,39352,70,0,L|277:336,2,70,0|0|0,0:0|0:0|0:0,0:0:0:0:
348,242,40030,2,0,L|360:324,2,70,0|0|0,0:0|0:0|0:0,0:0:0:0:
379,139,40708,6,0,L|391:57,2,70,0|0|0,0:0|0:0|0:0,0:0:0:0:
462,151,41386,2,0,L|474:69,2,70,0|0|0,0:0|0:0|0:0,0:0:0:0:
342,352,42063,70,0,L|416:343,1,70,0|0,0:0|0:0,0:0:0:0:
411,343,42402,1,0,0:0:0:0:
326,273,42741,2,0,L|400:264,1,70,0|0,0:0|0:0,0:0:0:0:
395,264,43080,1,0,0:0:0:0:
174,292,43419,6,0,L|100:283,1,70,0|0,0:0|0:0,0:0:0:0:
104,283,43758,1,0,0:0:0:0:
190,213,44097,2,0,L|116:204,1,70,0|0,0:0|0:0,0:0:0:0:
121,204,44436,1,0,0:0:0:0:
374,156,44775,70,0,L|448:147,1,70,0|0,0:0|0:0,0:0:0:0:
443,147,45114,1,0,0:0:0:0:
358,77,45453,2,0,L|432:68,1,70,0|0,0:0|0:0,0:0:0:0:
427,68,45792,1,0,0:0:0:0:
142,96,46131,6,0,L|68:87,1,70,0|0,0:0|0:0,0:0:0:0:
73,87,46470,1,0,0:0:0:0:
158,17,46809,2,0,L|84:8,1,70,0|0,0:0|0:0,0:0:0:0:
158,17,47148,1,2,0:3:0:0:
36,249,47487,38,0,P|93:229|169:312,1,167.9999948731,4|0,0:1|0:0,0:0:0:0:
121,359,47996,1,2,0:0:0:0:
240,333,48165,2,0,P|257:291|256:247,1,83.99999743652,2|0,0:0|0:0,0:0:0:0:
181,106,48504,2,0,P|181:147|198:186,1,83.99999743652,2|0,0:0|0:0,0:0:0:0:
284,170,48843,2,0,L|458:153,2,167.9999948731,2|0|2,0:0|0:0|0:0,0:0:0:0:
451,153,50199,38,0,L|284:170,1,167.9999948731,2|0,0:0|0:0,0:0:0:0:
212,113,50708,1,2,0:0:0:0:
212,113,50877,2,0,P|198:145|202:207,1,83.99999743652,2|0,0:0|0:0,0:0:0:0:
359,328,51216,2,0,P|360:286|344:247,1,83.99999743652,2|0,0:0|0:0,0:0:0:0:
140,365,51555,69,2,0:0:0:0:
52,336,51724,1,2,0:0:0:0:
52,244,51894,1,2,0:0:0:0:
140,215,52063,1,2,0:0:0:0:
194,290,52233,1,2,0:0:0:0:
61,95,52741,53,2,0:0:0:0:
61,95,52911,2,0,P|107:87|149:59,1,83.99999743652,4|0,0:1|0:0,0:0:0:0:
197,153,53250,2,0,P|223:114|233:65,1,83.99999743652,2|0,0:0|0:0,0:0:0:0:
194,6,53589,1,2,0:0:0:0:
381,95,54097,21,2,0:0:0:0:
260,231,54267,2,0,P|239:196|242:142,1,83.9999974365235,2|0,0:3|0:3,0:0:0:0:
474,163,54606,2,0,P|347:138|306:208,1,188.999994232178,2|0,0:0|0:0,0:0:0:0:
342,247,54945,1,2,0:0:0:0:
186,309,55623,54,0,P|118:333|32:276,1,167.9999948731,2|0,0:0|0:0,0:0:0:0:
246,236,56131,2,0,P|314:260|400:203,1,167.9999948731,2|0,0:0|0:0,0:0:0:0:
179,100,56640,2,0,L|176:193,1,83.99999743652,2|0,0:0|0:0,0:0:0:0:
177,184,56979,1,2,0:0:0:0:
359,11,57487,37,0,0:0:0:0:
462,51,57572,1,0,0:0:0:0:
383,56,57657,69,0,0:2:0:0:
451,90,57741,1,0,0:2:0:0:
393,103,57826,5,0,0:2:0:0:
418,130,57911,1,0,0:2:0:0:
399,137,57996,69,0,3:2:0:0:
412,145,58080,1,0,0:2:0:0:
406,150,58165,70,0,P|402:173|403:191,1,41.99999871826,2|0,0:3|0:0,0:0:0:0:
483,355,58335,69,4,3:1:0:0:
405,267,58504,1,0,0:0:0:0:
290,251,58674,1,0,3:0:0:0:
192,315,58843,1,0,0:0:0:0:
26,8,59013,6,0,P|53:59|77:178,1,157.5000060082,2|0,3:1|0:0,0:0:0:0:
156,163,59182,2,0,P|139:218|71:319,1,157.5000060082,2|0,0:1|0:0,0:0:0:0:
122,374,59352,69,2,3:1:0:0:
122,374,59691,6,0,P|177:357|278:289,1,157.5000060082,2|0,3:1|0:0,0:0:0:0:
344,321,59860,2,0,P|370:270|394:151,1,157.5000060082,2|0,0:1|0:0,0:0:0:0:
469,137,60030,69,2,3:1:0:0:
352,101,60199,1,0,0:0:0:0:
235,65,60369,2,0,L|224:4,2,52.5000020027161,0|0|0,3:0|0:0|0:0,0:0:0:0:
34,219,60708,5,0,3:0:0:0:
268,147,60877,1,0,0:0:0:0:
268,147,60962,1,0,0:0:0:0:
268,147,61047,2,0,L|256:267,1,105.0000040054,0|0,3:0|0:0,0:0:0:0:
90,124,61386,69,0,3:0:0:0:
120,282,61555,1,0,0:0:0:0:
160,154,61724,5,0,3:0:0:0:
172,228,61894,1,0,0:0:0:0:
392,74,62063,69,0,3:0:0:0:
364,316,62233,1,0,0:0:0:0:
99,262,62402,6,0,P|158:264|208:332,1,140,4|0,3:2|3:0,0:0:0:0:
206,323,62911,1,0,0:0:0:0:
458,32,63080,70,0,P|396:17|267:130,1,245,4|0,3:1|0:0,0:0:0:0:
237,96,63419,2,0,L|261:261,1,140,2|0,3:2|0:0,0:0:0:0:
385,352,63758,5,4,0:1:0:0:
472,332,63928,1,0,0:0:0:0:
493,245,64097,1,0,0:0:0:0:
324,291,64267,70,0,L|168:272,1,140,4|0,1:0|0:0,0:0:0:0:
96,264,64606,1,0,3:0:0:0:
398,184,64775,6,0,P|395:139|312:110,1,140,4|0,1:0|0:0,0:0:0:0:
20,316,65284,70,0,P|17:208|139:186,1,210,0|0,1:0|0:0,0:0:0:0:
84,149,65623,1,0,3:0:0:0:
276,357,65792,6,0,B|257:277|296:315|268:199,1,140,0|0,1:0|0:0,0:0:0:0:
274,78,66301,1,0,3:0:0:0:
463,309,66470,69,6,1:2:0:0:
256,192,66491,12,0,67825,0:0:0:0:
302,315,68504,22,0,L|328:309,12,17.5
226,339,68843,69,0,0:0:0:0:
482,363,69013,2,0,L|382:352,1,94.50000036049,0|0,0:0|0:0,0:0:0:0:
122,369,69182,37,4,3:1:0:0:
114,322,69266,1,0,0:0:0:0:
106,275,69351,1,0,0:0:0:0:
99,269,69522,5,2,3:2:0:0:
189,255,69606,1,0,0:0:0:0:
232,175,69691,1,4,0:0:0:0:
226,167,69861,69,0,3:0:0:0:
273,171,69945,1,0,0:0:0:0:
320,175,70030,1,0,0:0:0:0:
326,182,70200,5,2,3:2:0:0:
381,109,70284,1,0,0:0:0:0:
472,103,70369,1,4,0:0:0:0:
465,109,70538,69,0,3:0:0:0:
456,62,70622,1,0,0:0:0:0:
448,15,70707,1,0,0:0:0:0:
438,11,70877,5,2,3:2:0:0:
298,102,70962,1,0,0:0:0:0:
446,179,71047,1,4,0:0:0:0:
93,56,71216,38,0,L|63:46,6,24.4999992523194,0|0|0|0|0|0|0,3:0|0:0|0:0|0:0|0:0|0:0|0:0,0:0:0:0:
101,51,71555,37,2,3:2:0:0:
191,45,71639,1,0,0:0:0:0:
247,117,71724,1,4,0:0:0:0:
241,125,71894,69,0,3:0:0:0:
287,132,71978,1,0,0:0:0:0:
334,139,72063,1,0,0:0:0:0:
341,133,72233,5,2,3:2:0:0:
412,189,72318,1,0,0:0:0:0:
407,279,72402,1,4,0:0:0:0:
398,273,72572,69,0,3:0:0:0:
352,267,72656,1,0,0:0:0:0:
305,262,72741,1,0,0:0:0:0:
299,253,72911,5,2,3:2:0:0:
244,327,72995,1,0,0:0:0:0:
153,339,73080,1,4,0:0:0:0:
148,347,73250,69,0,3:0:0:0:
136,301,73334,1,0,0:0:0:0:
125,255,73419,1,0,0:0:0:0:
288,5,73589,5,2,3:2:0:0:
264,95,73673,1,0,0:0:0:0:
242,187,73758,1,4,0:0:0:0:
496,291,73928,69,0,3:0:0:0:
440,214,74013,1,0,0:0:0:0:
350,243,74098,1,0,0:0:0:0:
350,338,74182,1,0,0:0:0:0:
440,366,74267,5,2,3:2:0:0:
141,246,74436,1,4,0:0:0:0:
382,71,74606,69,0,3:0:0:0:
374,118,74691,1,0,0:0:0:0:
367,165,74775,1,0,0:0:0:0:
231,300,74945,5,2,3:2:0:0:
216,217,75030,1,0,0:0:0:0:
204,135,75114,1,4,0:0:0:0:
375,71,75284,69,0,3:0:0:0:
367,118,75369,1,0,0:0:0:0:
360,165,75453,1,0,0:0:0:0:
239,299,75623,5,2,3:2:0:0:
224,216,75708,1,0,0:0:0:0:
212,134,75792,1,4,0:0:0:0:
61,246,75963,69,0,3:0:0:0:
107,241,76047,1,0,0:0:0:0:
149,261,76132,1,0,0:0:0:0:
419,264,76301,5,2,3:2:0:0:
343,287,76385,1,0,0:0:0:0:
312,360,76470,1,4,0:0:0:0:
61,254,76640,69,0,3:0:0:0:
107,249,76724,1,0,0:0:0:0:
149,269,76809,1,0,0:0:0:0:
423,269,76979,5,2,3:2:0:0:
347,292,77063,1,0,0:0:0:0:
316,365,77148,1,4,0:0:0:0:
181,88,77318,69,2,3:2:0:0:
106,140,77402,1,0,0:0:0:0:
189,179,77487,1,0,0:0:0:0:
190,93,77657,5,2,3:2:0:0:
105,163,77741,1,0,0:0:0:0:
208,200,77826,1,4,0:0:0:0:
200,98,77996,69,0,3:0:0:0:
106,188,78080,1,0,0:0:0:0:
231,222,78165,1,0,0:0:0:0:
209,99,78335,5,2,3:2:0:0:
111,214,78419,1,0,0:0:0:0:
260,242,78504,1,4,0:0:0:0:
466,82,78674,70,0,L|371:124,1,94.50000036049,0|0,3:0|0:0,0:0:0:0:
414,325,78843,2,0,L|312:343,1,94.50000036049,0|0,3:0|0:0,0:0:0:0:
500,210,79013,2,0,L|397:228,1,94.50000036049,0|0,3:0|0:0,0:0:0:0:
321,37,79182,2,0,L|226:78,1,94.50000036049,0|0,3:0|0:0,0:0:0:0:
23,229,79352,5,0,3:0:0:0:
103,194,79436,1,0,3:0:0:0:
192,208,79521,1,0,3:0:0:0:
259,266,79606,1,0,3:0:0:0:
287,349,79691,1,0,3:0:0:0:
100,292,79860,38,0,L|95:323,2,24.4999992523194,2|0|0,0:0|0:0|0:0,0:0:0:0:
108,283,80030,21,4,3:1:0:0:
102,247,80114,1,0,0:0:0:0:
97,212,80199,1,0,0:0:0:0:
404,101,80369,5,2,3:2:0:0:
415,172,80453,1,0,0:0:0:0:
426,242,80538,1,4,0:0:0:0:
77,134,80708,69,0,3:0:0:0:
123,129,80792,1,0,0:0:0:0:
149,91,80877,1,0,0:0:0:0:
433,249,81047,5,2,3:2:0:0:
341,258,81131,1,0,0:0:0:0:
288,333,81216,1,4,0:0:0:0:
217,40,81386,69,0,3:0:0:0:
263,94,81470,1,0,0:0:0:0:
287,26,81555,1,0,0:0:0:0:
294,340,81724,5,2,3:2:0:0:
202,232,81809,1,0,0:0:0:0:
154,368,81894,1,4,0:0:0:0:
367,17,82063,69,0,3:0:0:0:
374,52,82147,1,0,0:0:0:0:
381,87,82232,1,0,0:0:0:0:
145,367,82402,5,2,3:2:0:0:
130,296,82486,1,0,0:0:0:0:
116,225,82571,1,4,0:0:0:0:
389,166,82741,69,0,3:0:0:0:
433,180,82825,1,0,0:0:0:0:
450,222,82910,1,0,0:0:0:0:
123,218,83080,5,2,3:2:0:0:
35,189,83164,1,0,0:0:0:0:
0,105,83249,1,4,0:0:0:0:
508,288,83419,69,0,3:0:0:0:
473,293,83504,1,0,0:0:0:0:
438,299,83589,1,0,0:0:0:0:
4,96,83758,5,2,3:2:0:0:
73,84,83843,1,0,0:0:0:0:
143,72,83928,1,4,0:0:0:0:
362,306,84097,69,0,3:0:0:0:
328,337,84181,1,0,0:0:0:0:
282,345,84266,1,0,0:0:0:0:
150,78,84436,5,2,3:2:0:0:
217,14,84520,1,0,0:0:0:0:
309,0,84605,1,4,0:0:0:0:
191,367,84775,69,0,3:0:0:0:
222,279,84859,1,0,0:0:0:0:
194,191,84944,1,0,0:0:0:0:
118,138,85029,1,0,0:0:0:0:
25,143,85113,5,2,3:2:0:0:
441,33,85284,1,4,0:0:0:0:
441,33,85453,69,0,3:0:0:0:
432,104,85538,1,0,0:0:0:0:
424,177,85623,1,0,0:0:0:0:
441,33,85792,5,2,3:2:0:0:
401,125,85877,1,0,0:0:0:0:
364,222,85962,1,4,0:0:0:0:
441,33,86131,69,0,3:0:0:0:
432,104,86216,1,0,0:0:0:0:
424,177,86301,1,0,0:0:0:0:
441,33,86470,5,2,3:2:0:0:
401,125,86555,1,0,0:0:0:0:
364,222,86640,1,4,0:0:0:0:
65,282,86809,69,0,3:0:0:0:
138,259,86894,1,0,0:0:0:0:
165,187,86979,1,0,0:0:0:0:
65,282,87148,5,2,3:2:0:0:
138,209,87233,1,0,0:0:0:0:
126,106,87318,1,4,0:0:0:0:
65,282,87487,69,0,3:0:0:0:
138,259,87572,1,0,0:0:0:0:
165,187,87657,1,0,0:0:0:0:
65,282,87826,5,2,3:2:0:0:
138,209,87911,1,0,0:0:0:0:
126,106,87996,1,4,0:0:0:0:
399,327,88165,37,2,0:0:0:0:
399,327,88843,1,0,0:0:0:0:
399,327,89521,54,0,P|385:256|345:219,1,94.50000036049,0|0,3:0|0:0,0:0:0:0:
165,296,89691,2,0,P|169:223|203:181,1,94.50000036049,0|0,3:0|0:0,0:0:0:0:
289,357,89860,2,0,P|267:288|283:236,1,94.50000036049,0|0,3:0|0:0,0:0:0:0:
477,214,90030,2,0,P|438:153|388:133,1,94.50000036049,0|0,3:0|0:0,0:0:0:0:
83,108,90199,54,0,P|103:193|162:256,1,175,0|0,3:0|0:0,0:0:0:0:
399,34,90369,2,0,P|387:120|335:190,1,175,0|0,3:0|0:0,0:0:0:0:
239,0,90538,2,0,P|214:83|233:167,1,175,0|0,3:0|0:0,0:0:0:0:
498,197,90708,2,0,P|445:266|365:300,1,175,0|0,3:0|0:0,0:0:0:0:
289,357,90877,53,4,3:1:0:0:
289,357,91216,1,0,3:0:0:0:
289,357,91555,38,2,B|405:355|406:237|406:237|358:157|219:173|193:312|193:312|119:293|95:182|128:134,1,700,6|0,3:1|3:0,0:0:0:0:
127,135,92233,37,4,3:1:0:0:
127,135,92572,1,0,3:0:0:0:
127,135,92911,38,2,B|230:173|321:165|357:172|400:131|483:77|473:2|473:2|365:16|302:99|309:182|294:309|322:366|352:382|352:382|363:343|330:281|202:278,1,1050.000025034,6|0,3:1|3:0,0:0:0:0:
264,285,93589,37,4,3:1:0:0:
264,285,93928,1,0,3:0:0:0:
264,285,94267,38,2,B|106:211|21:329|21:329|176:293|243:181|216:0|216:0|419:96|430:277|404:368|404:368|525:274|485:152,1,1400,6|0,3:1|3:0,0:0:0:0:
485,153,94945,70,0,P|400:144|326:188,1,175,0|0,3:0|0:0,0:0:0:0:
27,191,95114,2,0,P|112:173|190:209,1,175,0|0,3:0|0:0,0:0:0:0:
462,369,95284,2,0,P|415:298|334:268,1,175,0|0,3:0|0:0,0:0:0:0:
163,20,95453,2,0,P|230:75|251:159,1,175,0|0,3:0|0:0,0:0:0:0:
161,309,95623,21,6,3:1:0:0:
168,293,95707,1,0,3:0:0:0:
139,97,95792,5,0,3:0:0:0:
154,104,95876,1,0,3:0:0:0:
351,75,95962,69,0,3:0:0:0:
343,90,96046,1,0,3:0:0:0:
373,287,96131,6,0,L|356:279,4,17.5,0|0|0|0|0,3:0|3:0|3:0|3:0|3:0,0:0:0:0:
