osu file format v14

[General]
AudioFilename: audio.mp3
AudioLeadIn: 0
PreviewTime: 1386
Countdown: 0
SampleSet: Normal
StackLeniency: 0.2
Mode: 0
LetterboxInBreaks: 0
WidescreenStoryboard: 0

[Editor]
DistanceSpacing: 0.1
BeatDivisor: 4
GridSize: 4
TimelineZoom: 2.4

[Metadata]
Title:Eiyuu Unmei no Uta
TitleUnicode:Eiyuu Unmei no Uta
Artist:EGOIST
ArtistUnicode:EGOIST
Creator:FN TPS
Version:EXTRA
Source:Fate/Apocrypha
Tags:
BeatmapID:1857523
BeatmapSetID:888681

[Difficulty]
HPDrainRate:6.2
CircleSize:3.5
OverallDifficulty:8.2
ApproachRate:9.7
SliderMultiplier:2
SliderTickRate:1

[Events]
//Background and Video events
//Break Periods
//Storyboard Layer 0 (Background)
//Storyboard Layer 1 (Fail)
//Storyboard Layer 2 (Pass)
//Storyboard Layer 3 (Foreground)
//Storyboard Sound Samples

[TimingPoints]
1386,338.983050847458,4,2,1,5,1,0
1386,-200,4,2,1,5,0,0
2063,-400,4,2,1,35,0,0
2487,-400,4,2,1,5,0,0
2572,-28.5714285714286,4,2,1,25,0,0
13589,-333.333333333333,4,2,1,70,0,0
14267,-25,4,2,1,70,0,0
14945,-166.666666666667,4,2,1,70,0,0
15623,-25,4,2,1,70,0,0
16131,-100,4,2,1,70,0,0
16979,-25,4,2,1,70,0,0
17402,-100,4,2,1,70,0,0
18335,-25,4,2,1,70,0,0
18674,-100,4,2,1,70,0,0
19352,-50,4,2,1,50,0,0
19691,-66.6666666666667,4,2,1,50,0,0
21555,-25,4,2,1,50,0,0
21724,-66.6666666666667,4,2,1,50,0,0
23080,-50,4,2,1,50,0,0
23758,-50,4,1,0,35,0,0
24436,-25,4,2,1,70,0,0
24606,-100,4,2,1,40,0,0
29691,-100,4,1,0,40,0,0
29860,-25,4,2,1,70,0,0
30030,-100,4,2,1,40,0,0
34606,-57.1428571428571,4,2,1,70,0,0
35114,-200,4,2,1,35,0,0
42402,-400,4,2,1,35,0,0
42911,-200,4,2,1,35,0,0
43758,-400,4,2,1,35,0,0
44267,-200,4,2,1,35,0,0
44775,-400,4,2,1,35,0,0
45623,-200,4,2,1,35,0,0
46470,-400,4,2,1,35,0,0
47487,-166.666666666667,4,2,1,70,0,0
47572,-166.666666666667,4,2,1,35,0,0
52911,-100,4,2,1,70,0,0
52996,-100,4,2,1,35,0,0
57657,-66.6666666666667,4,2,1,50,0,0
57996,-36.3636363636364,4,2,1,70,0,0
57996,-33.3333333333333,4,2,1,70,0,0
62402,-50,4,2,1,70,0,0
64267,-66.6666666666667,4,2,1,70,0,0
65792,-83.3333333333333,4,2,1,70,0,0
68504,-83.3333333333333,4,1,0,35,0,0
69182,-33.3333333333333,4,2,1,100,0,1
73928,-33.3333333333333,4,1,0,70,0,1
74606,-33.3333333333333,4,2,1,100,0,1
79352,-83.3333333333333,4,1,0,70,0,1
80030,-33.3333333333333,4,2,1,100,0,1
84775,-33.3333333333333,4,1,0,70,0,1
85453,-30.7692307692308,4,2,1,100,0,1
86131,-28.5714285714286,4,2,1,100,0,1
86809,-26.6666666666667,4,2,1,100,0,1
87487,-25,4,2,1,100,0,1
88165,-333.333333333333,4,2,1,50,0,0
89521,-333.333333333333,4,1,0,95,0,0
90877,-100,4,2,1,40,0,0
92233,-100,4,2,1,50,0,0
93589,-25,4,2,1,60,0,0
94606,-100,4,2,1,60,0,0
94945,-25,4,2,1,70,0,0
95623,-25,4,1,0,80,0,0
96131,-25,4,1,0,100,0,0

[HitObjects]
104,96,1386,6,0,P|132:141|239:207,1,175
213,164,2063,2,0,P|182:149|147:147,1,62.5,2|0,0:0|0:0,0:0:0:0:
125,156,2572,6,0,P|88:183|29:306,1,175.00000166893,2|0,0:0|0:0,0:0:0:0:
23,374,2741,5,4,3:0:0:0:
121,104,3419,1,0,0:0:0:0:
79,3,4097,1,0,0:0:0:0:
170,251,4775,1,2,0:0:0:0:
265,373,5453,5,0,0:0:0:0:
335,80,6131,1,0,0:0:0:0:
400,303,6809,1,0,0:0:0:0:
512,384,7487,1,2,0:0:0:0:
0,315,8165,5,0,1:0:0:0:
84,335,8843,1,0,0:0:0:0:
106,383,9521,1,0,0:0:0:0:
181,140,10199,1,0,0:0:0:0:
255,333,10877,5,0,0:0:0:0:
284,237,11555,1,0,0:0:0:0:
256,192,12233,12,0,13504,0:0:0:0:
366,221,13589,6,0,P|362:269|333:309,1,89.9999972534181,0|0,3:0|0:0,0:0:0:0:
155,334,14182,1,0,0:0:0:0:
36,206,14267,6,0,P|77:75|429:324,1,800,8|0,3:0|0:0,0:0:0:0:
139,1,14945,5,0,3:0:0:0:
139,1,15199,2,0,L|162:99,1,89.9999972534181,0|0,3:0|3:0,0:0:0:0:
247,224,15538,1,0,0:0:0:0:
393,328,15623,6,0,B|469:368|469:368|507:202|453:47|327:-2|161:-25|51:99|62:246,1,800,8|0,3:0|0:0,0:0:0:0:
318,16,16131,6,0,P|299:48|293:76,1,50,0|0,3:0|3:0,3:0:0:0:
459,35,16301,6,0,P|436:60|416:72,2,50,0|0|0,3:0|0:0|0:0,0:0:0:0:
506,118,16640,2,0,P|457:78|355:79,1,100,0|2,3:0|0:0,0:0:0:0:
454,292,16894,1,0,0:0:0:0:
273,373,16979,6,0,B|201:384|135:374|135:374|0:274|-20:73|86:-40|312:-59|439:46|386:181,1,800,8|0,3:0|0:0,0:0:0:0:
413,129,17402,6,0,P|425:160|429:188,1,50,0|0,3:0|3:0,3:0:0:0:
167,300,17657,5,0,3:0:0:0:
167,300,17826,2,0,L|190:255,1,50,0|0,0:0|3:0,0:0:0:0:
75,160,17996,2,0,L|188:185,1,100,0|0,0:0|3:0,0:0:0:0:
333,271,18250,1,0,0:0:0:0:
498,378,18335,6,0,P|501:224|96:52,1,600,8|0,3:0|0:0,0:0:0:0:
84,67,18674,6,0,P|49:116|36:225,1,150,0|0,3:0|0:0,0:0:0:0:
9,32,19013,5,4,0:3:0:0:
503,32,19352,1,2,0:0:0:0:
503,32,19521,2,0,L|401:56,1,100
454,126,19691,6,0,B|414:136|414:136|386:266,1,150.000005722046,0|2,3:0|0:0,0:0:0:0:
452,370,20030,1,0,0:0:0:0:
480,203,20199,1,2,0:0:0:0:
329,25,20369,6,0,L|353:274,2,225.000008583069,0|0|0,3:0|3:0|3:0,3:0:0:0:
392,79,21047,6,0,B|206:98|206:98|148:64,1,225.000008583069,0|0,3:0|0:0,0:0:0:0:
222,17,21386,1,2,0:0:0:0:
222,17,21555,6,2,P|247:89|147:160,1,200
25,275,21724,5,0,3:0:0:0:
25,275,21894,1,0,0:0:0:0:
11,125,22063,2,0,L|28:312,1,150.000005722046,2|0,0:0|0:0,0:0:0:0:
290,315,22402,5,0,3:0:0:0:
140,329,22572,1,0,0:0:0:0:
289,315,22741,2,0,L|140:329,1,150.000005722046,2|0,0:0|0:0,0:0:0:0:
312,134,23080,5,0,3:0:0:0:
303,34,23250,2,0,L|313:155,1,100,0|0,3:0|0:0,0:0:0:0:
323,230,23419,1,2,0:0:0:0:
323,230,23589,2,0,L|333:351,1,100,2|0,0:0|0:0,0:0:0:0:
512,384,23758,5,0,0:0:0:0:
512,384,23843,1,0,0:0:0:0:
512,384,23928,1,0,0:0:0:0:
512,384,24013,1,0,0:0:0:0:
512,384,24097,1,0,0:0:0:0:
512,384,24182,1,0,0:0:0:0:
512,384,24267,1,0,0:0:0:0:
512,384,24352,1,0,0:0:0:0:
512,384,24436,6,0,B|496:297|473:189|380:181|380:181|351:254|422:353,1,400,4|0,3:0|0:0,0:0:0:0:
397,313,24775,6,0,P|346:284|302:287,1,100,2|0,0:0|0:0,0:0:0:0:
449,234,25114,2,0,P|410:205|393:159,1,100,2|0,0:0|0:0,0:0:0:0:
305,285,25453,2,0,P|319:237|304:190,1,100,2|0,0:0|3:0,0:0:0:0:
393,159,25792,2,0,P|353:187|304:190,1,100,2|0,0:0|0:0,0:0:0:0:
303,189,26131,2,0,P|263:159|246:113,1,100,2|0,0:0|0:0,0:0:0:0:
305,285,26470,2,0,P|264:256|215:254,1,100,2|0,0:0|0:0,0:0:0:0:
157,330,26809,2,0,P|174:284|214:255,1,100,2|0,0:0|0:0,0:0:0:0:
258,70,27148,5,8,0:3:0:0:
258,70,27318,1,0,0:0:0:0:
310,140,27487,6,0,P|344:143|400:201,1,100,2|0,0:0|0:0,0:0:0:0:
262,221,27826,2,0,P|273:173|309:139,1,100,2|0,0:0|0:0,0:0:0:0:
262,221,28165,2,0,L|143:257,1,100,0|0,3:0|3:0,3:0:0:0:
393,184,28504,2,0,L|488:155,1,100,2|0,0:0|0:0,0:0:0:0:
342,252,28843,2,0,L|370:347,1,100,2|0,0:0|0:0,0:0:0:0:
309,139,29182,2,0,P|327:93|373:61,1,100,2|0,0:0|0:0,0:0:0:0:
488,54,29521,1,2,0:0:0:0:
488,54,29691,6,0,L|521:50,2,25
366,63,29860,6,0,B|215:75|215:75|185:114|185:114|149:80|149:80|-7:93,1,400,4|0,3:0|0:0,0:0:0:0:
0,92,30199,6,0,L|6:210,1,100,2|0,0:0|0:0,0:0:0:0:
94,168,30538,2,0,L|100:286,1,100,2|0,0:0|3:0,0:0:0:0:
184,111,30877,2,0,L|179:12,1,100,0|0,3:0|0:0,3:0:0:0:
249,196,31216,2,0,L|255:314,2,100,2|0|2,0:0|0:0|0:0,0:0:0:0:
324,74,31724,2,0,L|329:173,2,100,0|2|0,0:0|0:0|0:0,0:0:0:0:
403,253,32233,2,0,L|409:371,1,100,2|0,0:0|0:0,0:0:0:0:
161,376,32572,5,8,0:3:0:0:
161,376,32741,1,0,0:0:0:0:
94,316,32911,6,0,P|146:338|160:390,1,100,2|0,0:0|0:0,0:0:0:0:
160,256,33250,2,0,P|113:271|93:315,1,100,2|0,0:0|0:0,0:0:0:0:
93,196,33589,2,0,P|145:218|159:270,1,100,0|0,3:0|3:0,3:0:0:0:
159,255,33928,2,0,P|175:209|219:188,1,100,2|0,0:0|0:0,0:0:0:0:
188,161,34182,1,0,0:0:0:0:
219,188,34267,2,0,P|235:142|279:121,1,100,2|0,0:0|0:0,0:0:0:0:
248,94,34521,1,0,0:0:0:0:
279,121,34606,6,0,L|339:57,1,87.500000834465,2|0,0:0|0:0,0:0:0:0:
453,64,34775,2,0,L|513:0,1,87.500000834465,2|0,0:0|0:0,0:0:0:0:
466,205,34945,2,0,B|512:255|512:255|488:260,1,87.500000834465,2|0,0:0|0:0,0:0:0:0:
186,318,35114,1,4,3:0:0:0:
256,192,35199,12,0,36301,0:0:0:0:
256,240,36640,6,2,L|256:300,1,50
256,290,36979,1,2,0:0:0:0:
328,208,37318,6,2,L|370:250,1,50
328,208,37657,1,2,0:0:0:0:
148,243,37996,6,2,L|183:207,1,50
148,243,38335,1,2,0:0:0:0:
256,290,38674,6,2,L|256:240,1,50
256,240,39013,1,2,0:0:0:0:
184,158,39352,6,2,L|148:193,1,50
256,190,39691,1,2,0:0:0:0:
256,240,40030,6,2,L|256:190,1,50
148,193,40369,1,2,0:0:0:0:
148,193,40708,6,2,L|183:157,1,50
364,193,41047,1,2,0:0:0:0:
328,158,41386,6,2,L|370:200,1,50
256,240,41724,1,2,0:0:0:0:
256,140,42063,6,2,L|256:190,1,50
184,108,42402,2,2,L|148:143,1,50
328,108,42911,6,2,L|370:150,1,50
184,108,43419,2,2,L|148:143,1,50
256,190,43758,6,2,L|256:140,1,50
363,143,44267,2,2,L|327:107,1,50
184,158,44775,5,2,0:0:0:0:
184,158,44945,1,2,0:0:0:0:
148,193,45114,2,2,L|183:157,1,50
256,240,45623,6,2,L|256:190,1,50
256,190,46131,5,2,0:0:0:0:
256,190,46301,1,2,0:0:0:0:
328,158,46470,2,2,L|363:193,1,50
256,192,46894,12,0,47318,0:0:0:0:
228,192,47487,6,0,B|132:268|24:168|56:48|56:48|112:108|228:96|256:26|256:26|284:96|400:108|456:48|456:48|488:168|423:259|284:192|284:192|338:223|452:296|436:364|436:364|372:336|300:328|300:328|256:288|256:288|212:328|212:328|140:336|76:364|76:364|60:296|108:272|140:256,1,1859.99994323731,4|0,0:3|0:0,0:0:0:0:
256,383,52911,6,0,B|252:203|280:115|308:39|360:7|360:7|384:79|344:199|132:295|24:319|24:319|152:239|344:259|468:379|468:379|440:291|416:167|456:83|492:79|492:79|512:107|496:171|451:199|180:99|129:2|129:2|142:92|105:172|19:196,1,2400,8|0,0:3|0:0,0:0:0:0:
37,230,57318,6,0,P|8:206|1:190,1,50,2|0,0:0|0:0,0:0:0:0:
86,326,57487,2,0,P|50:339|29:340,1,50,2|0,0:0|0:0,0:0:0:0:
233,376,57657,6,0,P|263:344|277:306,1,75.0000028610231,2|0,0:0|0:0,0:0:0:0:
327,256,57826,2,0,P|319:212|297:178,1,75.0000028610231,2|0,0:0|0:0,0:0:0:0:
391,125,57996,6,0,B|391:69|399:53|417:32|417:32|431:25|442:24|452:33|458:43|458:60|449:71|426:64|418:57|416:44|423:27|423:27|446:7|485:-3|509:0,1,300.000011444092,0|0,1:0|0:0,0:0:0:0:
280,0,58335,6,0,P|194:0|143:28,1,137.500001311302,8|0,3:0|0:0,0:0:0:0:
70,107,58504,5,4,0:0:0:0:
61,133,58674,1,0,0:0:0:0:
289,182,58843,6,0,P|197:145|150:141,1,137.500001311302,8|0,3:0|0:0,0:0:0:0:
52,159,59013,5,4,0:0:0:0:
43,185,59182,1,0,0:0:0:0:
259,355,59352,6,0,P|186:279|150:261,1,137.500001311302,8|0,3:0|0:0,0:0:0:0:
34,211,59521,5,4,0:0:0:0:
280,377,59691,6,0,P|344:340|381:267,1,137.500001311302,8|0,3:0|0:0,0:0:0:0:
404,83,59860,5,4,0:0:0:0:
328,139,60030,1,0,0:0:0:0:
358,384,60199,6,0,P|400:323|403:241,1,137.500001311302,8|0,3:0|0:0,0:0:0:0:
317,45,60369,5,4,0:0:0:0:
328,139,60538,1,0,0:0:0:0:
431,357,60708,6,0,P|443:284|411:208,1,137.500001311302,8|0,3:0|0:0,0:0:0:0:
241,101,60877,5,4,0:0:0:0:
28,42,61047,6,0,P|135:38|190:56,1,137.500001311302,8|0,3:0|0:0,0:0:0:0:
251,126,61216,5,4,0:0:0:0:
260,152,61386,1,0,0:0:0:0:
474,94,61555,6,0,P|367:90|312:108,1,137.500001311302,8|0,3:0|0:0,0:0:0:0:
251,178,61725,5,4,0:0:0:0:
242,204,61894,1,0,0:0:0:0:
28,146,62063,6,0,P|135:142|190:160,1,137.500001311302,8|0,3:0|0:0,0:0:0:0:
251,230,62233,5,4,0:0:0:0:
434,372,62402,6,0,P|395:295|412:172,1,200,2|0,0:0|0:0,0:0:0:0:
433,168,62657,1,0,0:0:0:0:
379,245,62741,2,0,P|359:294|227:364,1,200,2|0,0:0|0:0,0:0:0:0:
74,295,62996,1,0,0:0:0:0:
41,378,63080,6,0,B|34:217|34:217|8:148|8:148|1:-19,1,400,4|2,0:0|0:0,0:0:0:0:
512,0,63758,5,0,1:0:0:0:
483,174,63928,1,2,0:0:0:0:
454,348,64097,1,2,0:0:0:0:
501,155,64267,6,0,L|273:217,1,225.000008583069,8|0,0:3|0:0,0:0:0:0:
255,241,64606,1,0,0:0:0:0:
66,10,64775,6,0,B|43:93|43:219|90:358|182:384|182:384|236:369|275:308|254:235,1,600.000022888185,4|0,0:3|0:0,0:0:0:0:
255,241,65792,6,0,B|283:190|341:166|423:167|423:167|386:217|384:331|468:381,1,419.999987182618,0|0,1:0|0:0,0:0:0:0:
488,262,66470,5,4,0:0:0:0:
256,192,66555,12,0,67826,0:0:0:0:
143,299,68504,6,0,L|122:324,6,29.9999990844727,0|0|0|0|0|0|0,1:0|1:0|1:0|1:0|1:0|1:0|1:0,1:0:0:0:
58,370,68843,2,0,L|-13:386,2,59.9999981689454,0|0|0,1:0|1:0|1:0,1:0:0:0:
143,299,69182,6,0,B|245:252|346:147|315:8|315:8|263:32|227:80,1,450.000017166138,4|0,3:0|0:0,0:0:0:0:
55,284,69521,1,0,3:0:0:0:
216,380,69691,1,0,3:0:0:0:
295,262,69860,6,0,B|266:147|216:66|84:4|84:4|73:70|110:151,1,450.000017166138,0|0,1:0|0:0,0:0:0:0:
436,300,70199,1,0,3:0:0:0:
505,193,70369,1,0,3:0:0:0:
326,206,70538,6,0,B|151:232|0:280|0:280|137:320,1,450.000017166138,0|0,1:0|0:0,0:0:0:0:
422,214,70877,1,0,3:0:0:0:
489,53,71047,1,0,3:0:0:0:
246,75,71216,6,0,B|178:126|131:253|180:383|180:383|238:348|258:272,1,450.000017166138,0|0,1:0|0:0,0:0:0:0:
437,72,71555,1,0,3:0:0:0:
268,0,71724,1,0,3:0:0:0:
37,123,71894,6,0,B|125:229|227:260|351:239|351:239|315:202|256:185,1,450.000017166138,4|0,3:0|0:0,0:0:0:0:
0,369,72233,1,0,3:0:0:0:
0,369,72402,1,0,3:0:0:0:
179,322,72572,6,0,B|297:207|322:31|322:31|255:82|226:129,1,450.000017166138,0|0,1:0|0:0,0:0:0:0:
403,372,72911,1,0,3:0:0:0:
403,372,73080,1,0,3:0:0:0:
359,217,73250,6,0,B|283:139|161:95|61:128|61:128|80:182|180:213,1,450.000017166138,0|0,1:0|0:0,0:0:0:0:
453,23,73589,1,0,3:0:0:0:
453,23,73758,1,0,3:0:0:0:
292,31,73928,6,0,P|210:85|182:148,1,150.000005722046,0|0,0:0|0:0,0:0:0:0:
216,321,74097,2,0,P|134:267|106:204,1,150.000005722046
473,136,74267,6,0,P|375:148|322:192,1,150.000005722046
277,363,74436,2,0,P|226:278|229:209,1,150.000005722046
499,267,74606,6,0,B|312:180|170:187|170:187|195:240|294:262,1,450.000017166138,4|0,3:0|0:0,0:0:0:0:
490,373,74945,1,0,3:0:0:0:
473,136,75114,1,0,3:0:0:0:
334,296,75284,6,0,B|350:174|334:84|276:-8|276:-8|231:64|256:163,1,450.000017166138,0|0,1:0|0:0,0:0:0:0:
195,334,75623,1,0,3:0:0:0:
404,359,75792,1,0,3:0:0:0:
137,273,75962,6,0,B|265:181|384:43|384:43|299:62|260:96,1,450.000017166138,0|0,1:0|0:0,0:0:0:0:
0,191,76301,1,0,3:0:0:0:
61,384,76470,1,0,3:0:0:0:
87,99,76640,6,0,B|202:209|323:290|377:299|377:299|363:234|322:210,1,450.000017166138,0|0,1:0|0:0,0:0:0:0:
161,17,76979,1,0,3:0:0:0:
0,191,77148,1,0,3:0:0:0:
299,0,77318,6,0,B|223:69|153:159|118:248|118:248|199:220|272:179,1,450.000017166138,4|0,0:0|0:0,0:0:0:0:
446,183,77657,6,0,B|356:132|249:93|153:87|153:87|205:156|267:212,1,450.000017166138,0|0,1:0|0:0,0:0:0:0:
317,379,77996,6,0,B|337:278|340:164|317:71|317:71|267:141|233:218,1,450.000017166138,4|0,0:0|0:0,0:0:0:0:
89,317,78335,6,0,B|191:305|300:273|381:222|381:222|299:196|216:187,1,450.000017166138,0|0,1:0|0:0,0:0:0:0:
73,88,78674,5,0,3:0:0:0:
438,295,78843,1,0,3:0:0:0:
167,1,79013,5,0,3:0:0:0:
345,383,79182,1,0,3:0:0:0:
305,43,79352,5,0,0:0:0:0:
305,43,79436,1,0,0:0:0:0:
305,43,79521,1,0,0:0:0:0:
305,43,79606,1,0,0:0:0:0:
305,43,79691,6,0,P|338:65|376:73,1,59.9999981689454
475,0,79860,2,0,P|446:10|422:27,1,59.9999981689454
321,180,80030,6,0,B|242:213|107:265|-15:216|-15:216|55:185|100:175,1,450.000017166138,4|0,3:0|0:0,0:0:0:0:
405,106,80369,1,0,3:0:0:0:
454,284,80538,1,0,3:0:0:0:
260,306,80708,6,0,B|185:256|119:169|96:53|114:27|114:27|174:60|222:108,1,450.000017166138,0|0,1:0|0:0,0:0:0:0:
375,264,81047,1,0,3:0:0:0:
231,384,81216,1,0,3:0:0:0:
101,272,81386,6,0,B|122:167|169:46|222:18|284:9|284:9|297:64|259:137,1,450.000017166138,0|0,1:0|0:0,0:0:0:0:
165,328,81724,1,0,3:0:0:0:
1,154,81894,1,0,3:0:0:0:
213,163,82063,6,0,B|295:168|427:201|501:292|511:334|511:334|445:330|400:293,1,450.000017166138,0|0,1:0|0:0,0:0:0:0:
171,240,82402,1,0,3:0:0:0:
151,45,82572,1,0,3:0:0:0:
253,242,82741,6,0,B|335:237|467:204|541:113|551:71|551:71|485:75|440:112,1,450.000017166138,4|0,3:0|0:0,0:0:0:0:
225,161,83080,1,0,3:0:0:0:
248,377,83250,1,0,3:0:0:0:
306,177,83419,6,0,B|264:81|185:25|112:27|5:55|5:55|45:91|99:104,1,450.000017166138,0|0,1:0|0:0,0:0:0:0:
363,251,83758,1,0,3:0:0:0:
481,84,83928,1,0,3:0:0:0:
290,22,84097,6,0,B|202:54|115:110|81:239|101:296|101:296|159:251|182:205,1,450.000017166138,0|0,1:0|0:0,0:0:0:0:
306,102,84436,1,0,3:0:0:0:
127,13,84606,1,0,3:0:0:0:
249,181,84775,6,0,P|331:185|417:136,1,150.000005722046
383,263,84945,2,0,P|460:297|512:365,1,150.000005722046
163,235,85114,6,0,P|186:150|230:100,1,150.000005722046
265,350,85284,2,0,P|367:284|389:250,1,150.000005722046
282,112,85453,6,0,B|161:153|82:234|52:349|52:349|106:343|182:274,1,487.500013947487,4|0,3:0|0:0,0:0:0:0:
482,157,85792,1,0,3:0:0:0:
482,157,85962,1,0,3:0:0:0:
262,106,86131,6,0,B|151:149|59:243|44:361|44:361|137:340|193:271,1,525.00000500679,0|0,1:0|0:0,0:0:0:0:
492,105,86470,1,0,3:0:0:0:
492,105,86640,1,0,3:0:0:0:
242,100,86809,6,0,B|132:148|35:264|37:373|37:373|154:350|212:261,1,562.500013411045,0|0,1:0|0:0,0:0:0:0:
502,53,87148,1,0,3:0:0:0:
502,53,87318,1,0,3:0:0:0:
222,94,87487,6,0,B|116:154|17:272|28:384|28:384|168:364|236:240,1,600,0|0,1:0|0:0,0:0:0:0:
512,1,87826,1,0,3:0:0:0:
512,1,87996,1,0,3:0:0:0:
149,21,88165,5,2,0:0:0:0:
149,21,88843,6,0,P|151:9|115:32,1,104.999996795654,2|0,0:0|0:0,0:0:0:0:
146,102,89521,5,0,0:0:0:0:
207,358,89691,1,0,0:0:0:0:
258,257,89860,5,0,0:0:0:0:
2,318,90030,1,0,0:0:0:0:
313,334,90199,5,0,0:0:0:0:
252,78,90369,1,0,0:0:0:0:
201,179,90538,5,0,0:0:0:0:
457,118,90708,1,0,0:0:0:0:
183,19,90877,5,0,3:0:0:0:
183,19,91216,1,0,3:0:0:0:
183,19,91555,2,0,P|169:93|156:28,1,200,8|0,3:0|3:0,3:0:0:0:
373,110,92233,5,0,3:0:0:0:
373,110,92572,1,0,3:0:0:0:
373,110,92911,2,0,P|387:184|400:119,1,200,8|0,3:0|3:0,3:0:0:0:
373,110,93419,1,0,3:0:0:0:
104,228,93589,5,0,3:0:0:0:
104,228,93928,1,0,3:0:0:0:
104,228,94267,2,0,P|90:302|77:237,2,200,8|0|0,3:0|3:0|3:0,3:0:0:0:
104,228,94606,6,0,P|110:203|108:179,2,50,0|0|0,3:0|3:0|3:0,3:0:0:0:
468,313,94945,5,0,3:0:0:0:
468,313,95114,1,0,3:0:0:0:
468,313,95284,1,0,3:0:0:0:
468,313,95453,1,0,3:0:0:0:
468,313,95623,2,0,P|482:387|495:322,5,200
486,238,96131,6,0,P|481:211|442:241,3,100
