osu file format v14

[General]
AudioFilename: audio.mp3
AudioLeadIn: 0
PreviewTime: 67650
Countdown: 0
SampleSet: Soft
StackLeniency: 0.6
Mode: 0
LetterboxInBreaks: 0
WidescreenStoryboard: 1

[Editor]
Bookmarks: 32660
DistanceSpacing: 1.8
BeatDivisor: 4
GridSize: 32
TimelineZoom: 1.9

[Metadata]
Title:Eiyuu Unmei no Uta
TitleUnicode:英雄 運命の詩
Artist:EGOIST
ArtistUnicode:EGOIST
Creator:Anxient
Version:Light Insane
Source:Fate/Apocrypha
Tags:Song of Heroes TYPE-MOON A-1 Pictures opening theme fser lowcombofc xexxar
BeatmapID:1364568
BeatmapSetID:639469

[Difficulty]
HPDrainRate:5
CircleSize:4
OverallDifficulty:7
ApproachRate:9
SliderMultiplier:1.3
SliderTickRate:1

[Events]
//Background and Video events
Video,469,"FATEOP.avi"
0,0,"BG.jpg",0,0
//Break Periods
2,2088,6711
2,7511,11457
//Storyboard Layer 0 (Background)
//Storyboard Layer 1 (Fail)
//Storyboard Layer 2 (Pass)
//Storyboard Layer 3 (Foreground)
//Storyboard Sound Samples

[TimingPoints]
533,338.983050847458,4,2,2,45,1,0
533,-133.333333333333,4,2,2,45,0,0
1888,338.983050847458,4,2,2,45,1,0
12057,-133.333333333333,4,2,2,45,0,0
12735,-100,4,2,2,45,0,0
13413,-83.3333333333333,4,2,2,45,0,0
23583,-83.3333333333333,4,2,3,65,0,0
35786,-133.333333333333,4,2,2,25,0,0
46633,-133.333333333333,4,2,2,55,0,0
56125,-133.333333333333,4,2,2,55,0,0
57481,-90.9090909090909,4,2,3,65,0,0
60193,-83.3333333333333,4,2,3,65,0,0
68328,-80,4,2,3,65,0,1
87989,-133.333333333333,4,2,3,65,0,0
89006,-80,4,2,3,65,0,0
90023,-100,4,2,3,65,0,0

[Colours]
Combo1 : 255,217,0
Combo2 : 200,192,185
Combo3 : 255,0,128
Combo4 : 164,164,0
Combo5 : 172,138,156

[HitObjects]
104,144,533,6,0,B|54:133|44:83|44:83|123:27|237:54,1,292.50001115799,0|0,0:0|0:0,0:0:0:0:
291,123,1719,1,0,0:0:0:0:
212,299,1888,5,6,0:0:0:0:
204,279,7311,5,4,3:0:0:0:
204,279,12057,6,0,P|254:268|398:274,1,195.00000743866,0|2,0:0|0:0,0:0:0:0:
459,338,12904,2,0,P|445:285|443:180,1,130,0|0,0:0|0:0,0:0:0:0:
326,16,13413,6,0,P|340:69|342:174,1,155.999995239258,14|8,0:0|3:0,0:0:0:0:
252,232,13921,1,8,3:0:0:0:
112,116,14091,2,0,L|236:107,2,116.999996429443,14|4|8,0:0|3:0|3:0,0:0:0:0:
50,295,14769,6,0,P|103:281|208:279,1,155.999995239258,6|0,0:0|3:0,0:0:0:0:
265,342,15277,1,4,3:0:0:0:
323,218,15447,2,0,L|447:209,2,116.999996429443,6|4|8,0:0|3:0|3:0,0:0:0:0:
459,338,16125,6,0,P|459:260|442:184,1,155.999995239258,6|0,0:0|3:0,0:0:0:0:
279,93,16633,1,8,3:0:0:0:
323,218,16803,2,0,L|447:209,2,116.999996429443,14|4|8,0:0|3:0|3:0,0:0:0:0:
265,342,17481,6,0,L|187:336,1,77.999997619629,14|0,0:0|0:0,0:0:0:0:
165,303,17735,1,4,3:0:0:0:
154,265,17820,2,0,P|156:226|162:187,1,77.999997619629,0|4,0:0|3:0,0:0:0:0:
189,105,18159,1,4,0:0:0:0:
189,105,18667,2,0,P|191:85|192:66,1,38.9999988098145,8|8,3:0|3:0,0:0:0:0:
102,78,18837,5,12,0:0:0:0:
279,93,19006,1,8,0:0:0:0:
127,199,19176,2,0,L|49:193,1,77.999997619629,8|8,0:0|0:0,0:0:0:0:
304,214,19515,6,0,L|428:205,2,116.999996429443,6|0|10,3:0|0:0|3:0,0:0:0:0:
187,336,20193,2,0,L|265:342,1,77.999997619629,4|0,0:0|0:0,0:0:0:0:
204,193,20532,2,0,L|126:199,1,77.999997619629,4|8,3:0|0:3,0:0:0:0:
0,251,20871,6,0,P|-1:173|26:69,1,155.999995239258,4|8,3:0|3:0,0:0:0:0:
126,198,21379,1,8,3:0:0:0:
143,62,21549,6,0,P|211:101|269:153,1,155.999995239258,4|8,3:0|0:3,0:0:0:0:
126,198,22057,1,4,0:3:0:0:
233,280,22226,6,0,P|166:321|92:345,1,155.999995239258,4|2,0:0|3:0,0:0:0:0:
126,198,22735,1,10,3:0:0:0:
269,153,22904,2,0,L|347:147,1,77.999997619629,6|10,3:0|3:0,0:0:0:0:
391,308,23243,2,0,L|469:314,1,77.999997619629,4|8,3:0|3:0,0:0:0:0:
504,86,23582,6,0,L|426:92,1,77.999997619629,12|2,3:0|0:0,0:0:0:0:
269,153,23921,2,0,L|347:147,1,77.999997619629,8|2,0:0|0:0,0:0:0:0:
388,269,24260,2,0,L|231:281,1,155.999995239258,8|8,0:0|0:0,0:0:0:0:
232,280,24769,1,2,0:0:0:0:
160,161,24938,6,0,P|162:123|182:90,1,77.999997619629,8|2,0:0|0:0,0:0:0:0:
91,266,25277,2,0,P|57:284|19:284,1,77.999997619629,8|2,0:0|0:0,0:0:0:0:
179,354,25616,2,0,P|233:372|287:352,1,116.999996429443,8|0,0:0|0:0,0:0:0:0:
317,328,25955,2,0,P|328:291|322:252,1,77.999997619629,8|10,0:0|3:0,0:0:0:0:
269,153,26294,6,0,L|347:147,1,77.999997619629,4|2,3:0|0:0,0:0:0:0:
503,262,26633,2,0,L|425:256,1,77.999997619629,8|2,0:0|0:0,0:0:0:0:
251,371,26972,2,0,L|407:359,1,155.999995239258,8|8,0:0|0:0,0:0:0:0:
406,359,27481,1,2,0:0:0:0:
409,196,27650,6,0,P|389:229|387:268,1,77.999997619629,8|2,0:0|0:0,0:0:0:0:
511,203,27989,2,0,P|508:164|488:131,1,77.999997619629,8|2,0:0|0:0,0:0:0:0:
373,37,28328,2,0,P|334:39|301:59,1,77.999997619629,8|10,0:0|0:0,0:0:0:0:
280,91,28582,1,0,0:0:0:0:
257,123,28667,2,0,P|218:120|185:100,1,77.999997619629,4|10,0:3|3:0,0:0:0:0:
54,0,29006,6,0,L|60:78,1,77.999997619629,12|2,0:0|0:0,0:0:0:0:
18,161,29345,2,0,L|24:239,1,77.999997619629,8|2,0:0|0:0,0:0:0:0:
149,313,29684,2,0,L|154:235,1,77.999997619629,8|2,0:0|0:0,0:0:0:0:
290,120,30023,2,0,L|282:236,1,116.999996429443,8|0,0:0|0:0,0:0:0:0:
295,274,30362,6,0,P|296:312|278:347,1,77.999997619629,8|2,0:0|0:0,0:0:0:0:
185,286,30701,2,0,P|183:247|201:212,1,77.999997619629,8|2,0:0|0:0,0:0:0:0:
339,172,31040,2,0,P|372:190|394:222,1,77.999997619629,8|2,0:0|0:0,0:0:0:0:
388,261,31294,1,0,0:0:0:0:
381,299,31379,1,8,0:0:0:0:
489,336,31549,1,10,3:0:0:0:
512,190,31718,6,0,L|506:112,1,77.999997619629,4|2,3:0|0:0,0:0:0:0:
333,94,32057,2,0,L|339:172,1,77.999997619629,8|2,0:0|0:0,0:0:0:0:
485,296,32396,2,0,P|408:279|331:280,1,155.999995239258,8|8,0:0|0:0,0:0:0:0:
278,347,32904,1,2,0:0:0:0:
201,212,33074,6,0,L|195:134,1,77.999997619629,8|2,0:0|0:0,0:0:0:0:
167,106,33328,1,8,3:0:0:0:
140,77,33413,1,8,0:0:0:0:
34,143,33582,1,2,0:0:0:0:
56,267,33752,2,0,L|52:318,2,51.999998413086,8|0|0,3:0|0:0|0:0,0:0:0:0:
166,314,34091,2,0,L|169:365,2,51.999998413086,8|2|0,3:0|0:0|0:0,0:0:0:0:
195,134,35786,6,0,L|354:121,1,146.250005578995,0|0,0:0|0:0,0:0:0:0:
418,187,36464,2,0,P|429:234|418:282,1,97.50000371933,0|0,0:0|0:0,0:0:0:0:
205,181,37142,6,0,P|196:158|194:133,2,48.750001859665,0|0|0,0:0|0:0|0:0,0:0:0:0:
129,249,37820,2,0,P|113:267|93:281,2,48.750001859665,0|0|0,0:0|0:0|0:0,0:0:0:0:
226,281,38498,6,0,P|272:295|307:328,1,97.50000371933,0|0,0:0|0:0,0:0:0:0:
307,328,39006,1,0,0:0:0:0:
418,282,39176,2,0,L|425:379,1,97.50000371933,2|0,0:0|0:0,0:0:0:0:
318,173,39854,6,0,L|310:75,2,97.50000371933,0|0|0,0:0|0:0|0:0,0:0:0:0:
236,125,41210,6,0,P|282:140|318:173,2,97.50000371933,0|0|0,0:0|0:0|0:0,0:0:0:0:
150,183,42057,2,0,L|153:231,1,48.750001859665,0|0,0:0|0:0,0:0:0:0:
160,335,42565,6,0,P|124:367|78:382,2,97.50000371933,0|0|0,0:0|0:0|0:0,0:0:0:0:
153,231,43413,2,0,L|109:209,1,48.750001859665,0|0,0:0|0:0,0:0:0:0:
109,209,43921,6,0,L|268:196,2,146.250005578995,0|0|0,0:0|0:0|0:0,0:0:0:0:
153,231,45277,2,0,L|298:242,1,146.250005578995,4|0,3:0|0:0,0:0:0:0:
298,242,45955,1,12,3:0:0:0:
323,277,46633,6,0,P|315:243|312:120,1,146.250005578995,12|0,3:0|0:0,0:0:0:0:
452,95,47311,2,0,P|447:143|437:191,1,97.50000371933,0|0,0:0|0:0,0:0:0:0:
437,191,47989,6,0,P|403:199|280:202,1,146.250005578995,0|0,0:0|0:0,0:0:0:0:
277,22,48667,2,0,P|325:26|373:36,1,97.50000371933,0|0,0:0|0:0,0:0:0:0:
354,64,49345,6,0,P|306:54|257:49,1,97.50000371933,0|0,0:0|0:0,0:0:0:0:
290,156,49853,2,0,P|218:142|145:143,1,146.250005578995
32,259,50701,2,0,P|56:263|79:268,1,48.750001859665
162,240,51040,2,0,P|186:236|210:231,2,48.750001859665
292,202,51888,5,0,0:0:0:0:
210,49,52057,2,0,P|162:54|114:64,2,97.50000371933,12|0|0,3:0|0:0|0:0,0:0:0:0:
210,49,53243,5,0,0:0:0:0:
309,79,53413,2,0,P|353:58|399:43,2,97.50000371933,2|2|2,0:0|0:0|0:0,0:0:0:0:
309,79,54769,6,0,P|308:152|321:223,1,146.250005578995,0|0,0:0|2:0,0:0:0:0:
414,180,55447,2,0,P|458:159|504:144,1,97.50000371933,0|0,0:0|0:0,0:0:0:0:
441,293,56125,6,0,P|369:279|296:280,1,146.250005578995,0|0,0:0|2:0,0:0:0:0:
183,365,56803,2,0,P|171:359|160:356,3,24.3750009298325
122,329,57142,2,0,P|110:332|99:337,2,24.3750009298325
91,164,57481,6,0,P|111:119|125:81,1,71.5000021820069,14|2,0:0|0:0,0:0:0:0:
196,174,57820,2,0,P|209:207|224:239,1,71.5000021820069,10|2,0:0|0:0,0:0:0:0:
372,120,58159,2,0,P|387:87|400:54,1,71.5000021820069,10|2,0:0|0:0,0:0:0:0:
293,44,58498,1,10,0:0:0:0:
347,263,58837,6,0,P|379:278|412:291,1,71.5000021820069,10|2,0:0|0:0,0:0:0:0:
429,278,59091,1,0,0:0:0:0:
446,264,59176,2,0,P|478:279|511:292,1,71.5000021820069,10|2,0:0|0:0,0:0:0:0:
342,147,59515,2,0,P|308:160|276:175,1,71.5000021820069,12|0,3:0|0:0,0:0:0:0:
202,301,59854,2,0,P|215:334|230:366,1,71.5000021820069,6|10,3:0|3:0,0:0:0:0:
152,169,60193,6,0,P|138:135|115:90,1,77.999997619629,4|2,0:3|0:0,0:0:0:0:
32,223,60532,2,0,P|14:257|0:293,1,77.999997619629,8|2,0:0|0:0,0:0:0:0:
140,297,60871,1,10,0:0:0:0:
98,384,61040,1,2,0:0:0:0:
280,300,61210,2,0,P|265:263|247:229,1,77.999997619629,10|2,0:0|0:0,0:0:0:0:
184,98,61549,6,0,P|166:132|151:168,1,77.999997619629,8|2,0:0|0:0,0:0:0:0:
372,120,61888,2,0,P|357:83|339:49,1,77.999997619629,8|2,0:0|0:0,0:0:0:0:
313,229,62226,2,0,P|295:263|280:299,1,77.999997619629,8|2,0:0|0:0,0:0:0:0:
501,251,62565,2,0,P|486:214|468:180,1,77.999997619629,4|0,3:0|0:0,0:0:0:0:
339,49,62904,6,0,P|357:83|372:120,1,77.999997619629,12|0,0:1|0:0,0:0:0:0:
184,98,63243,1,0,0:0:0:0:
312,228,63413,6,0,P|298:192|280:158,1,77.999997619629,12|0,3:0|0:0,0:0:0:0:
124,206,63752,1,8,0:0:0:0:
238,353,63921,2,0,B|264:338|264:338|159:298|64:314,1,233.999992858887,14|0,0:0|0:0,0:0:0:0:
64,314,64769,5,8,0:0:0:0:
124,206,64938,2,0,B|167:145|233:124|233:124|259:182|217:236,1,233.999992858887,4|0,0:0|0:0,0:0:0:0:
72,107,65616,6,0,P|57:70|39:36,1,77.999997619629,12|0,3:0|0:0,0:0:0:0:
267,56,65955,2,0,P|248:90|234:126,1,77.999997619629,8|2,0:0|0:0,0:0:0:0:
263,287,66294,2,0,P|248:250|230:216,1,77.999997619629,8|2,0:0|0:0,0:0:0:0:
64,314,66633,2,0,P|45:348|31:384,1,77.999997619629,4|0,3:0|0:0,0:0:0:0:
11,211,66972,5,12,3:0:0:0:
176,350,67650,1,0,0:0:0:0:
150,177,67989,2,0,P|131:211|117:247,1,77.999997619629,4|0,3:0|0:0,0:0:0:0:
176,350,68328,6,0,L|344:337,1,162.5,6|8,0:3|0:3,0:0:0:0:
414,276,68837,1,14,0:0:0:0:
326,130,69006,2,0,P|319:170|325:210,1,81.25,6|10,0:3|0:0,0:0:0:0:
423,165,69345,1,4,0:3:0:0:
423,165,69515,1,14,0:0:0:0:
304,27,69684,6,0,P|267:42|236:68,1,81.25,14|10,0:3|0:0,0:0:0:0:
166,189,70023,1,4,0:3:0:0:
166,189,70193,1,14,0:0:0:0:
26,162,70362,2,0,P|57:136|95:122,1,81.25,6|0,0:3|2:0,0:0:0:0:
132,273,70701,2,0,P|101:299|64:314,1,81.25,4|14,0:3|0:0,0:0:0:0:
256,170,71040,6,0,P|293:184|324:210,1,81.25,10|2,0:3|0:0,0:0:0:0:
348,354,71379,1,4,0:3:0:0:
348,354,71549,1,6,0:0:0:0:
462,262,71719,2,0,P|488:231|503:193,1,81.25,6|2,0:3|2:0,0:0:0:0:
396,48,72057,2,0,P|411:86|437:117,1,81.25,4|14,0:3|0:0,0:0:0:0:
324,210,72396,6,0,L|161:221,1,162.5,6|6,0:3|0:3,0:0:0:0:
95,304,72904,1,12,0:0:0:0:
75,150,73074,2,0,P|106:124|143:109,1,81.25,6|0,0:3|0:3,0:0:0:0:
267,183,73413,2,0,P|273:222|267:262,1,81.25,6|0,0:3|0:0,0:0:0:0:
161,221,73752,6,0,L|324:210,1,162.5,6|4,0:3|0:3,0:0:0:0:
391,293,74260,1,12,0:0:0:0:
427,112,74430,2,0,L|345:106,1,81.25,6|2,0:3|0:3,0:0:0:0:
161,141,74769,2,0,P|155:180|161:221,1,81.25,4|12,0:3|0:0,0:0:0:0:
247,81,75108,6,0,L|253:0,1,81.25,6|0,0:3|0:3,0:0:0:0:
52,115,75447,1,6,0:3:0:0:
52,115,75616,1,14,0:0:0:0:
161,220,75786,2,0,L|155:301,1,81.25,6|2,0:3|0:3,0:0:0:0:
357,143,76125,2,0,L|352:225,1,81.25,4|12,0:3|0:0,0:0:0:0:
332,384,76464,6,0,L|320:221,1,162.5,12|4,3:0|0:3,0:0:0:0:
320,221,76972,1,12,0:0:0:0:
461,97,77142,2,0,L|456:179,1,81.25,4|8,0:3|0:0,0:0:0:0:
469,384,77481,2,0,L|464:302,1,81.25,4|12,0:3|0:0,0:0:0:0:
362,104,77820,5,8,0:0:0:0:
362,104,77989,1,8,0:0:0:0:
229,178,78159,2,0,P|191:193|160:219,1,81.25,8|8,0:0|0:0,0:0:0:0:
51,61,78498,2,0,P|82:87|119:102,1,81.25,12|0,0:3|0:0,0:0:0:0:
245,274,78837,2,0,P|218:305|203:342,1,81.25,8|8,3:0|3:0,0:0:0:0:
160,219,79176,6,0,P|191:193|229:178,1,81.25,14|0,0:0|2:0,0:0:0:0:
395,260,79515,2,0,P|432:275|464:302,1,81.25,6|8,0:3|0:0,0:0:0:0:
334,152,79854,2,0,L|339:70,1,81.25,14|0,0:0|2:0,0:0:0:0:
480,58,80193,1,4,0:3:0:0:
480,58,80362,1,0,0:3:0:0:
475,208,80532,6,0,L|470:290,1,81.25,14|2,0:0|0:3,0:0:0:0:
350,384,80871,1,6,0:3:0:0:
350,384,81040,1,2,0:3:0:0:
245,274,81210,2,0,L|250:192,1,81.25,14|0,0:0|0:3,0:0:0:0:
144,82,81549,1,6,0:3:0:0:
144,82,81718,1,0,0:3:0:0:
66,190,81888,6,0,L|229:178,1,162.5,14|4,0:0|0:3,0:0:0:0:
134,281,82396,1,0,0:0:0:0:
269,360,82565,2,0,L|274:278,1,81.25,14|2,0:0|0:3,0:0:0:0:
373,145,82904,1,4,0:3:0:0:
373,145,83073,1,0,0:0:0:0:
228,178,83243,6,0,P|222:137|229:98,1,81.25,14|2,0:0|0:3,0:0:0:0:
336,21,83582,2,0,P|376:15|415:22,1,81.25,4|0,0:3|0:3,0:0:0:0:
503,169,83921,2,0,L|492:315,1,121.875,14|0,0:0|0:0,0:0:0:0:
479,328,84260,2,0,P|439:320|399:326,1,81.25,4|0,0:3|0:0,0:0:0:0:
269,360,84599,6,0,L|274:278,1,81.25,14|0,0:0|0:0,0:0:0:0:
154,205,84938,1,12,0:3:0:0:
154,205,85107,1,0,0:3:0:0:
21,335,85277,2,0,L|26:253,1,81.25,14|0,0:0|0:0,0:0:0:0:
15,52,85616,1,4,0:3:0:0:
15,52,85786,1,0,0:3:0:0:
150,203,85955,6,0,L|155:121,1,81.25,14|2,0:0|0:3,0:0:0:0:
297,184,86294,1,4,0:3:0:0:
303,289,86464,1,0,0:0:0:0:
337,90,86633,2,0,P|297:82|257:88,1,81.25,14|2,0:0|0:3,0:0:0:0:
411,183,86972,1,6,0:3:0:0:
303,289,87142,2,0,P|263:281|223:287,1,81.25,2|4,0:3|0:0,0:0:0:0:
35,316,87989,6,0,P|61:291|195:272,1,170.625006508827,0|0,0:0|0:0,0:0:0:0:
223,287,88667,1,4,0:3:0:0:
264,375,88837,1,4,0:3:0:0:
279,208,89006,2,0,P|241:193|200:191,1,81.25,4|4,0:3|0:3,0:0:0:0:
417,190,89345,5,4,0:3:0:0:
376,278,89515,1,4,0:3:0:0:
361,111,89684,2,0,P|398:96|439:94,1,81.25,4|0,0:3|0:0,0:0:0:0:
230,38,90023,6,0,B|175:26|130:40|130:40|130:58|166:64,1,130,4|8,0:0|0:0,0:0:0:0:
182,190,90532,1,0,0:0:0:0:
89,238,90701,2,0,P|76:182|87:150,1,65,8|0,0:0|0:0,0:0:0:0:
270,245,91040,2,0,P|228:284|194:290,1,65,10|0,0:0|0:0,0:0:0:0:
377,153,91379,6,0,P|431:169|454:195,1,65,8|0,0:0|0:0,0:0:0:0:
496,259,91718,2,0,P|468:275|436:279,1,65,8|0,0:0|0:0,0:0:0:0:
270,245,92057,2,0,L|279:374,1,130,8|10,0:0|0:0,0:0:0:0:
89,238,92735,5,8,0:0:0:0:
89,238,92904,1,2,0:0:0:0:
269,159,93074,2,0,P|300:163|328:179,1,65,8|2,0:0|0:0,0:0:0:0:
148,125,93413,5,8,0:0:0:0:
148,125,93582,1,2,0:0:0:0:
328,46,93752,2,0,P|359:50|387:66,1,65,8|2,0:0|0:0,0:0:0:0:
496,259,94091,6,0,P|464:263|436:279,1,65,4|4,0:3|0:3,0:0:0:0:
328,179,94430,2,0,P|296:183|268:199,1,65,4|4,0:3|0:3,0:0:0:0:
264,340,94769,2,0,P|232:335|204:319,1,65,14|10,0:3|0:0,0:0:0:0:
148,125,95108,5,0,0:0:0:0:
114,236,95277,1,0,0:0:0:0:
114,236,95447,1,0,0:0:0:0:
