osu file format v14

[General]
AudioFilename: audio.mp3
AudioLeadIn: 0
PreviewTime: -1
Countdown: 0
SampleSet: Normal
StackLeniency: 0.7
Mode: 1
LetterboxInBreaks: 0
WidescreenStoryboard: 0

[Editor]
Bookmarks: 1548,12395,23242,28666,34090,46293,57141,67988,78836,89683,95107
DistanceSpacing: 0.8
BeatDivisor: 4
GridSize: 32
TimelineZoom: 1.6

[Metadata]
Title:Eiyu Unmei no Uta
TitleUnicode:英雄 運命の詩
Artist:EGOIST
ArtistUnicode:EGOIST
Creator:Mrriichi
Version:Oni
Source:Fate/Apocrypha
Tags:
BeatmapID:1363010
BeatmapSetID:642938

[Difficulty]
HPDrainRate:5
CircleSize:5
OverallDifficulty:5
ApproachRate:5
SliderMultiplier:1.4
SliderTickRate:1

[Events]
//Background and Video events
0,0,"fat017-english.jpg",0,0
//Break Periods
2,1750,5773
//Storyboard Layer 0 (Background)
//Storyboard Layer 1 (Fail)
//Storyboard Layer 2 (Pass)
//Storyboard Layer 3 (Foreground)
//Storyboard Sound Samples

[TimingPoints]
1550,338.983050847458,4,1,0,75,1,0
13075,-100,4,1,0,75,0,1
23244,-100,4,1,0,75,0,0
67990,-100,4,1,0,75,0,1
86973,-100,4,1,0,75,0,0
88329,-100,4,1,0,75,0,1
89685,-100,4,1,0,75,0,0

[HitObjects]
128,224,1550,5,4,0:0:0:0:
320,192,6973,5,0,0:0:0:0:
256,288,11719,1,0,0:0:0:0:
256,288,11804,1,0,0:0:0:0:
256,288,11888,1,0,0:0:0:0:
256,288,11973,1,0,0:0:0:0:
256,288,12058,1,2,0:0:0:0:
256,288,12143,1,2,0:0:0:0:
256,288,12227,1,2,0:0:0:0:
256,288,12312,1,2,0:0:0:0:
256,288,12397,1,0,0:0:0:0:
256,192,12736,1,0,0:0:0:0:
256,192,12792,1,0,0:0:0:0:
256,192,12849,1,0,0:0:0:0:
256,192,12905,1,0,0:0:0:0:
224,256,13075,1,6,0:0:0:0:
224,256,13244,1,0,0:0:0:0:
224,256,13329,1,0,0:0:0:0:
224,256,13414,1,2,0:0:0:0:
224,256,13583,1,0,0:0:0:0:
256,192,13753,1,2,0:0:0:0:
256,192,13838,1,2,0:0:0:0:
256,192,13922,1,0,0:0:0:0:
256,192,14007,1,2,0:0:0:0:
256,192,14177,1,2,0:0:0:0:
256,192,14261,1,0,0:0:0:0:
224,256,14431,1,6,0:0:0:0:
224,256,14600,1,0,0:0:0:0:
224,256,14685,1,2,0:0:0:0:
224,256,14770,1,2,0:0:0:0:
224,256,14939,1,0,0:0:0:0:
224,256,15109,1,2,0:0:0:0:
224,224,15194,1,0,0:0:0:0:
224,256,15278,1,0,0:0:0:0:
224,256,15363,1,2,0:0:0:0:
224,256,15533,1,2,0:0:0:0:
224,256,15617,1,0,0:0:0:0:
224,256,15787,1,6,0:0:0:0:
288,224,15956,1,0,0:0:0:0:
288,224,16041,1,0,0:0:0:0:
288,224,16126,1,2,0:0:0:0:
288,224,16211,1,2,0:0:0:0:
288,224,16295,1,0,0:0:0:0:
288,224,16465,1,2,0:0:0:0:
288,224,16634,1,0,0:0:0:0:
288,224,16719,1,0,0:0:0:0:
288,224,16804,1,2,0:0:0:0:
288,224,16973,1,0,0:0:0:0:
288,224,17143,1,2,0:0:0:0:
288,224,17227,1,2,0:0:0:0:
288,224,17312,1,0,0:0:0:0:
288,224,17397,1,2,0:0:0:0:
288,224,17482,1,2,0:0:0:0:
288,224,17566,1,0,0:0:0:0:
288,224,17651,1,2,0:0:0:0:
288,224,17736,1,2,0:0:0:0:
288,224,17821,1,0,0:0:0:0:
288,224,17990,1,2,0:0:0:0:
288,224,18329,1,0,0:0:0:0:
288,224,18414,1,0,0:0:0:0:
288,224,18499,1,2,0:0:0:0:
288,224,18668,1,0,0:0:0:0:
256,224,18838,1,2,0:0:0:0:
256,224,18922,1,2,0:0:0:0:
256,224,19007,1,0,0:0:0:0:
256,224,19092,1,0,0:0:0:0:
256,224,19177,1,2,0:0:0:0:
256,224,19346,1,0,0:0:0:0:
256,224,19431,1,2,0:0:0:0:
256,224,19516,1,2,0:0:0:0:
256,224,19685,1,0,0:0:0:0:
256,224,19855,1,2,0:0:0:0:
256,224,19939,1,0,0:0:0:0:
256,224,20024,1,0,0:0:0:0:
256,224,20109,1,2,0:0:0:0:
256,224,20194,1,0,0:0:0:0:
256,224,20363,1,2,0:0:0:0:
320,192,20448,1,2,0:0:0:0:
416,160,20533,1,0,0:0:0:0:
96,224,20702,1,2,0:0:0:0:
288,224,21041,1,2,0:0:0:0:
288,224,21126,1,2,0:0:0:0:
288,224,21211,1,0,0:0:0:0:
288,224,21380,1,2,0:0:0:0:
256,224,21550,1,0,0:0:0:0:
256,224,21634,1,0,0:0:0:0:
256,224,21719,1,2,0:0:0:0:
256,224,21804,1,2,0:0:0:0:
256,224,21889,1,0,0:0:0:0:
256,224,22058,1,2,0:0:0:0:
256,224,22143,1,0,0:0:0:0:
256,224,22228,1,0,0:0:0:0:
256,224,22397,1,2,0:0:0:0:
256,224,22566,1,0,0:0:0:0:
256,224,22651,1,2,0:0:0:0:
256,224,22736,1,2,0:0:0:0:
256,224,22821,1,0,0:0:0:0:
256,224,22906,1,2,0:0:0:0:
256,224,23075,1,0,0:0:0:0:
320,192,23160,1,0,0:0:0:0:
416,160,23245,1,2,0:0:0:0:
320,288,23583,1,0,0:0:0:0:
320,288,23753,1,2,0:0:0:0:
320,288,23922,1,0,0:0:0:0:
320,192,24092,1,0,0:0:0:0:
320,256,24177,1,0,0:0:0:0:
320,288,24261,1,2,0:0:0:0:
320,288,24600,1,0,0:0:0:0:
320,288,24770,1,2,0:0:0:0:
320,288,24939,1,2,0:0:0:0:
320,288,25109,1,0,0:0:0:0:
320,288,25278,1,0,0:0:0:0:
320,288,25363,1,2,0:0:0:0:
320,288,25448,1,0,0:0:0:0:
320,288,25533,1,0,0:0:0:0:
320,288,25617,1,2,0:0:0:0:
320,288,25787,1,0,0:0:0:0:
320,288,25956,1,2,0:0:0:0:
160,192,26295,1,2,0:0:0:0:
160,192,26465,1,0,0:0:0:0:
160,192,26634,1,2,0:0:0:0:
352,256,26804,1,2,0:0:0:0:
352,256,26888,1,2,0:0:0:0:
160,192,26973,1,0,0:0:0:0:
320,256,27312,1,2,0:0:0:0:
320,224,27482,1,0,0:0:0:0:
320,224,27651,1,0,0:0:0:0:
320,224,27821,1,2,0:0:0:0:
320,224,27990,1,2,0:0:0:0:
320,224,28075,1,0,0:0:0:0:
320,224,28160,1,2,0:0:0:0:
320,224,28244,1,2,0:0:0:0:
320,224,28329,1,0,0:0:0:0:
320,224,28499,1,2,0:0:0:0:
320,224,28668,1,4,0:0:0:0:
320,288,29007,1,0,0:0:0:0:
320,288,29177,1,2,0:0:0:0:
320,288,29346,1,0,0:0:0:0:
320,192,29516,1,0,0:0:0:0:
320,256,29601,1,0,0:0:0:0:
320,288,29685,1,2,0:0:0:0:
64,160,29855,1,2,0:0:0:0:
320,288,30024,1,0,0:0:0:0:
320,288,30194,1,2,0:0:0:0:
320,192,30278,1,0,0:0:0:0:
320,288,30363,1,2,0:0:0:0:
320,288,30533,1,0,0:0:0:0:
320,288,30702,1,0,0:0:0:0:
320,288,30787,1,2,0:0:0:0:
320,288,30872,1,0,0:0:0:0:
320,288,30957,1,0,0:0:0:0:
320,288,31041,1,2,0:0:0:0:
320,288,31211,1,0,0:0:0:0:
320,288,31380,1,2,0:0:0:0:
160,192,31719,1,2,0:0:0:0:
160,192,31889,1,0,0:0:0:0:
160,192,32058,1,2,0:0:0:0:
352,256,32228,1,2,0:0:0:0:
352,256,32312,1,2,0:0:0:0:
160,192,32397,1,0,0:0:0:0:
320,192,32566,1,0,0:0:0:0:
320,256,32736,1,2,0:0:0:0:
320,224,32906,1,0,0:0:0:0:
352,256,32990,1,2,0:0:0:0:
320,224,33075,1,0,0:0:0:0:
320,224,33245,1,2,0:0:0:0:
320,224,33414,1,2,0:0:0:0:
320,224,33499,1,0,0:0:0:0:
320,224,33584,1,2,0:0:0:0:
320,224,33668,1,2,0:0:0:0:
320,224,33753,1,0,0:0:0:0:
320,224,33923,1,2,0:0:0:0:
256,192,34092,12,0,34770,0:0:0:0:
320,224,35448,5,0,0:0:0:0:
320,224,36804,1,2,0:0:0:0:
320,224,38160,1,0,0:0:0:0:
320,224,38838,1,2,0:0:0:0:
320,224,39516,1,0,0:0:0:0:
320,224,40872,1,2,0:0:0:0:
320,224,42227,1,0,0:0:0:0:
320,224,43583,1,2,0:0:0:0:
320,224,44261,1,0,0:0:0:0:
320,224,44939,1,2,0:0:0:0:
192,192,46295,1,4,0:0:0:0:
192,192,46973,1,2,0:0:0:0:
192,192,47651,1,0,0:0:0:0:
256,192,47990,1,2,0:0:0:0:
256,192,48329,1,0,0:0:0:0:
256,192,49007,1,2,0:0:0:0:
256,192,49685,1,0,0:0:0:0:
256,192,50363,1,2,0:0:0:0:
256,192,50702,1,0,0:0:0:0:
256,192,51041,1,2,0:0:0:0:
256,192,51719,1,0,0:0:0:0:
288,192,52397,1,2,0:0:0:0:
288,192,53075,1,0,0:0:0:0:
288,192,53414,1,0,0:0:0:0:
288,192,53753,1,2,0:0:0:0:
288,192,54431,1,2,0:0:0:0:
288,192,55109,1,0,0:0:0:0:
288,192,55787,1,2,0:0:0:0:
224,224,56465,1,0,0:0:0:0:
224,224,56550,1,0,0:0:0:0:
224,224,56634,1,0,0:0:0:0:
224,224,56719,1,0,0:0:0:0:
224,224,56804,1,2,0:0:0:0:
224,224,56888,1,2,0:0:0:0:
224,224,56973,1,2,0:0:0:0:
224,224,57058,1,2,0:0:0:0:
224,224,57143,1,0,0:0:0:0:
128,256,57312,1,2,0:0:0:0:
128,256,57397,1,0,0:0:0:0:
128,256,57482,1,0,0:0:0:0:
128,256,57651,1,2,0:0:0:0:
256,192,57821,1,0,0:0:0:0:
256,192,57877,1,2,0:0:0:0:
256,192,57934,1,2,0:0:0:0:
256,192,57990,1,0,0:0:0:0:
256,192,58160,1,2,0:0:0:0:
256,192,58499,1,2,0:0:0:0:
288,256,58668,1,0,0:0:0:0:
288,256,58753,1,0,0:0:0:0:
288,256,58838,1,2,0:0:0:0:
288,256,59007,1,0,0:0:0:0:
256,224,59177,1,2,0:0:0:0:
256,224,59261,1,0,0:0:0:0:
256,224,59346,1,2,0:0:0:0:
320,256,59431,1,2,0:0:0:0:
256,224,59516,1,0,0:0:0:0:
256,224,59685,1,2,0:0:0:0:
256,224,59770,1,0,0:0:0:0:
256,224,59855,1,2,0:0:0:0:
256,192,60194,1,2,0:0:0:0:
256,192,60363,1,0,0:0:0:0:
256,192,60533,1,2,0:0:0:0:
256,192,60617,1,2,0:0:0:0:
256,192,60702,1,0,0:0:0:0:
256,192,60787,1,0,0:0:0:0:
256,192,60872,1,2,0:0:0:0:
256,192,61041,1,0,0:0:0:0:
256,192,61211,1,2,0:0:0:0:
256,192,61380,1,0,0:0:0:0:
256,192,61465,1,0,0:0:0:0:
256,192,61550,1,2,0:0:0:0:
256,192,61719,1,0,0:0:0:0:
256,192,61888,1,0,0:0:0:0:
256,192,61973,1,2,0:0:0:0:
256,192,62058,1,0,0:0:0:0:
256,192,62143,1,0,0:0:0:0:
256,192,62227,1,2,0:0:0:0:
224,224,62566,1,2,0:0:0:0:
128,256,62735,1,0,0:0:0:0:
128,256,62820,1,2,0:0:0:0:
128,256,62905,1,2,0:0:0:0:
128,256,63074,1,0,0:0:0:0:
256,192,63244,1,2,0:0:0:0:
256,192,63300,1,0,0:0:0:0:
256,192,63357,1,0,0:0:0:0:
256,192,63413,1,2,0:0:0:0:
256,192,63583,1,0,0:0:0:0:
256,192,63922,1,0,0:0:0:0:
288,256,64091,1,2,0:0:0:0:
288,256,64176,1,2,0:0:0:0:
288,256,64261,1,0,0:0:0:0:
288,256,64430,1,2,0:0:0:0:
256,224,64600,1,0,0:0:0:0:
256,224,64684,1,2,0:0:0:0:
256,224,64770,1,0,0:0:0:0:
320,256,64854,1,0,0:0:0:0:
256,224,64939,1,2,0:0:0:0:
160,224,65109,1,2,0:0:0:0:
256,224,65278,1,0,0:0:0:0:
256,192,65447,1,2,0:0:0:0:
256,192,65532,1,2,0:0:0:0:
256,192,65617,1,0,0:0:0:0:
256,192,65786,1,2,0:0:0:0:
256,192,65956,1,0,0:0:0:0:
256,192,66040,1,0,0:0:0:0:
256,192,66125,1,2,0:0:0:0:
256,192,66211,1,2,0:0:0:0:
192,192,66295,1,0,0:0:0:0:
192,192,66380,1,2,0:0:0:0:
192,192,66465,1,0,0:0:0:0:
256,192,66634,12,0,67312,0:0:0:0:
256,224,67990,5,0,0:0:0:0:
256,224,68160,1,2,0:0:0:0:
192,192,68244,1,2,0:0:0:0:
320,288,68329,1,0,0:0:0:0:
320,288,68499,1,2,0:0:0:0:
320,288,68668,1,0,0:0:0:0:
128,224,68753,1,2,0:0:0:0:
320,288,68838,1,0,0:0:0:0:
192,224,68922,1,0,0:0:0:0:
192,224,69007,1,2,0:0:0:0:
192,224,69177,1,0,0:0:0:0:
224,224,69346,1,2,0:0:0:0:
224,224,69431,1,2,0:0:0:0:
224,224,69516,1,0,0:0:0:0:
224,224,69600,1,2,0:0:0:0:
224,224,69770,1,2,0:0:0:0:
224,224,69855,1,0,0:0:0:0:
288,224,70024,1,2,0:0:0:0:
96,192,70194,1,0,0:0:0:0:
96,192,70363,1,2,0:0:0:0:
96,192,70448,1,0,0:0:0:0:
96,192,70533,1,2,0:0:0:0:
128,192,70617,1,2,0:0:0:0:
96,192,70702,1,0,0:0:0:0:
352,256,70872,1,2,0:0:0:0:
352,256,71041,1,0,0:0:0:0:
192,224,71126,1,0,0:0:0:0:
352,256,71211,1,2,0:0:0:0:
352,256,71380,1,0,0:0:0:0:
352,256,71465,1,2,0:0:0:0:
352,256,71634,1,2,0:0:0:0:
352,256,71719,1,0,0:0:0:0:
256,224,71888,1,0,0:0:0:0:
256,224,72058,1,2,0:0:0:0:
256,224,72143,1,2,0:0:0:0:
256,224,72227,1,0,0:0:0:0:
192,224,72312,1,0,0:0:0:0:
256,224,72397,1,2,0:0:0:0:
256,224,72566,1,0,0:0:0:0:
256,224,72736,1,2,0:0:0:0:
256,224,72821,1,2,0:0:0:0:
192,192,72905,1,0,0:0:0:0:
288,224,72990,1,2,0:0:0:0:
288,224,73075,1,0,0:0:0:0:
256,224,73414,5,2,0:0:0:0:
256,224,73584,1,0,0:0:0:0:
192,192,73668,1,0,0:0:0:0:
320,288,73753,1,2,0:0:0:0:
320,288,73923,1,0,0:0:0:0:
320,288,74092,1,2,0:0:0:0:
128,224,74177,1,0,0:0:0:0:
320,288,74262,1,2,0:0:0:0:
192,224,74346,1,2,0:0:0:0:
192,224,74431,1,0,0:0:0:0:
192,224,74601,1,2,0:0:0:0:
224,224,74770,1,0,0:0:0:0:
224,224,74855,1,0,0:0:0:0:
224,224,74940,1,2,0:0:0:0:
224,224,75024,1,0,0:0:0:0:
224,224,75194,1,0,0:0:0:0:
224,224,75278,1,2,0:0:0:0:
224,224,75448,1,0,0:0:0:0:
96,192,75617,1,2,0:0:0:0:
96,192,75787,1,0,0:0:0:0:
96,192,75872,1,2,0:0:0:0:
96,192,75956,1,0,0:0:0:0:
288,288,76041,1,0,0:0:0:0:
96,192,76126,1,2,0:0:0:0:
352,256,76296,1,0,0:0:0:0:
352,256,76465,1,2,0:0:0:0:
192,224,76550,1,2,0:0:0:0:
352,256,76635,1,0,0:0:0:0:
352,256,76804,1,2,0:0:0:0:
224,192,76888,1,0,0:0:0:0:
224,192,77058,1,0,0:0:0:0:
224,192,77143,1,2,0:0:0:0:
224,192,77312,1,0,0:0:0:0:
224,192,77482,1,0,0:0:0:0:
224,192,77566,1,2,0:0:0:0:
224,192,77651,1,2,0:0:0:0:
224,192,77736,1,0,0:0:0:0:
224,192,77821,1,2,0:0:0:0:
224,192,77990,1,0,0:0:0:0:
288,224,78160,1,0,0:0:0:0:
288,224,78244,1,0,0:0:0:0:
288,224,78329,1,0,0:0:0:0:
288,224,78414,1,0,0:0:0:0:
288,224,78499,1,2,0:0:0:0:
288,224,78583,1,2,0:0:0:0:
288,224,78668,1,2,0:0:0:0:
288,224,78753,1,2,0:0:0:0:
256,224,78838,5,0,0:0:0:0:
256,224,79008,1,2,0:0:0:0:
192,192,79092,1,2,0:0:0:0:
320,288,79177,1,0,0:0:0:0:
320,288,79347,1,2,0:0:0:0:
320,288,79516,1,0,0:0:0:0:
128,224,79601,1,2,0:0:0:0:
320,288,79686,1,0,0:0:0:0:
192,224,79770,1,0,0:0:0:0:
192,224,79855,1,2,0:0:0:0:
192,224,80025,1,0,0:0:0:0:
224,224,80194,1,2,0:0:0:0:
224,224,80279,1,2,0:0:0:0:
224,224,80364,1,0,0:0:0:0:
224,224,80448,1,2,0:0:0:0:
224,224,80618,1,2,0:0:0:0:
224,224,80703,1,0,0:0:0:0:
256,160,80872,1,2,0:0:0:0:
96,192,81042,1,0,0:0:0:0:
256,192,81126,1,0,0:0:0:0:
96,192,81211,1,2,0:0:0:0:
96,192,81296,1,0,0:0:0:0:
96,192,81381,1,2,0:0:0:0:
256,160,81465,1,2,0:0:0:0:
96,192,81550,1,0,0:0:0:0:
352,256,81720,1,2,0:0:0:0:
352,256,81889,1,0,0:0:0:0:
192,224,81974,1,0,0:0:0:0:
352,256,82059,1,2,0:0:0:0:
352,256,82228,1,0,0:0:0:0:
352,256,82313,1,2,0:0:0:0:
352,256,82482,1,2,0:0:0:0:
352,256,82567,1,0,0:0:0:0:
256,224,82736,1,0,0:0:0:0:
256,224,82906,1,2,0:0:0:0:
256,224,82991,1,2,0:0:0:0:
256,224,83075,1,0,0:0:0:0:
192,224,83160,1,0,0:0:0:0:
256,224,83245,1,2,0:0:0:0:
256,224,83414,1,0,0:0:0:0:
224,192,83499,1,0,0:0:0:0:
256,224,83584,1,2,0:0:0:0:
256,224,83669,1,2,0:0:0:0:
192,192,83753,1,0,0:0:0:0:
192,192,83838,1,2,0:0:0:0:
256,224,83923,1,0,0:0:0:0:
256,224,84262,5,2,0:0:0:0:
256,224,84432,1,0,0:0:0:0:
192,192,84516,1,0,0:0:0:0:
320,288,84601,1,2,0:0:0:0:
320,288,84771,1,0,0:0:0:0:
320,288,84940,1,2,0:0:0:0:
128,224,85025,1,0,0:0:0:0:
320,288,85110,1,2,0:0:0:0:
192,224,85194,1,2,0:0:0:0:
192,224,85279,1,0,0:0:0:0:
192,224,85449,1,2,0:0:0:0:
224,224,85618,1,0,0:0:0:0:
224,224,85703,1,0,0:0:0:0:
224,224,85788,1,2,0:0:0:0:
224,224,85872,1,0,0:0:0:0:
224,224,86042,1,0,0:0:0:0:
224,224,86126,1,2,0:0:0:0:
256,192,86295,1,0,0:0:0:0:
96,192,86465,1,2,0:0:0:0:
256,192,86550,1,2,0:0:0:0:
96,192,86635,1,0,0:0:0:0:
96,192,86720,1,2,0:0:0:0:
224,224,86804,1,0,0:0:0:0:
224,224,86888,1,0,0:0:0:0:
96,192,86974,1,2,0:0:0:0:
320,192,87651,1,2,0:0:0:0:
320,192,88329,1,0,0:0:0:0:
224,192,88499,1,2,0:0:0:0:
224,192,88583,1,2,0:0:0:0:
224,192,88668,1,0,0:0:0:0:
224,192,88838,1,2,0:0:0:0:
224,192,89007,1,0,0:0:0:0:
224,192,89092,1,0,0:0:0:0:
224,192,89177,1,2,0:0:0:0:
224,192,89261,1,2,0:0:0:0:
224,192,89346,1,0,0:0:0:0:
224,192,89431,1,2,0:0:0:0:
224,192,89516,1,0,0:0:0:0:
224,192,89600,1,2,0:0:0:0:
224,192,89685,1,0,0:0:0:0:
256,256,90024,1,0,0:0:0:0:
256,256,90194,1,0,0:0:0:0:
256,192,90363,1,2,0:0:0:0:
256,192,90533,1,2,0:0:0:0:
192,192,90617,1,2,0:0:0:0:
256,256,90702,1,0,0:0:0:0:
256,192,90872,1,2,0:0:0:0:
256,192,91041,1,0,0:0:0:0:
256,256,91380,1,0,0:0:0:0:
256,256,91550,1,2,0:0:0:0:
256,256,91719,1,2,0:0:0:0:
256,192,91888,1,0,0:0:0:0:
192,192,91973,1,0,0:0:0:0:
256,192,92058,1,2,0:0:0:0:
256,192,92227,1,0,0:0:0:0:
256,256,92397,1,2,0:0:0:0:
256,256,92736,1,2,0:0:0:0:
256,256,92905,1,0,0:0:0:0:
256,256,93075,1,2,0:0:0:0:
256,192,93244,1,2,0:0:0:0:
192,192,93329,1,2,0:0:0:0:
256,256,93414,1,0,0:0:0:0:
256,192,93583,1,2,0:0:0:0:
192,256,93753,1,0,0:0:0:0:
192,256,93922,1,2,0:0:0:0:
192,256,94007,1,0,0:0:0:0:
192,256,94092,1,2,0:0:0:0:
192,256,94261,1,0,0:0:0:0:
192,256,94431,1,0,0:0:0:0:
192,256,94516,1,0,0:0:0:0:
192,256,94600,1,2,0:0:0:0:
192,256,94685,1,2,0:0:0:0:
192,256,94770,1,0,0:0:0:0:
192,256,94855,1,2,0:0:0:0:
192,256,94939,1,0,0:0:0:0:
