osu file format v14

[General]
AudioFilename: audio.mp3
AudioLeadIn: 0
PreviewTime: 53693
Countdown: 0
SampleSet: Soft
StackLeniency: 0.7
Mode: 0
LetterboxInBreaks: 0
WidescreenStoryboard: 0

[Editor]
DistanceSpacing: 1.2
BeatDivisor: 4
GridSize: 4
TimelineZoom: 1

[Metadata]
Title:Departures ~Anata ni Okuru Ai no Uta~
TitleUnicode:Departures ~あなたにおくるアイの歌~
Artist:EGOIST
ArtistUnicode:EGOIST
Creator:Modem
Version:Easy
Source:ギルティクラウン
Tags:ryo supercell ending guilty crown
BeatmapID:1082147
BeatmapSetID:508833

[Difficulty]
HPDrainRate:2
CircleSize:3
OverallDifficulty:2
ApproachRate:2
SliderMultiplier:1.4
SliderTickRate:1

[Events]
//Background and Video events
0,0,"bg.jpg",0,0
//Break Periods
2,81803,86709
2,127635,193376
//Storyboard Layer 0 (Background)
//Storyboard Layer 1 (Fail)
//Storyboard Layer 2 (Pass)
//Storyboard Layer 3 (Foreground)
//Storyboard Sound Samples

[TimingPoints]
1610,833.333333333333,4,2,1,100,1,0
66583,833.333333333333,4,2,1,100,1,0
68270,833.333333333333,4,2,1,100,1,0
79936,810.810810810811,4,2,1,100,1,0
81603,833.333333333333,4,2,1,100,1,0
237130,833.333333333333,4,2,1,100,1,0
237687,833.333333333333,4,2,1,100,1,0
238293,833.333333333333,4,2,1,100,1,0
239282,833.333333333333,4,2,1,100,1,0

[Colours]
Combo1 : 255,255,128
Combo2 : 255,255,128

[HitObjects]
144,296,1610,6,0,P|112:244|144:160,1,140
196,228,2859,1,0,0:0:0:0:
264,176,3276,2,0,B|312:188|312:188|408:172,1,140
443,99,4526,1,0,0:0:0:0:
368,60,4943,6,0,B|320:48|320:48|260:68|204:36,1,140
156,84,6193,1,0,0:0:0:0:
87,35,6609,2,0,P|74:108|141:168,1,140
212,292,8276,6,0,B|221:236|221:236|237:215|237:215|249:148,1,140
308,100,9526,1,0,0:0:0:0:
364,36,9943,2,0,P|392:96|360:168,1,140
336,240,11193,1,0,0:0:0:0:
380,312,11609,6,0,P|306:318|260:276,1,140
212,208,12859,1,0,0:0:0:0:
128,224,13276,1,0,0:0:0:0:
192,68,14109,2,0,L|272:88,1,70
332,40,14943,6,0,L|456:28,2,105
260,85,16609,2,0,B|245:129|264:165|264:165|248:237,1,140
184,272,17859,1,0,0:0:0:0:
120,216,18276,6,0,B|134:148|134:148,1,70
69,96,19109,2,0,P|97:72|141:64,1,70
212,84,19943,2,0,P|256:88|324:8,1,140
440,148,21609,5,0,0:0:0:0:
444,232,22026,2,0,B|470:252|457:274|457:274|408:250|361:274|361:274|278:248,1,210
208,116,24109,2,0,B|266:134|266:134,2,35
136,164,24943,6,0,B|90:186|40:168|40:168|60:220,1,140
20,284,26193,1,0,0:0:0:0:
76,348,26609,2,0,L|172:328,1,70
188,260,27443,2,0,L|276:276,1,70
304,344,28276,6,0,P|339:292|320:216,1,140
260,164,29526,1,0,0:0:0:0:
177,147,29943,2,0,P|210:95|299:89,1,140
404,200,31609,6,0,L|424:124,2,70
336,252,32859,1,0,0:0:0:0:
370,329,33276,2,0,P|321:335|286:318,1,70
224,360,34109,2,0,L|132:344,1,70
172,264,34943,6,0,P|212:230|154:227,1,140
88,277,36193,1,0,0:0:0:0:
35,343,36609,2,0,P|5:264|41:207,1,140
88,160,37859,1,0,0:0:0:0:
172,156,38276,6,0,L|292:180,2,105
126,84,39943,2,0,P|35:94|3:152,1,140
88,160,41193,1,0,0:0:0:0:
128,236,41609,6,0,L|224:255,1,70
256,312,42443,2,0,L|344:300,1,70
360,224,43276,2,0,P|352:160|432:100,1,140
244,44,44943,1,0,0:0:0:0:
180,100,45359,6,0,B|189:156|189:156|205:177|205:177|215:232,1,140
300,224,46609,6,0,B|287:145,1,70
360,104,47443,2,0,P|393:111|427:104,1,70
489,46,48276,2,0,P|504:140|459:184,1,140
356,284,49943,2,0,P|324:248|216:256,1,140
72,268,51609,6,0,B|92:200|60:152|60:152|116:144|136:92|136:92|180:104|172:160,1,280
240,284,54109,2,0,L|328:264,1,70
376,320,54943,2,0,B|352:279|365:236|365:236|376:185|341:147|341:147|402:124|406:54,1,280
244,132,57443,1,0,0:0:0:0:
108,36,58276,6,0,P|72:77|81:153,2,105
151,109,59943,2,0,B|167:193|167:193|215:249,1,140
312,108,61609,2,0,B|342:108|372:77|372:77|402:108|440:108,2,140
272,184,63693,1,0,0:0:0:0:
340,236,64109,2,0,L|436:216,1,70
478,270,64943,6,0,P|492:214|456:150,2,105
428,332,66583,2,0,L|359:317,1,70
288,272,67416,2,0,L|219:286,1,70
152,344,68270,6,0,P|132:300|172:211,1,140
228,164,69520,1,0,0:0:0:0:
292,108,69936,2,0,L|284:24,2,70
452,160,71603,6,0,B|424:216|424:216|457:251|448:308,1,140
364,278,72853,1,0,0:0:0:0:
286,312,73270,2,0,P|279:279|286:245,1,70
224,184,74103,2,0,B|260:111,1,70
200,56,74936,6,0,P|116:36|64:80,2,140
284,40,77020,1,0,0:0:0:0:
348,96,77436,2,0,L|436:84,1,70
452,164,78270,2,0,L|299:184,1,140
164,272,79936,2,0,P|128:212|156:128,1,140
272,36,81603,5,0,0:0:0:0:
272,36,88269,6,0,P|296:84|256:188,1,140
208,212,89519,1,0,0:0:0:0:
156,280,89936,2,0,P|124:224|159:142,1,140
292,72,91603,2,0,B|308:120|308:120|292:212,1,140
180,332,93269,2,0,P|164:280|72:256,1,140
24,196,94519,1,0,0:0:0:0:
88,140,94936,6,0,B|112:112|112:112|168:148|240:108,1,140
292,96,96186,1,0,0:0:0:0:
364,52,96603,2,0,P|367:136|309:181,1,140
300,252,97853,1,0,0:0:0:0:
220,224,98269,6,0,B|186:208|144:224|144:224|100:240|64:216,1,140
110,144,99519,1,0,0:0:0:0:
37,101,99936,2,0,P|89:62|174:89,1,140
252,212,101603,6,0,B|244:248|264:276|264:276|256:292|256:292|288:352,1,140
346,284,102853,1,0,0:0:0:0:
372,204,103269,2,0,B|335:136|335:136,1,70
305,65,104103,2,0,P|269:93|257:137,1,70
180,144,104936,6,0,P|132:92|43:109,1,140
100,170,106186,1,0,0:0:0:0:
44,232,106603,1,0,0:0:0:0:
192,312,107436,2,0,L|264:292,1,70
297,217,108269,6,0,P|338:261|336:329,2,105
217,188,109936,2,0,P|257:142|348:150,1,140
448,260,111602,2,0,B|432:324|432:324|400:360,2,105
371,224,113269,2,0,B|356:281|356:281|300:260|252:300,1,140
359,140,114936,6,0,P|399:144|444:182,2,70
248,264,116602,2,0,P|180:264|136:200,1,140
40,76,118269,6,0,B|92:92|92:92|148:72|204:104,1,140
252,128,119519,1,0,0:0:0:0:
292,54,119936,2,0,P|330:96|334:121,1,70
414,125,120769,2,0,P|399:160|346:188,1,70
304,224,121602,6,0,L|312:284,2,35
220,228,122436,2,0,L|229:300,1,70
152,332,123269,2,0,P|92:320|68:292,1,70
56,236,124102,1,0,0:0:0:0:
120,180,124519,1,0,0:0:0:0:
104,96,124936,6,0,B|88:56|88:56|148:76|208:44,1,140
264,32,126186,1,0,0:0:0:0:
316,100,126602,2,0,P|344:64|348:28,2,70
408,288,194936,6,0,B|396:232|424:192|424:192|400:144|432:92,1,175
