osu file format v14

[General]
AudioFilename: audio.mp3
AudioLeadIn: 0
PreviewTime: 42236
Countdown: 0
SampleSet: Soft
StackLeniency: 0.7
Mode: 3
LetterboxInBreaks: 0
SpecialStyle: 0
WidescreenStoryboard: 0

[Editor]
Bookmarks: 14316,42345,49353,52856,56360,84389,107163,112418,119426,147455
DistanceSpacing: 1
BeatDivisor: 3
GridSize: 32
TimelineZoom: 1.6

[Metadata]
Title:BANG!!!
TitleUnicode:BANG!!!
Artist:EGOIST
ArtistUnicode:EGOIST
Creator:arcwinolivirus
Version:4K LOST Rebuildcated (Chordjack Challange)
Source:ビルディバイド -#000000-
Tags:Build Divide: Code Black aniplex fantasy game fall 2021 anime opening theme osumania redeem reward mapping service #47 not_glass ln jack chordjack long note light swing rhythm
BeatmapID:3356776
BeatmapSetID:1644462

[Difficulty]
HPDrainRate:8
CircleSize:4
OverallDifficulty:8.5
ApproachRate:5
SliderMultiplier:1.4
SliderTickRate:1

[Events]
//Background and Video events
0,0,"bangBG.jpg",0,0
Video,0,"bangBGV.avi"
//Break Periods
//Storyboard Layer 0 (Background)
//Storyboard Layer 1 (Fail)
//Storyboard Layer 2 (Pass)
//Storyboard Layer 3 (Foreground)
//Storyboard Layer 4 (Overlay)
//Storyboard Sound Samples

[TimingPoints]
302,437.956204379562,4,2,1,10,1,0
56360,-100,4,2,1,10,0,1
69499,-100,4,2,1,10,0,0
70374,-100,4,2,1,10,0,1
82637,-100,4,2,1,10,0,0
136944,-100,4,2,1,10,0,1
145703,-100,4,2,1,10,0,0
161469,-100,4,2,1,10,0,1
173732,-100,4,2,1,10,0,0

[HitObjects]
448,192,7309,5,0,0:0:0:0:
320,192,7309,1,0,0:0:0:0:
64,192,7309,1,0,0:0:0:0:
192,192,7309,1,0,0:0:0:0:
192,192,7747,1,0,0:0:0:0:
448,192,7747,1,0,0:0:0:0:
64,192,7747,1,0,0:0:0:0:
64,192,8039,1,0,0:0:0:0:
320,192,8039,1,0,0:0:0:0:
448,192,8039,1,0,0:0:0:0:
192,192,8185,1,0,0:0:0:0:
448,192,8185,1,0,0:0:0:0:
64,192,8185,1,0,0:0:0:0:
320,192,8477,1,0,0:0:0:0:
192,192,8477,1,0,0:0:0:0:
448,192,8623,1,0,0:0:0:0:
64,192,8623,1,0,0:0:0:0:
320,192,8623,1,0,0:0:0:0:
192,192,8769,1,0,0:0:0:0:
448,192,8769,1,0,0:0:0:0:
64,192,8769,1,0,0:0:0:0:
320,192,8915,1,0,0:0:0:0:
192,192,8915,1,0,0:0:0:0:
448,192,8915,1,0,0:0:0:0:
64,192,9061,1,0,0:0:0:0:
192,192,9061,1,0,0:0:0:0:
448,192,9061,1,0,0:0:0:0:
320,192,9061,1,0,0:0:0:0:
448,192,9353,1,0,0:0:0:0:
320,192,9401,1,0,0:0:0:0:
192,192,9499,1,0,0:0:0:0:
64,192,9499,1,0,0:0:0:0:
320,192,9645,1,0,0:0:0:0:
192,192,9693,1,0,0:0:0:0:
448,192,9791,1,0,0:0:0:0:
320,192,9839,1,0,0:0:0:0:
192,192,9937,1,0,0:0:0:0:
64,192,9937,1,0,0:0:0:0:
448,192,9937,1,0,0:0:0:0:
448,192,10229,1,0,0:0:0:0:
64,192,10229,1,0,0:0:0:0:
320,192,10229,1,0,0:0:0:0:
192,192,10374,1,0,0:0:0:0:
448,192,10374,1,0,0:0:0:0:
64,192,10374,1,0,0:0:0:0:
320,192,10520,1,0,0:0:0:0:
64,192,10520,1,0,0:0:0:0:
192,192,10520,1,0,0:0:0:0:
192,192,10666,1,0,0:0:0:0:
448,192,10666,1,0,0:0:0:0:
320,192,10666,1,0,0:0:0:0:
320,192,10812,1,0,0:0:0:0:
192,192,10812,1,0,0:0:0:0:
448,192,10812,1,0,0:0:0:0:
64,192,10812,1,0,0:0:0:0:
64,192,11250,1,0,0:0:0:0:
320,192,11250,1,0,0:0:0:0:
448,192,11250,1,0,0:0:0:0:
320,192,11542,1,0,0:0:0:0:
192,192,11542,1,0,0:0:0:0:
64,192,11542,1,0,0:0:0:0:
448,192,11688,1,0,0:0:0:0:
64,192,11688,1,0,0:0:0:0:
192,192,11688,1,0,0:0:0:0:
448,192,11834,1,0,0:0:0:0:
320,192,11980,1,0,0:0:0:0:
192,192,11980,1,0,0:0:0:0:
448,192,12126,1,0,0:0:0:0:
64,192,12126,1,0,0:0:0:0:
320,192,12126,1,0,0:0:0:0:
64,192,12272,1,0,0:0:0:0:
192,192,12272,1,0,0:0:0:0:
320,192,12418,1,0,0:0:0:0:
192,192,12418,1,0,0:0:0:0:
320,192,12564,1,0,0:0:0:0:
448,192,12564,1,0,0:0:0:0:
64,192,12710,1,0,0:0:0:0:
192,192,12710,1,0,0:0:0:0:
448,192,13002,1,0,0:0:0:0:
320,192,13002,1,0,0:0:0:0:
64,192,13221,1,0,0:0:0:0:
192,192,13276,1,0,0:0:0:0:
448,192,13331,1,0,0:0:0:0:
320,192,13385,1,0,0:0:0:0:
64,192,13440,1,0,0:0:0:0:
192,192,13440,1,0,0:0:0:0:
448,192,13586,1,0,0:0:0:0:
320,192,13586,1,0,0:0:0:0:
192,192,13732,1,0,0:0:0:0:
64,192,13732,1,0,0:0:0:0:
448,192,13878,1,0,0:0:0:0:
320,192,13951,1,0,0:0:0:0:
64,192,14024,1,0,0:0:0:0:
192,192,14097,1,0,0:0:0:0:
320,192,14170,1,0,0:0:0:0:
64,192,14316,1,0,0:0:0:0:
192,192,14316,1,0,0:0:0:0:
448,192,14316,1,0,0:0:0:0:
320,192,14316,1,0,0:0:0:0:
448,192,14462,1,0,0:0:0:0:
64,192,14462,1,0,0:0:0:0:
320,192,14608,1,0,0:0:0:0:
192,192,14608,1,0,0:0:0:0:
448,192,14754,1,0,0:0:0:0:
320,192,14754,1,0,0:0:0:0:
64,192,14754,1,0,0:0:0:0:
192,192,14754,1,0,0:0:0:0:
192,192,15046,1,0,0:0:0:0:
320,192,15192,1,0,0:0:0:0:
448,192,15192,1,0,0:0:0:0:
64,192,15192,1,0,0:0:0:0:
192,192,15192,1,0,0:0:0:0:
320,192,15338,1,0,0:0:0:0:
448,192,15338,1,0,0:0:0:0:
192,192,15484,1,0,0:0:0:0:
64,192,15484,1,0,0:0:0:0:
64,192,15630,1,0,0:0:0:0:
192,192,15630,1,0,0:0:0:0:
448,192,15630,1,0,0:0:0:0:
320,192,15630,1,0,0:0:0:0:
320,192,15922,1,0,0:0:0:0:
192,192,16068,1,0,0:0:0:0:
64,192,16068,1,0,0:0:0:0:
448,192,16068,1,0,0:0:0:0:
320,192,16068,1,0,0:0:0:0:
320,192,16214,1,0,0:0:0:0:
64,192,16214,1,0,0:0:0:0:
192,192,16360,1,0,0:0:0:0:
448,192,16360,1,0,0:0:0:0:
192,192,16506,1,0,0:0:0:0:
320,192,16506,1,0,0:0:0:0:
64,192,16506,1,0,0:0:0:0:
448,192,16506,1,0,0:0:0:0:
448,192,16652,1,0,0:0:0:0:
320,192,16652,1,0,0:0:0:0:
64,192,16798,1,0,0:0:0:0:
192,192,16798,1,0,0:0:0:0:
448,192,16944,1,0,0:0:0:0:
320,192,16944,1,0,0:0:0:0:
64,192,16944,1,0,0:0:0:0:
192,192,16944,1,0,0:0:0:0:
192,192,17090,1,0,0:0:0:0:
448,192,17090,1,0,0:0:0:0:
320,192,17236,1,0,0:0:0:0:
64,192,17236,1,0,0:0:0:0:
320,192,17382,1,0,0:0:0:0:
192,192,17382,1,0,0:0:0:0:
448,192,17382,1,0,0:0:0:0:
64,192,17382,1,0,0:0:0:0:
192,192,17674,1,0,0:0:0:0:
320,192,17820,1,0,0:0:0:0:
448,192,17820,1,0,0:0:0:0:
64,192,17820,1,0,0:0:0:0:
192,192,17820,1,0,0:0:0:0:
320,192,17966,1,0,0:0:0:0:
448,192,17966,1,0,0:0:0:0:
64,192,18112,1,0,0:0:0:0:
192,192,18112,1,0,0:0:0:0:
64,192,18258,1,0,0:0:0:0:
320,192,18258,1,0,0:0:0:0:
448,192,18258,1,0,0:0:0:0:
192,192,18258,1,0,0:0:0:0:
320,192,18550,1,0,0:0:0:0:
192,192,18550,1,0,0:0:0:0:
448,192,18696,1,0,0:0:0:0:
320,192,18696,1,0,0:0:0:0:
64,192,18696,1,0,0:0:0:0:
192,192,18696,1,0,0:0:0:0:
192,192,18842,1,0,0:0:0:0:
448,192,18842,1,0,0:0:0:0:
320,192,18988,1,0,0:0:0:0:
64,192,18988,1,0,0:0:0:0:
64,192,19134,1,0,0:0:0:0:
192,192,19134,1,0,0:0:0:0:
448,192,19134,1,0,0:0:0:0:
320,192,19134,1,0,0:0:0:0:
320,192,19572,1,0,0:0:0:0:
64,192,19572,1,0,0:0:0:0:
448,192,19572,1,0,0:0:0:0:
192,192,19572,1,0,0:0:0:0:
64,192,19718,1,0,0:0:0:0:
192,192,19718,1,0,0:0:0:0:
448,192,19864,1,0,0:0:0:0:
320,192,19864,1,0,0:0:0:0:
448,192,20010,1,0,0:0:0:0:
192,192,20010,1,0,0:0:0:0:
64,192,20010,1,0,0:0:0:0:
320,192,20010,1,0,0:0:0:0:
320,192,20301,1,0,0:0:0:0:
448,192,20301,1,0,0:0:0:0:
192,192,20447,1,0,0:0:0:0:
64,192,20447,1,0,0:0:0:0:
448,192,20447,1,0,0:0:0:0:
320,192,20447,1,0,0:0:0:0:
320,192,20593,1,0,0:0:0:0:
192,192,20593,1,0,0:0:0:0:
64,192,20739,1,0,0:0:0:0:
448,192,20739,1,0,0:0:0:0:
64,192,20885,1,0,0:0:0:0:
320,192,20885,1,0,0:0:0:0:
192,192,20885,1,0,0:0:0:0:
448,192,20885,1,0,0:0:0:0:
320,192,21031,1,0,0:0:0:0:
192,192,21031,1,0,0:0:0:0:
320,192,21323,1,0,0:0:0:0:
192,192,21323,1,0,0:0:0:0:
448,192,21323,1,0,0:0:0:0:
64,192,21323,1,0,0:0:0:0:
320,192,21615,1,0,0:0:0:0:
448,192,21615,1,0,0:0:0:0:
320,192,21761,1,0,0:0:0:0:
192,192,21761,1,0,0:0:0:0:
64,192,21761,1,0,0:0:0:0:
448,192,21761,1,0,0:0:0:0:
64,192,22053,1,0,0:0:0:0:
192,192,22053,1,0,0:0:0:0:
192,192,22199,1,0,0:0:0:0:
64,192,22199,1,0,0:0:0:0:
448,192,22199,1,0,0:0:0:0:
320,192,22199,1,0,0:0:0:0:
192,192,22491,1,0,0:0:0:0:
320,192,22491,1,0,0:0:0:0:
448,192,22637,1,0,0:0:0:0:
64,192,22637,1,0,0:0:0:0:
320,192,22637,1,0,0:0:0:0:
192,192,22637,1,0,0:0:0:0:
64,192,22929,1,0,0:0:0:0:
448,192,22929,1,0,0:0:0:0:
448,192,23075,1,0,0:0:0:0:
320,192,23075,1,0,0:0:0:0:
192,192,23075,1,0,0:0:0:0:
64,192,23075,1,0,0:0:0:0:
192,192,23367,1,0,0:0:0:0:
448,192,23367,1,0,0:0:0:0:
320,192,23513,1,0,0:0:0:0:
448,192,23513,1,0,0:0:0:0:
64,192,23513,1,0,0:0:0:0:
192,192,23513,1,0,0:0:0:0:
192,192,23659,1,0,0:0:0:0:
64,192,23659,1,0,0:0:0:0:
320,192,23805,1,0,0:0:0:0:
448,192,23805,1,0,0:0:0:0:
448,192,23951,1,0,0:0:0:0:
192,192,23951,1,0,0:0:0:0:
64,192,23951,1,0,0:0:0:0:
320,192,23951,1,0,0:0:0:0:
192,192,24243,1,0,0:0:0:0:
320,192,24243,1,0,0:0:0:0:
320,192,24389,1,0,0:0:0:0:
64,192,24389,1,0,0:0:0:0:
192,192,24389,1,0,0:0:0:0:
448,192,24389,1,0,0:0:0:0:
64,192,24681,1,0,0:0:0:0:
192,192,24681,1,0,0:0:0:0:
448,192,24827,1,0,0:0:0:0:
192,192,24827,1,0,0:0:0:0:
320,192,24827,1,0,0:0:0:0:
64,192,24827,1,0,0:0:0:0:
320,192,24973,1,0,0:0:0:0:
192,192,25119,1,0,0:0:0:0:
448,192,25265,1,0,0:0:0:0:
64,192,25265,1,0,0:0:0:0:
320,192,25265,1,0,0:0:0:0:
192,192,25265,1,0,0:0:0:0:
192,192,25557,1,0,0:0:0:0:
64,192,25557,1,0,0:0:0:0:
64,192,25703,1,0,0:0:0:0:
448,192,25703,1,0,0:0:0:0:
320,192,25703,1,0,0:0:0:0:
192,192,25703,1,0,0:0:0:0:
192,192,25849,1,0,0:0:0:0:
448,192,25849,1,0,0:0:0:0:
320,192,25995,1,0,0:0:0:0:
64,192,25995,1,0,0:0:0:0:
192,192,26141,1,0,0:0:0:0:
64,192,26141,1,0,0:0:0:0:
320,192,26141,1,0,0:0:0:0:
448,192,26141,1,0,0:0:0:0:
320,192,26433,1,0,0:0:0:0:
192,192,26506,1,0,0:0:0:0:
448,192,26579,1,0,0:0:0:0:
320,192,26579,1,0,0:0:0:0:
64,192,26579,1,0,0:0:0:0:
192,192,26725,1,0,0:0:0:0:
64,192,26725,1,0,0:0:0:0:
320,192,26871,1,0,0:0:0:0:
448,192,26871,1,0,0:0:0:0:
192,192,27017,1,0,0:0:0:0:
448,192,27017,1,0,0:0:0:0:
64,192,27017,1,0,0:0:0:0:
320,192,27017,1,0,0:0:0:0:
192,192,27163,1,0,0:0:0:0:
64,192,27163,1,0,0:0:0:0:
320,192,27309,1,0,0:0:0:0:
448,192,27309,1,0,0:0:0:0:
192,192,27455,1,0,0:0:0:0:
64,192,27455,1,0,0:0:0:0:
448,192,27455,1,0,0:0:0:0:
320,192,27455,1,0,0:0:0:0:
64,192,27601,1,0,0:0:0:0:
320,192,27601,1,0,0:0:0:0:
192,192,27747,1,0,0:0:0:0:
448,192,27747,1,0,0:0:0:0:
448,192,27893,128,0,28185:0:0:0:0:
320,192,27893,128,0,28185:0:0:0:0:
192,192,27893,128,0,28185:0:0:0:0:
64,192,27893,128,0,28185:0:0:0:0:
320,192,28331,1,0,0:0:0:0:
448,192,28331,1,0,0:0:0:0:
192,192,28331,1,0,0:0:0:0:
64,192,28331,1,0,0:0:0:0:
448,192,28623,1,0,0:0:0:0:
64,192,28623,1,0,0:0:0:0:
448,192,28769,1,0,0:0:0:0:
192,192,28769,1,0,0:0:0:0:
320,192,28769,1,0,0:0:0:0:
64,192,28769,1,0,0:0:0:0:
64,192,29061,1,0,0:0:0:0:
320,192,29061,1,0,0:0:0:0:
320,192,29207,1,0,0:0:0:0:
64,192,29207,1,0,0:0:0:0:
192,192,29207,1,0,0:0:0:0:
448,192,29207,1,0,0:0:0:0:
192,192,29499,1,0,0:0:0:0:
448,192,29499,1,0,0:0:0:0:
192,192,29645,1,0,0:0:0:0:
64,192,29645,1,0,0:0:0:0:
320,192,29645,1,0,0:0:0:0:
448,192,29645,1,0,0:0:0:0:
320,192,29937,1,0,0:0:0:0:
192,192,29937,1,0,0:0:0:0:
320,192,30083,1,0,0:0:0:0:
64,192,30083,1,0,0:0:0:0:
448,192,30083,1,0,0:0:0:0:
192,192,30083,1,0,0:0:0:0:
64,192,30229,1,0,0:0:0:0:
192,192,30229,1,0,0:0:0:0:
320,192,30374,1,0,0:0:0:0:
448,192,30374,1,0,0:0:0:0:
448,192,30520,1,0,0:0:0:0:
192,192,30520,1,0,0:0:0:0:
64,192,30520,1,0,0:0:0:0:
320,192,30520,1,0,0:0:0:0:
448,192,30666,1,0,0:0:0:0:
320,192,30666,1,0,0:0:0:0:
192,192,30812,1,0,0:0:0:0:
64,192,30812,1,0,0:0:0:0:
448,192,30958,1,0,0:0:0:0:
320,192,30958,1,0,0:0:0:0:
64,192,30958,1,0,0:0:0:0:
192,192,30958,1,0,0:0:0:0:
192,192,31104,1,0,0:0:0:0:
64,192,31104,1,0,0:0:0:0:
320,192,31250,1,0,0:0:0:0:
448,192,31250,1,0,0:0:0:0:
448,192,31396,1,0,0:0:0:0:
192,192,31396,1,0,0:0:0:0:
64,192,31396,1,0,0:0:0:0:
320,192,31396,1,0,0:0:0:0:
64,192,31542,1,0,0:0:0:0:
192,192,31542,1,0,0:0:0:0:
448,192,31688,1,0,0:0:0:0:
320,192,31688,1,0,0:0:0:0:
64,192,31834,1,0,0:0:0:0:
320,192,31834,1,0,0:0:0:0:
448,192,31834,1,0,0:0:0:0:
192,192,31834,1,0,0:0:0:0:
320,192,32126,1,0,0:0:0:0:
448,192,32126,1,0,0:0:0:0:
64,192,32272,1,0,0:0:0:0:
448,192,32272,1,0,0:0:0:0:
320,192,32272,1,0,0:0:0:0:
192,192,32272,1,0,0:0:0:0:
192,192,32564,1,0,0:0:0:0:
64,192,32564,1,0,0:0:0:0:
192,192,32710,1,0,0:0:0:0:
448,192,32710,1,0,0:0:0:0:
320,192,32710,1,0,0:0:0:0:
64,192,32710,1,0,0:0:0:0:
448,192,33002,1,0,0:0:0:0:
320,192,33002,1,0,0:0:0:0:
192,192,33148,1,0,0:0:0:0:
64,192,33148,1,0,0:0:0:0:
448,192,33148,1,0,0:0:0:0:
320,192,33148,1,0,0:0:0:0:
320,192,33294,1,0,0:0:0:0:
192,192,33440,1,0,0:0:0:0:
320,192,33586,1,0,0:0:0:0:
448,192,33586,1,0,0:0:0:0:
64,192,33586,1,0,0:0:0:0:
192,192,33586,1,0,0:0:0:0:
192,192,33732,1,0,0:0:0:0:
448,192,33732,1,0,0:0:0:0:
320,192,33878,1,0,0:0:0:0:
64,192,33878,1,0,0:0:0:0:
64,192,34024,1,0,0:0:0:0:
192,192,34024,1,0,0:0:0:0:
448,192,34024,1,0,0:0:0:0:
320,192,34024,1,0,0:0:0:0:
320,192,34170,1,0,0:0:0:0:
192,192,34170,1,0,0:0:0:0:
448,192,34316,1,0,0:0:0:0:
64,192,34316,1,0,0:0:0:0:
192,192,34316,1,0,0:0:0:0:
64,192,34462,1,0,0:0:0:0:
320,192,34462,1,0,0:0:0:0:
448,192,34608,1,0,0:0:0:0:
192,192,34608,1,0,0:0:0:0:
320,192,34608,1,0,0:0:0:0:
448,192,34900,1,0,0:0:0:0:
64,192,34900,1,0,0:0:0:0:
320,192,34900,1,0,0:0:0:0:
192,192,34900,1,0,0:0:0:0:
64,192,35046,1,0,0:0:0:0:
192,192,35046,1,0,0:0:0:0:
320,192,35046,1,0,0:0:0:0:
320,192,35338,1,0,0:0:0:0:
64,192,35338,1,0,0:0:0:0:
448,192,35338,1,0,0:0:0:0:
192,192,35338,1,0,0:0:0:0:
320,192,35630,1,0,0:0:0:0:
448,192,35630,1,0,0:0:0:0:
192,192,35776,1,0,0:0:0:0:
64,192,35776,1,0,0:0:0:0:
448,192,35776,1,0,0:0:0:0:
320,192,35776,1,0,0:0:0:0:
192,192,36068,1,0,0:0:0:0:
64,192,36068,1,0,0:0:0:0:
448,192,36214,1,0,0:0:0:0:
320,192,36214,1,0,0:0:0:0:
192,192,36214,1,0,0:0:0:0:
64,192,36214,1,0,0:0:0:0:
192,192,36506,1,0,0:0:0:0:
320,192,36506,1,0,0:0:0:0:
320,192,36652,1,0,0:0:0:0:
448,192,36652,1,0,0:0:0:0:
192,192,36652,1,0,0:0:0:0:
64,192,36652,1,0,0:0:0:0:
320,192,36944,1,0,0:0:0:0:
448,192,36944,1,0,0:0:0:0:
192,192,37090,1,0,0:0:0:0:
64,192,37090,1,0,0:0:0:0:
448,192,37090,1,0,0:0:0:0:
320,192,37090,1,0,0:0:0:0:
448,192,37382,1,0,0:0:0:0:
192,192,37382,1,0,0:0:0:0:
64,192,37528,1,0,0:0:0:0:
192,192,37528,1,0,0:0:0:0:
320,192,37528,1,0,0:0:0:0:
448,192,37528,1,0,0:0:0:0:
320,192,37820,1,0,0:0:0:0:
64,192,37820,1,0,0:0:0:0:
192,192,37966,1,0,0:0:0:0:
320,192,37966,1,0,0:0:0:0:
64,192,37966,1,0,0:0:0:0:
448,192,37966,1,0,0:0:0:0:
320,192,38404,1,0,0:0:0:0:
192,192,38404,1,0,0:0:0:0:
64,192,38404,1,0,0:0:0:0:
448,192,38404,1,0,0:0:0:0:
320,192,38842,1,0,0:0:0:0:
192,192,38842,1,0,0:0:0:0:
64,192,38842,1,0,0:0:0:0:
448,192,38842,1,0,0:0:0:0:
320,192,39134,1,0,0:0:0:0:
448,192,39134,1,0,0:0:0:0:
192,192,39280,1,0,0:0:0:0:
64,192,39280,1,0,0:0:0:0:
320,192,39280,1,0,0:0:0:0:
448,192,39280,1,0,0:0:0:0:
448,192,39572,1,0,0:0:0:0:
320,192,39572,1,0,0:0:0:0:
448,192,39718,1,0,0:0:0:0:
320,192,39718,1,0,0:0:0:0:
64,192,39718,1,0,0:0:0:0:
192,192,39864,1,0,0:0:0:0:
64,192,39864,1,0,0:0:0:0:
448,192,39864,1,0,0:0:0:0:
320,192,40010,1,0,0:0:0:0:
192,192,40010,1,0,0:0:0:0:
448,192,40156,1,0,0:0:0:0:
64,192,40156,1,0,0:0:0:0:
320,192,40156,1,0,0:0:0:0:
192,192,40156,1,0,0:0:0:0:
320,192,40447,1,0,0:0:0:0:
192,192,40520,1,0,0:0:0:0:
320,192,40593,1,0,0:0:0:0:
448,192,40593,1,0,0:0:0:0:
64,192,40593,1,0,0:0:0:0:
192,192,40739,1,0,0:0:0:0:
448,192,40739,1,0,0:0:0:0:
320,192,40885,1,0,0:0:0:0:
64,192,40885,1,0,0:0:0:0:
64,192,41031,1,0,0:0:0:0:
448,192,41031,1,0,0:0:0:0:
192,192,41031,1,0,0:0:0:0:
320,192,41031,1,0,0:0:0:0:
320,192,41177,1,0,0:0:0:0:
448,192,41177,1,0,0:0:0:0:
192,192,41323,1,0,0:0:0:0:
64,192,41323,1,0,0:0:0:0:
320,192,41469,1,0,0:0:0:0:
64,192,41469,1,0,0:0:0:0:
192,192,41615,1,0,0:0:0:0:
448,192,41615,1,0,0:0:0:0:
320,192,41761,1,0,0:0:0:0:
448,192,41761,1,0,0:0:0:0:
448,192,41907,1,0,0:0:0:0:
320,192,41907,1,0,0:0:0:0:
64,192,41907,1,0,0:0:0:0:
192,192,41907,1,0,0:0:0:0:
64,192,42345,128,0,42637:0:0:0:0:
192,192,42345,128,0,42637:0:0:0:0:
320,192,42345,128,0,42637:0:0:0:0:
448,192,42345,128,0,42637:0:0:0:0:
192,192,42783,1,0,0:0:0:0:
64,192,42783,1,0,0:0:0:0:
320,192,42783,1,0,0:0:0:0:
64,192,42929,128,0,43075:0:0:0:0:
192,192,42929,128,0,43075:0:0:0:0:
320,192,42929,128,0,43075:0:0:0:0:
448,192,43221,1,0,0:0:0:0:
320,192,43221,1,0,0:0:0:0:
192,192,43221,1,0,0:0:0:0:
192,192,43367,128,0,43513:0:0:0:0:
320,192,43367,128,0,43513:0:0:0:0:
448,192,43367,128,0,43513:0:0:0:0:
448,192,43659,128,0,43951:0:0:0:0:
192,192,43659,128,0,43951:0:0:0:0:
320,192,43659,128,0,43951:0:0:0:0:
64,192,43659,128,0,43951:0:0:0:0:
448,192,44097,1,0,0:0:0:0:
320,192,44097,1,0,0:0:0:0:
192,192,44097,1,0,0:0:0:0:
192,192,44243,128,0,44389:0:0:0:0:
320,192,44243,128,0,44389:0:0:0:0:
448,192,44243,128,0,44389:0:0:0:0:
192,192,44535,1,0,0:0:0:0:
64,192,44535,1,0,0:0:0:0:
320,192,44535,1,0,0:0:0:0:
320,192,44681,128,0,44827:0:0:0:0:
192,192,44681,128,0,44827:0:0:0:0:
64,192,44681,128,0,44827:0:0:0:0:
448,192,44973,128,0,45265:0:0:0:0:
64,192,44973,128,0,45265:0:0:0:0:
192,192,44973,128,0,45265:0:0:0:0:
320,192,44973,128,0,45265:0:0:0:0:
320,192,45411,1,0,0:0:0:0:
64,192,45411,1,0,0:0:0:0:
448,192,45411,1,0,0:0:0:0:
192,192,45557,1,0,0:0:0:0:
448,192,45557,1,0,0:0:0:0:
320,192,45703,1,0,0:0:0:0:
64,192,45703,1,0,0:0:0:0:
192,192,45849,1,0,0:0:0:0:
448,192,45849,1,0,0:0:0:0:
64,192,45849,1,0,0:0:0:0:
320,192,45849,1,0,0:0:0:0:
448,192,46141,1,0,0:0:0:0:
64,192,46141,1,0,0:0:0:0:
448,192,46287,1,0,0:0:0:0:
192,192,46287,1,0,0:0:0:0:
320,192,46287,1,0,0:0:0:0:
320,192,46433,1,0,0:0:0:0:
64,192,46433,1,0,0:0:0:0:
192,192,46579,1,0,0:0:0:0:
448,192,46579,1,0,0:0:0:0:
320,192,46725,1,0,0:0:0:0:
64,192,46725,1,0,0:0:0:0:
192,192,46725,1,0,0:0:0:0:
448,192,46725,1,0,0:0:0:0:
320,192,46871,1,0,0:0:0:0:
192,192,47017,1,0,0:0:0:0:
448,192,47163,1,0,0:0:0:0:
192,192,47163,1,0,0:0:0:0:
320,192,47163,1,0,0:0:0:0:
64,192,47163,1,0,0:0:0:0:
448,192,47309,1,0,0:0:0:0:
64,192,47309,1,0,0:0:0:0:
320,192,47455,1,0,0:0:0:0:
192,192,47455,1,0,0:0:0:0:
320,192,47601,1,0,0:0:0:0:
64,192,47601,1,0,0:0:0:0:
448,192,47601,1,0,0:0:0:0:
192,192,47747,1,0,0:0:0:0:
448,192,47747,1,0,0:0:0:0:
192,192,47893,1,0,0:0:0:0:
320,192,47893,1,0,0:0:0:0:
64,192,47893,1,0,0:0:0:0:
448,192,48039,1,0,0:0:0:0:
64,192,48039,1,0,0:0:0:0:
320,192,48039,1,0,0:0:0:0:
64,192,48185,1,0,0:0:0:0:
192,192,48185,1,0,0:0:0:0:
448,192,48331,1,0,0:0:0:0:
320,192,48331,1,0,0:0:0:0:
192,192,48477,1,0,0:0:0:0:
448,192,48477,1,0,0:0:0:0:
64,192,48477,1,0,0:0:0:0:
320,192,48477,1,0,0:0:0:0:
192,192,48623,1,0,0:0:0:0:
64,192,48623,1,0,0:0:0:0:
320,192,48769,1,0,0:0:0:0:
192,192,48769,1,0,0:0:0:0:
320,192,48915,1,0,0:0:0:0:
448,192,48915,1,0,0:0:0:0:
192,192,49061,1,0,0:0:0:0:
448,192,49061,1,0,0:0:0:0:
320,192,49207,1,0,0:0:0:0:
64,192,49207,1,0,0:0:0:0:
64,192,49353,128,0,49645:0:0:0:0:
192,192,49353,128,0,49645:0:0:0:0:
448,192,49353,128,0,49645:0:0:0:0:
320,192,49353,128,0,49645:0:0:0:0:
448,192,49791,1,0,0:0:0:0:
320,192,49791,1,0,0:0:0:0:
192,192,49791,1,0,0:0:0:0:
192,192,49937,128,0,50083:0:0:0:0:
320,192,49937,128,0,50083:0:0:0:0:
448,192,49937,128,0,50083:0:0:0:0:
320,192,50229,1,0,0:0:0:0:
192,192,50229,1,0,0:0:0:0:
64,192,50229,1,0,0:0:0:0:
320,192,50374,128,0,50520:0:0:0:0:
192,192,50374,128,0,50520:0:0:0:0:
64,192,50374,128,0,50520:0:0:0:0:
64,192,50666,128,0,50958:0:0:0:0:
192,192,50666,128,0,50958:0:0:0:0:
320,192,50666,128,0,50958:0:0:0:0:
448,192,50666,128,0,50958:0:0:0:0:
320,192,51104,1,0,0:0:0:0:
64,192,51104,1,0,0:0:0:0:
192,192,51104,1,0,0:0:0:0:
320,192,51250,128,0,51396:0:0:0:0:
192,192,51250,128,0,51396:0:0:0:0:
64,192,51250,128,0,51396:0:0:0:0:
448,192,51542,1,0,0:0:0:0:
320,192,51542,1,0,0:0:0:0:
192,192,51542,1,0,0:0:0:0:
192,192,51688,128,0,51834:0:0:0:0:
320,192,51688,128,0,51834:0:0:0:0:
448,192,51688,128,0,51834:0:0:0:0:
320,192,51980,128,0,52272:0:0:0:0:
192,192,51980,128,0,52272:0:0:0:0:
64,192,51980,128,0,52272:0:0:0:0:
448,192,51980,128,0,52272:0:0:0:0:
64,192,52418,1,0,0:0:0:0:
192,192,52467,1,0,0:0:0:0:
448,192,52516,1,0,0:0:0:0:
320,192,52564,1,0,0:0:0:0:
192,192,52710,1,0,0:0:0:0:
320,192,52856,1,0,0:0:0:0:
192,192,52856,1,0,0:0:0:0:
64,192,52856,1,0,0:0:0:0:
448,192,52856,1,0,0:0:0:0:
320,192,53294,1,0,0:0:0:0:
192,192,53294,1,0,0:0:0:0:
448,192,53294,1,0,0:0:0:0:
320,192,53732,1,0,0:0:0:0:
64,192,53732,1,0,0:0:0:0:
192,192,53732,1,0,0:0:0:0:
320,192,53878,1,0,0:0:0:0:
192,192,53878,1,0,0:0:0:0:
448,192,53878,1,0,0:0:0:0:
448,192,54170,1,0,0:0:0:0:
320,192,54170,1,0,0:0:0:0:
64,192,54170,1,0,0:0:0:0:
448,192,54316,1,0,0:0:0:0:
320,192,54316,1,0,0:0:0:0:
192,192,54316,1,0,0:0:0:0:
192,192,54462,1,0,0:0:0:0:
64,192,54462,1,0,0:0:0:0:
320,192,54462,1,0,0:0:0:0:
64,192,54608,1,0,0:0:0:0:
192,192,54608,1,0,0:0:0:0:
448,192,54608,1,0,0:0:0:0:
320,192,54608,1,0,0:0:0:0:
448,192,55338,1,0,0:0:0:0:
320,192,55411,1,0,0:0:0:0:
192,192,55484,1,0,0:0:0:0:
64,192,55484,1,0,0:0:0:0:
320,192,55630,1,0,0:0:0:0:
192,192,55630,1,0,0:0:0:0:
320,192,55776,1,0,0:0:0:0:
448,192,55776,1,0,0:0:0:0:
448,192,55922,1,0,0:0:0:0:
192,192,55922,1,0,0:0:0:0:
320,192,56068,1,0,0:0:0:0:
64,192,56068,1,0,0:0:0:0:
192,192,56214,1,0,0:0:0:0:
64,192,56214,1,0,0:0:0:0:
192,192,56360,1,0,0:0:0:0:
320,192,56360,1,0,0:0:0:0:
448,192,56360,1,0,0:0:0:0:
64,192,56360,1,0,0:0:0:0:
448,192,56506,1,0,0:0:0:0:
320,192,56506,1,0,0:0:0:0:
192,192,56652,1,0,0:0:0:0:
64,192,56652,1,0,0:0:0:0:
448,192,56798,1,0,0:0:0:0:
320,192,56798,1,0,0:0:0:0:
192,192,56798,1,0,0:0:0:0:
64,192,56798,1,0,0:0:0:0:
448,192,56944,1,0,0:0:0:0:
320,192,57090,1,0,0:0:0:0:
192,192,57090,1,0,0:0:0:0:
64,192,57090,1,0,0:0:0:0:
192,192,57236,1,0,0:0:0:0:
448,192,57236,1,0,0:0:0:0:
320,192,57236,1,0,0:0:0:0:
64,192,57236,1,0,0:0:0:0:
320,192,57382,1,0,0:0:0:0:
448,192,57528,1,0,0:0:0:0:
192,192,57528,1,0,0:0:0:0:
64,192,57528,1,0,0:0:0:0:
320,192,57601,1,0,0:0:0:0:
192,192,57674,1,0,0:0:0:0:
64,192,57674,1,0,0:0:0:0:
448,192,57820,1,0,0:0:0:0:
320,192,57820,1,0,0:0:0:0:
192,192,57966,1,0,0:0:0:0:
64,192,57966,1,0,0:0:0:0:
320,192,58112,1,0,0:0:0:0:
448,192,58112,1,0,0:0:0:0:
64,192,58112,1,0,0:0:0:0:
192,192,58112,1,0,0:0:0:0:
448,192,58258,1,0,0:0:0:0:
64,192,58404,1,0,0:0:0:0:
320,192,58404,1,0,0:0:0:0:
192,192,58404,1,0,0:0:0:0:
448,192,58550,1,0,0:0:0:0:
320,192,58550,1,0,0:0:0:0:
64,192,58550,1,0,0:0:0:0:
192,192,58550,1,0,0:0:0:0:
320,192,58696,1,0,0:0:0:0:
448,192,58696,1,0,0:0:0:0:
192,192,58696,1,0,0:0:0:0:
448,192,58842,1,0,0:0:0:0:
64,192,58842,1,0,0:0:0:0:
320,192,58842,1,0,0:0:0:0:
192,192,58988,1,0,0:0:0:0:
448,192,58988,1,0,0:0:0:0:
320,192,58988,1,0,0:0:0:0:
64,192,58988,1,0,0:0:0:0:
192,192,59134,1,0,0:0:0:0:
320,192,59280,1,0,0:0:0:0:
448,192,59280,1,0,0:0:0:0:
64,192,59426,1,0,0:0:0:0:
448,192,59426,1,0,0:0:0:0:
320,192,59426,1,0,0:0:0:0:
192,192,59426,1,0,0:0:0:0:
64,192,59572,1,0,0:0:0:0:
192,192,59572,1,0,0:0:0:0:
320,192,59572,1,0,0:0:0:0:
192,192,59718,1,0,0:0:0:0:
64,192,59718,1,0,0:0:0:0:
448,192,59718,1,0,0:0:0:0:
320,192,59864,1,0,0:0:0:0:
192,192,59864,1,0,0:0:0:0:
64,192,59864,1,0,0:0:0:0:
448,192,59864,1,0,0:0:0:0:
320,192,60010,1,0,0:0:0:0:
448,192,60010,1,0,0:0:0:0:
192,192,60156,1,0,0:0:0:0:
64,192,60156,1,0,0:0:0:0:
320,192,60301,1,0,0:0:0:0:
192,192,60301,1,0,0:0:0:0:
64,192,60301,1,0,0:0:0:0:
448,192,60301,1,0,0:0:0:0:
64,192,60447,1,0,0:0:0:0:
448,192,60593,1,0,0:0:0:0:
320,192,60593,1,0,0:0:0:0:
192,192,60593,1,0,0:0:0:0:
320,192,60739,1,0,0:0:0:0:
192,192,60739,1,0,0:0:0:0:
64,192,60739,1,0,0:0:0:0:
448,192,60739,1,0,0:0:0:0:
192,192,60885,1,0,0:0:0:0:
64,192,61031,1,0,0:0:0:0:
448,192,61031,1,0,0:0:0:0:
320,192,61031,1,0,0:0:0:0:
192,192,61104,1,0,0:0:0:0:
320,192,61177,1,0,0:0:0:0:
448,192,61177,1,0,0:0:0:0:
192,192,61323,1,0,0:0:0:0:
64,192,61323,1,0,0:0:0:0:
448,192,61469,1,0,0:0:0:0:
320,192,61469,1,0,0:0:0:0:
64,192,61615,1,0,0:0:0:0:
192,192,61615,1,0,0:0:0:0:
448,192,61615,1,0,0:0:0:0:
320,192,61615,1,0,0:0:0:0:
64,192,61834,128,0,61944:0:0:0:0:
192,192,61834,128,0,61944:0:0:0:0:
320,192,61834,128,0,61944:0:0:0:0:
192,192,62053,1,0,0:0:0:0:
64,192,62053,1,0,0:0:0:0:
448,192,62053,1,0,0:0:0:0:
320,192,62053,1,0,0:0:0:0:
192,192,62272,128,0,62382:0:0:0:0:
320,192,62272,128,0,62382:0:0:0:0:
448,192,62272,128,0,62382:0:0:0:0:
192,192,62491,1,0,0:0:0:0:
64,192,62491,1,0,0:0:0:0:
448,192,62491,1,0,0:0:0:0:
320,192,62491,1,0,0:0:0:0:
320,192,62637,1,0,0:0:0:0:
64,192,62637,1,0,0:0:0:0:
192,192,62637,1,0,0:0:0:0:
192,192,62783,1,0,0:0:0:0:
448,192,62783,1,0,0:0:0:0:
320,192,62783,1,0,0:0:0:0:
448,192,62929,1,0,0:0:0:0:
320,192,62929,1,0,0:0:0:0:
64,192,62929,1,0,0:0:0:0:
192,192,63075,1,0,0:0:0:0:
64,192,63075,1,0,0:0:0:0:
448,192,63075,1,0,0:0:0:0:
320,192,63221,1,0,0:0:0:0:
64,192,63221,1,0,0:0:0:0:
192,192,63221,1,0,0:0:0:0:
320,192,63367,1,0,0:0:0:0:
192,192,63367,1,0,0:0:0:0:
64,192,63367,1,0,0:0:0:0:
448,192,63367,1,0,0:0:0:0:
320,192,63513,1,0,0:0:0:0:
448,192,63513,1,0,0:0:0:0:
192,192,63659,1,0,0:0:0:0:
64,192,63659,1,0,0:0:0:0:
64,192,63805,1,0,0:0:0:0:
192,192,63805,1,0,0:0:0:0:
320,192,63805,1,0,0:0:0:0:
448,192,63805,1,0,0:0:0:0:
192,192,63951,1,0,0:0:0:0:
448,192,64097,1,0,0:0:0:0:
320,192,64097,1,0,0:0:0:0:
64,192,64097,1,0,0:0:0:0:
64,192,64243,1,0,0:0:0:0:
192,192,64243,1,0,0:0:0:0:
448,192,64243,1,0,0:0:0:0:
320,192,64243,1,0,0:0:0:0:
320,192,64389,1,0,0:0:0:0:
448,192,64535,1,0,0:0:0:0:
192,192,64535,1,0,0:0:0:0:
64,192,64535,1,0,0:0:0:0:
320,192,64608,1,0,0:0:0:0:
192,192,64681,1,0,0:0:0:0:
64,192,64681,1,0,0:0:0:0:
448,192,64827,1,0,0:0:0:0:
320,192,64827,1,0,0:0:0:0:
448,192,64973,1,0,0:0:0:0:
320,192,64973,1,0,0:0:0:0:
192,192,64973,1,0,0:0:0:0:
192,192,65119,1,0,0:0:0:0:
64,192,65119,1,0,0:0:0:0:
448,192,65119,1,0,0:0:0:0:
320,192,65119,1,0,0:0:0:0:
64,192,65265,1,0,0:0:0:0:
448,192,65411,1,0,0:0:0:0:
320,192,65411,1,0,0:0:0:0:
448,192,65557,1,0,0:0:0:0:
320,192,65557,1,0,0:0:0:0:
64,192,65557,1,0,0:0:0:0:
192,192,65557,1,0,0:0:0:0:
192,192,65703,1,0,0:0:0:0:
320,192,65703,1,0,0:0:0:0:
64,192,65703,1,0,0:0:0:0:
192,192,65849,1,0,0:0:0:0:
64,192,65849,1,0,0:0:0:0:
448,192,65849,1,0,0:0:0:0:
192,192,65995,1,0,0:0:0:0:
448,192,65995,1,0,0:0:0:0:
320,192,65995,1,0,0:0:0:0:
64,192,65995,1,0,0:0:0:0:
320,192,66141,1,0,0:0:0:0:
192,192,66287,1,0,0:0:0:0:
64,192,66287,1,0,0:0:0:0:
448,192,66287,1,0,0:0:0:0:
448,192,66433,1,0,0:0:0:0:
64,192,66433,1,0,0:0:0:0:
320,192,66433,1,0,0:0:0:0:
192,192,66433,1,0,0:0:0:0:
320,192,66579,1,0,0:0:0:0:
448,192,66579,1,0,0:0:0:0:
64,192,66579,1,0,0:0:0:0:
448,192,66725,1,0,0:0:0:0:
320,192,66725,1,0,0:0:0:0:
192,192,66725,1,0,0:0:0:0:
64,192,66871,1,0,0:0:0:0:
320,192,66871,1,0,0:0:0:0:
192,192,66871,1,0,0:0:0:0:
448,192,66871,1,0,0:0:0:0:
192,192,67017,1,0,0:0:0:0:
320,192,67163,1,0,0:0:0:0:
64,192,67163,1,0,0:0:0:0:
64,192,67309,1,0,0:0:0:0:
192,192,67309,1,0,0:0:0:0:
320,192,67309,1,0,0:0:0:0:
448,192,67309,1,0,0:0:0:0:
448,192,67455,1,0,0:0:0:0:
320,192,67601,1,0,0:0:0:0:
64,192,67601,1,0,0:0:0:0:
192,192,67601,1,0,0:0:0:0:
448,192,67747,1,0,0:0:0:0:
192,192,67747,1,0,0:0:0:0:
320,192,67747,1,0,0:0:0:0:
64,192,67747,1,0,0:0:0:0:
192,192,67893,1,0,0:0:0:0:
448,192,68039,1,0,0:0:0:0:
64,192,68039,1,0,0:0:0:0:
320,192,68039,1,0,0:0:0:0:
192,192,68112,1,0,0:0:0:0:
320,192,68185,1,0,0:0:0:0:
448,192,68185,1,0,0:0:0:0:
192,192,68331,1,0,0:0:0:0:
64,192,68331,1,0,0:0:0:0:
192,192,68477,1,0,0:0:0:0:
320,192,68477,1,0,0:0:0:0:
320,192,68623,1,0,0:0:0:0:
64,192,68623,1,0,0:0:0:0:
448,192,68623,1,0,0:0:0:0:
192,192,68623,1,0,0:0:0:0:
448,192,68769,1,0,0:0:0:0:
64,192,68769,1,0,0:0:0:0:
320,192,68769,1,0,0:0:0:0:
192,192,68915,1,0,0:0:0:0:
448,192,68915,1,0,0:0:0:0:
64,192,68915,1,0,0:0:0:0:
320,192,69061,1,0,0:0:0:0:
192,192,69061,1,0,0:0:0:0:
448,192,69061,1,0,0:0:0:0:
64,192,69061,1,0,0:0:0:0:
320,192,69207,1,0,0:0:0:0:
192,192,69207,1,0,0:0:0:0:
448,192,69353,1,0,0:0:0:0:
320,192,69353,1,0,0:0:0:0:
64,192,69353,1,0,0:0:0:0:
448,192,69499,1,0,0:0:0:0:
64,192,69499,1,0,0:0:0:0:
192,192,69499,1,0,0:0:0:0:
320,192,69499,1,0,0:0:0:0:
192,192,69645,1,0,0:0:0:0:
64,192,69645,1,0,0:0:0:0:
320,192,69791,1,0,0:0:0:0:
192,192,69791,1,0,0:0:0:0:
320,192,69937,1,0,0:0:0:0:
448,192,69937,1,0,0:0:0:0:
320,192,70083,1,0,0:0:0:0:
192,192,70083,1,0,0:0:0:0:
192,192,70229,1,0,0:0:0:0:
64,192,70229,1,0,0:0:0:0:
192,192,70374,1,0,0:0:0:0:
64,192,70374,1,0,0:0:0:0:
320,192,70374,1,0,0:0:0:0:
448,192,70374,1,0,0:0:0:0:
320,192,70520,1,0,0:0:0:0:
448,192,70520,1,0,0:0:0:0:
192,192,70666,1,0,0:0:0:0:
64,192,70666,1,0,0:0:0:0:
448,192,70812,1,0,0:0:0:0:
320,192,70812,1,0,0:0:0:0:
192,192,70812,1,0,0:0:0:0:
64,192,70812,1,0,0:0:0:0:
320,192,70958,1,0,0:0:0:0:
64,192,70958,1,0,0:0:0:0:
192,192,71104,1,0,0:0:0:0:
448,192,71104,1,0,0:0:0:0:
448,192,71250,1,0,0:0:0:0:
320,192,71250,1,0,0:0:0:0:
192,192,71250,1,0,0:0:0:0:
64,192,71250,1,0,0:0:0:0:
320,192,71396,1,0,0:0:0:0:
192,192,71396,1,0,0:0:0:0:
64,192,71542,1,0,0:0:0:0:
448,192,71542,1,0,0:0:0:0:
448,192,71688,1,0,0:0:0:0:
320,192,71688,1,0,0:0:0:0:
192,192,71688,1,0,0:0:0:0:
64,192,71688,1,0,0:0:0:0:
320,192,71834,1,0,0:0:0:0:
192,192,71834,1,0,0:0:0:0:
448,192,71980,1,0,0:0:0:0:
64,192,71980,1,0,0:0:0:0:
320,192,71980,1,0,0:0:0:0:
192,192,72126,1,0,0:0:0:0:
64,192,72126,1,0,0:0:0:0:
448,192,72126,1,0,0:0:0:0:
320,192,72126,1,0,0:0:0:0:
192,192,72272,1,0,0:0:0:0:
448,192,72272,1,0,0:0:0:0:
320,192,72418,1,0,0:0:0:0:
192,192,72418,1,0,0:0:0:0:
64,192,72418,1,0,0:0:0:0:
64,192,72564,1,0,0:0:0:0:
192,192,72564,1,0,0:0:0:0:
320,192,72564,1,0,0:0:0:0:
448,192,72564,1,0,0:0:0:0:
448,192,72710,1,0,0:0:0:0:
64,192,72710,1,0,0:0:0:0:
448,192,72856,1,0,0:0:0:0:
320,192,72856,1,0,0:0:0:0:
192,192,72856,1,0,0:0:0:0:
448,192,73002,1,0,0:0:0:0:
320,192,73002,1,0,0:0:0:0:
192,192,73002,1,0,0:0:0:0:
64,192,73002,1,0,0:0:0:0:
320,192,73148,1,0,0:0:0:0:
64,192,73148,1,0,0:0:0:0:
64,192,73294,1,0,0:0:0:0:
192,192,73294,1,0,0:0:0:0:
448,192,73294,1,0,0:0:0:0:
448,192,73440,1,0,0:0:0:0:
320,192,73440,1,0,0:0:0:0:
192,192,73440,1,0,0:0:0:0:
64,192,73440,1,0,0:0:0:0:
320,192,73586,1,0,0:0:0:0:
192,192,73586,1,0,0:0:0:0:
448,192,73732,1,0,0:0:0:0:
64,192,73732,1,0,0:0:0:0:
320,192,73732,1,0,0:0:0:0:
448,192,73878,1,0,0:0:0:0:
320,192,73878,1,0,0:0:0:0:
64,192,73878,1,0,0:0:0:0:
192,192,73878,1,0,0:0:0:0:
192,192,74024,1,0,0:0:0:0:
64,192,74024,1,0,0:0:0:0:
320,192,74170,1,0,0:0:0:0:
448,192,74170,1,0,0:0:0:0:
64,192,74316,1,0,0:0:0:0:
192,192,74316,1,0,0:0:0:0:
320,192,74316,1,0,0:0:0:0:
448,192,74316,1,0,0:0:0:0:
192,192,74462,1,0,0:0:0:0:
448,192,74462,1,0,0:0:0:0:
320,192,74608,1,0,0:0:0:0:
64,192,74608,1,0,0:0:0:0:
64,192,74754,1,0,0:0:0:0:
192,192,74754,1,0,0:0:0:0:
320,192,74754,1,0,0:0:0:0:
448,192,74754,1,0,0:0:0:0:
192,192,74900,1,0,0:0:0:0:
320,192,74900,1,0,0:0:0:0:
448,192,75046,1,0,0:0:0:0:
64,192,75046,1,0,0:0:0:0:
64,192,75192,1,0,0:0:0:0:
192,192,75192,1,0,0:0:0:0:
320,192,75192,1,0,0:0:0:0:
448,192,75192,1,0,0:0:0:0:
192,192,75338,1,0,0:0:0:0:
320,192,75338,1,0,0:0:0:0:
64,192,75484,1,0,0:0:0:0:
448,192,75484,1,0,0:0:0:0:
192,192,75484,1,0,0:0:0:0:
320,192,75630,1,0,0:0:0:0:
448,192,75630,1,0,0:0:0:0:
64,192,75630,1,0,0:0:0:0:
192,192,75630,1,0,0:0:0:0:
320,192,75776,1,0,0:0:0:0:
64,192,75776,1,0,0:0:0:0:
192,192,75922,1,0,0:0:0:0:
320,192,75922,1,0,0:0:0:0:
448,192,75922,1,0,0:0:0:0:
448,192,76068,1,0,0:0:0:0:
320,192,76068,1,0,0:0:0:0:
192,192,76068,1,0,0:0:0:0:
64,192,76068,1,0,0:0:0:0:
64,192,76214,1,0,0:0:0:0:
448,192,76214,1,0,0:0:0:0:
64,192,76360,1,0,0:0:0:0:
192,192,76360,1,0,0:0:0:0:
320,192,76360,1,0,0:0:0:0:
64,192,76506,1,0,0:0:0:0:
192,192,76506,1,0,0:0:0:0:
320,192,76506,1,0,0:0:0:0:
448,192,76506,1,0,0:0:0:0:
192,192,76652,1,0,0:0:0:0:
448,192,76652,1,0,0:0:0:0:
448,192,76798,1,0,0:0:0:0:
320,192,76798,1,0,0:0:0:0:
64,192,76798,1,0,0:0:0:0:
64,192,76944,1,0,0:0:0:0:
192,192,76944,1,0,0:0:0:0:
320,192,76944,1,0,0:0:0:0:
448,192,76944,1,0,0:0:0:0:
192,192,77090,1,0,0:0:0:0:
320,192,77090,1,0,0:0:0:0:
64,192,77236,1,0,0:0:0:0:
448,192,77236,1,0,0:0:0:0:
192,192,77236,1,0,0:0:0:0:
64,192,77382,1,0,0:0:0:0:
192,192,77382,1,0,0:0:0:0:
448,192,77382,1,0,0:0:0:0:
320,192,77382,1,0,0:0:0:0:
320,192,77528,1,0,0:0:0:0:
448,192,77528,1,0,0:0:0:0:
192,192,77674,1,0,0:0:0:0:
64,192,77674,1,0,0:0:0:0:
448,192,77820,1,0,0:0:0:0:
320,192,77820,1,0,0:0:0:0:
192,192,77820,1,0,0:0:0:0:
64,192,77820,1,0,0:0:0:0:
320,192,77966,1,0,0:0:0:0:
64,192,77966,1,0,0:0:0:0:
192,192,78112,1,0,0:0:0:0:
448,192,78112,1,0,0:0:0:0:
448,192,78258,1,0,0:0:0:0:
320,192,78258,1,0,0:0:0:0:
192,192,78258,1,0,0:0:0:0:
64,192,78258,1,0,0:0:0:0:
320,192,78404,1,0,0:0:0:0:
192,192,78404,1,0,0:0:0:0:
64,192,78550,1,0,0:0:0:0:
448,192,78550,1,0,0:0:0:0:
448,192,78696,1,0,0:0:0:0:
320,192,78696,1,0,0:0:0:0:
192,192,78696,1,0,0:0:0:0:
64,192,78696,1,0,0:0:0:0:
320,192,78842,1,0,0:0:0:0:
192,192,78842,1,0,0:0:0:0:
448,192,78988,1,0,0:0:0:0:
64,192,78988,1,0,0:0:0:0:
320,192,78988,1,0,0:0:0:0:
192,192,79134,1,0,0:0:0:0:
64,192,79134,1,0,0:0:0:0:
448,192,79134,1,0,0:0:0:0:
320,192,79134,1,0,0:0:0:0:
192,192,79280,1,0,0:0:0:0:
448,192,79280,1,0,0:0:0:0:
320,192,79426,1,0,0:0:0:0:
192,192,79426,1,0,0:0:0:0:
64,192,79426,1,0,0:0:0:0:
64,192,79572,1,0,0:0:0:0:
192,192,79572,1,0,0:0:0:0:
320,192,79572,1,0,0:0:0:0:
448,192,79572,1,0,0:0:0:0:
448,192,79718,1,0,0:0:0:0:
64,192,79718,1,0,0:0:0:0:
320,192,79864,1,0,0:0:0:0:
192,192,79864,1,0,0:0:0:0:
448,192,80010,1,0,0:0:0:0:
320,192,80010,1,0,0:0:0:0:
192,192,80010,1,0,0:0:0:0:
64,192,80010,1,0,0:0:0:0:
448,192,80156,1,0,0:0:0:0:
320,192,80156,1,0,0:0:0:0:
192,192,80301,1,0,0:0:0:0:
64,192,80301,1,0,0:0:0:0:
448,192,80447,1,0,0:0:0:0:
320,192,80447,1,0,0:0:0:0:
192,192,80447,1,0,0:0:0:0:
64,192,80447,1,0,0:0:0:0:
320,192,80593,1,0,0:0:0:0:
448,192,80593,1,0,0:0:0:0:
64,192,80593,1,0,0:0:0:0:
448,192,80739,1,0,0:0:0:0:
192,192,80739,1,0,0:0:0:0:
320,192,80739,1,0,0:0:0:0:
448,192,80885,1,0,0:0:0:0:
320,192,80885,1,0,0:0:0:0:
64,192,80885,1,0,0:0:0:0:
192,192,80885,1,0,0:0:0:0:
192,192,81031,1,0,0:0:0:0:
64,192,81031,1,0,0:0:0:0:
320,192,81031,1,0,0:0:0:0:
448,192,81177,1,0,0:0:0:0:
64,192,81177,1,0,0:0:0:0:
448,192,81323,1,0,0:0:0:0:
320,192,81323,1,0,0:0:0:0:
192,192,81323,1,0,0:0:0:0:
64,192,81323,1,0,0:0:0:0:
320,192,81469,1,0,0:0:0:0:
192,192,81469,1,0,0:0:0:0:
64,192,81615,1,0,0:0:0:0:
448,192,81615,1,0,0:0:0:0:
448,192,81761,1,0,0:0:0:0:
192,192,81761,1,0,0:0:0:0:
64,192,81761,1,0,0:0:0:0:
320,192,81761,1,0,0:0:0:0:
448,192,81907,1,0,0:0:0:0:
320,192,81907,1,0,0:0:0:0:
192,192,81907,1,0,0:0:0:0:
192,192,82053,1,0,0:0:0:0:
64,192,82053,1,0,0:0:0:0:
320,192,82199,1,0,0:0:0:0:
448,192,82199,1,0,0:0:0:0:
192,192,82199,1,0,0:0:0:0:
64,192,82199,1,0,0:0:0:0:
448,192,82345,1,0,0:0:0:0:
320,192,82345,1,0,0:0:0:0:
192,192,82491,1,0,0:0:0:0:
64,192,82491,1,0,0:0:0:0:
64,192,82637,1,0,0:0:0:0:
192,192,82637,1,0,0:0:0:0:
448,192,82637,1,0,0:0:0:0:
448,192,82783,1,0,0:0:0:0:
320,192,82783,1,0,0:0:0:0:
64,192,82783,1,0,0:0:0:0:
64,192,83075,1,0,0:0:0:0:
320,192,83075,1,0,0:0:0:0:
448,192,83075,1,0,0:0:0:0:
320,192,83221,1,0,0:0:0:0:
192,192,83221,1,0,0:0:0:0:
192,192,83367,1,0,0:0:0:0:
64,192,83367,1,0,0:0:0:0:
320,192,83513,1,0,0:0:0:0:
64,192,83513,1,0,0:0:0:0:
448,192,83513,1,0,0:0:0:0:
192,192,83513,1,0,0:0:0:0:
192,192,83805,5,0,0:0:0:0:
448,192,83805,1,0,0:0:0:0:
64,192,83805,1,0,0:0:0:0:
320,192,83951,1,0,0:0:0:0:
192,192,83951,1,0,0:0:0:0:
448,192,84097,1,0,0:0:0:0:
320,192,84097,1,0,0:0:0:0:
192,192,84243,1,0,0:0:0:0:
64,192,84243,1,0,0:0:0:0:
448,192,84389,128,0,84681:0:0:0:0:
320,192,84389,128,0,84681:0:0:0:0:
192,192,84389,128,0,84681:0:0:0:0:
64,192,84389,128,0,84681:0:0:0:0:
448,192,84827,5,0,0:0:0:0:
320,192,84827,1,0,0:0:0:0:
64,192,84827,1,0,0:0:0:0:
192,192,84827,1,0,0:0:0:0:
448,192,84973,1,0,0:0:0:0:
320,192,84973,1,0,0:0:0:0:
64,192,84973,1,0,0:0:0:0:
64,192,85119,1,0,0:0:0:0:
192,192,85119,1,0,0:0:0:0:
448,192,85119,1,0,0:0:0:0:
448,192,85265,1,0,0:0:0:0:
320,192,85265,1,0,0:0:0:0:
64,192,85265,1,0,0:0:0:0:
192,192,85265,1,0,0:0:0:0:
320,192,85411,1,0,0:0:0:0:
448,192,85411,1,0,0:0:0:0:
192,192,85411,1,0,0:0:0:0:
192,192,85557,1,0,0:0:0:0:
64,192,85557,1,0,0:0:0:0:
320,192,85557,1,0,0:0:0:0:
448,192,85703,1,0,0:0:0:0:
320,192,85703,1,0,0:0:0:0:
64,192,85703,1,0,0:0:0:0:
192,192,85703,1,0,0:0:0:0:
448,192,85849,1,0,0:0:0:0:
320,192,85849,1,0,0:0:0:0:
64,192,85849,1,0,0:0:0:0:
64,192,85995,1,0,0:0:0:0:
192,192,85995,1,0,0:0:0:0:
448,192,85995,1,0,0:0:0:0:
64,192,86141,128,0,86287:0:0:0:0:
192,192,86141,128,0,86287:0:0:0:0:
320,192,86141,128,0,86287:0:0:0:0:
448,192,86141,128,0,86287:0:0:0:0:
192,192,86433,1,0,0:0:0:0:
64,192,86433,1,0,0:0:0:0:
448,192,86506,1,0,0:0:0:0:
320,192,86506,1,0,0:0:0:0:
192,192,86579,1,0,0:0:0:0:
64,192,86579,1,0,0:0:0:0:
192,192,86725,1,0,0:0:0:0:
64,192,86725,1,0,0:0:0:0:
448,192,86725,1,0,0:0:0:0:
320,192,86871,1,0,0:0:0:0:
448,192,86871,1,0,0:0:0:0:
64,192,86871,1,0,0:0:0:0:
64,192,87017,1,0,0:0:0:0:
192,192,87017,1,0,0:0:0:0:
448,192,87017,1,0,0:0:0:0:
320,192,87017,1,0,0:0:0:0:
192,192,87163,1,0,0:0:0:0:
64,192,87163,1,0,0:0:0:0:
320,192,87309,1,0,0:0:0:0:
448,192,87309,1,0,0:0:0:0:
192,192,87309,1,0,0:0:0:0:
64,192,87455,128,0,87747:0:0:0:0:
192,192,87455,128,0,87747:0:0:0:0:
320,192,87455,128,0,87747:0:0:0:0:
448,192,87455,128,0,87747:0:0:0:0:
448,192,87893,1,0,0:0:0:0:
320,192,87893,1,0,0:0:0:0:
192,192,87893,1,0,0:0:0:0:
64,192,87893,1,0,0:0:0:0:
448,192,88039,1,0,0:0:0:0:
320,192,88039,1,0,0:0:0:0:
192,192,88185,1,0,0:0:0:0:
64,192,88185,1,0,0:0:0:0:
192,192,88331,1,0,0:0:0:0:
64,192,88331,1,0,0:0:0:0:
448,192,88331,1,0,0:0:0:0:
320,192,88331,1,0,0:0:0:0:
448,192,88477,1,0,0:0:0:0:
320,192,88477,1,0,0:0:0:0:
64,192,88477,1,0,0:0:0:0:
320,192,88623,1,0,0:0:0:0:
192,192,88623,1,0,0:0:0:0:
192,192,88769,1,0,0:0:0:0:
64,192,88769,1,0,0:0:0:0:
448,192,88769,1,0,0:0:0:0:
320,192,88769,1,0,0:0:0:0:
448,192,88915,1,0,0:0:0:0:
192,192,88915,1,0,0:0:0:0:
64,192,88915,1,0,0:0:0:0:
320,192,89061,1,0,0:0:0:0:
64,192,89061,1,0,0:0:0:0:
320,192,89207,1,0,0:0:0:0:
64,192,89207,1,0,0:0:0:0:
448,192,89207,1,0,0:0:0:0:
192,192,89207,1,0,0:0:0:0:
320,192,89353,1,0,0:0:0:0:
192,192,89353,1,0,0:0:0:0:
192,192,89499,1,0,0:0:0:0:
448,192,89499,1,0,0:0:0:0:
320,192,89645,1,0,0:0:0:0:
192,192,89645,1,0,0:0:0:0:
64,192,89645,1,0,0:0:0:0:
320,192,89791,1,0,0:0:0:0:
448,192,89791,1,0,0:0:0:0:
64,192,89791,1,0,0:0:0:0:
320,192,89937,1,0,0:0:0:0:
192,192,89937,1,0,0:0:0:0:
448,192,90083,1,0,0:0:0:0:
320,192,90083,1,0,0:0:0:0:
64,192,90083,1,0,0:0:0:0:
192,192,90083,1,0,0:0:0:0:
64,192,90229,1,0,0:0:0:0:
448,192,90229,1,0,0:0:0:0:
192,192,90374,1,0,0:0:0:0:
64,192,90374,1,0,0:0:0:0:
320,192,90447,1,0,0:0:0:0:
192,192,90520,1,0,0:0:0:0:
448,192,90520,1,0,0:0:0:0:
64,192,90520,1,0,0:0:0:0:
448,192,90666,1,0,0:0:0:0:
320,192,90666,1,0,0:0:0:0:
192,192,90666,1,0,0:0:0:0:
320,192,90812,1,0,0:0:0:0:
192,192,90812,1,0,0:0:0:0:
64,192,90812,1,0,0:0:0:0:
320,192,90958,1,0,0:0:0:0:
64,192,90958,1,0,0:0:0:0:
448,192,90958,1,0,0:0:0:0:
448,192,91104,1,0,0:0:0:0:
192,192,91104,1,0,0:0:0:0:
64,192,91104,1,0,0:0:0:0:
448,192,91250,1,0,0:0:0:0:
320,192,91250,1,0,0:0:0:0:
192,192,91250,1,0,0:0:0:0:
64,192,91396,128,0,91688:0:0:0:0:
192,192,91396,128,0,91688:0:0:0:0:
448,192,91396,128,0,91688:0:0:0:0:
320,192,91396,128,0,91688:0:0:0:0:
64,192,91834,5,0,0:0:0:0:
448,192,91834,1,0,0:0:0:0:
192,192,91834,1,0,0:0:0:0:
320,192,91834,1,0,0:0:0:0:
64,192,91980,1,0,0:0:0:0:
192,192,91980,1,0,0:0:0:0:
448,192,91980,1,0,0:0:0:0:
448,192,92126,1,0,0:0:0:0:
320,192,92126,1,0,0:0:0:0:
64,192,92126,1,0,0:0:0:0:
64,192,92272,1,0,0:0:0:0:
192,192,92272,1,0,0:0:0:0:
448,192,92272,1,0,0:0:0:0:
320,192,92272,1,0,0:0:0:0:
192,192,92418,1,0,0:0:0:0:
64,192,92418,1,0,0:0:0:0:
320,192,92418,1,0,0:0:0:0:
320,192,92564,1,0,0:0:0:0:
448,192,92564,1,0,0:0:0:0:
192,192,92564,1,0,0:0:0:0:
64,192,92710,1,0,0:0:0:0:
192,192,92710,1,0,0:0:0:0:
448,192,92710,1,0,0:0:0:0:
320,192,92710,1,0,0:0:0:0:
64,192,92856,1,0,0:0:0:0:
192,192,92856,1,0,0:0:0:0:
448,192,92856,1,0,0:0:0:0:
448,192,93002,1,0,0:0:0:0:
320,192,93002,1,0,0:0:0:0:
64,192,93002,1,0,0:0:0:0:
448,192,93148,128,0,93294:0:0:0:0:
320,192,93148,128,0,93294:0:0:0:0:
192,192,93148,128,0,93294:0:0:0:0:
64,192,93148,128,0,93294:0:0:0:0:
320,192,93440,1,0,0:0:0:0:
448,192,93440,1,0,0:0:0:0:
64,192,93513,1,0,0:0:0:0:
192,192,93513,1,0,0:0:0:0:
320,192,93586,1,0,0:0:0:0:
448,192,93586,1,0,0:0:0:0:
320,192,93732,1,0,0:0:0:0:
448,192,93732,1,0,0:0:0:0:
64,192,93732,1,0,0:0:0:0:
192,192,93878,1,0,0:0:0:0:
64,192,93878,1,0,0:0:0:0:
448,192,93878,1,0,0:0:0:0:
448,192,94024,1,0,0:0:0:0:
320,192,94024,1,0,0:0:0:0:
64,192,94024,1,0,0:0:0:0:
192,192,94024,1,0,0:0:0:0:
320,192,94170,1,0,0:0:0:0:
448,192,94170,1,0,0:0:0:0:
192,192,94316,1,0,0:0:0:0:
64,192,94316,1,0,0:0:0:0:
320,192,94316,1,0,0:0:0:0:
448,192,94462,128,0,94754:0:0:0:0:
320,192,94462,128,0,94754:0:0:0:0:
192,192,94462,128,0,94754:0:0:0:0:
64,192,94462,128,0,94754:0:0:0:0:
64,192,94900,1,0,0:0:0:0:
192,192,94900,1,0,0:0:0:0:
320,192,94900,1,0,0:0:0:0:
448,192,94900,1,0,0:0:0:0:
64,192,95046,1,0,0:0:0:0:
192,192,95046,1,0,0:0:0:0:
320,192,95192,1,0,0:0:0:0:
448,192,95192,1,0,0:0:0:0:
320,192,95338,1,0,0:0:0:0:
448,192,95338,1,0,0:0:0:0:
64,192,95338,1,0,0:0:0:0:
192,192,95338,1,0,0:0:0:0:
64,192,95484,1,0,0:0:0:0:
192,192,95484,1,0,0:0:0:0:
448,192,95484,1,0,0:0:0:0:
192,192,95630,1,0,0:0:0:0:
320,192,95630,1,0,0:0:0:0:
320,192,95776,1,0,0:0:0:0:
448,192,95776,1,0,0:0:0:0:
64,192,95776,1,0,0:0:0:0:
192,192,95776,1,0,0:0:0:0:
64,192,95922,1,0,0:0:0:0:
320,192,95922,1,0,0:0:0:0:
448,192,95922,1,0,0:0:0:0:
192,192,96068,1,0,0:0:0:0:
448,192,96068,1,0,0:0:0:0:
192,192,96214,1,0,0:0:0:0:
448,192,96214,1,0,0:0:0:0:
64,192,96214,1,0,0:0:0:0:
320,192,96214,1,0,0:0:0:0:
192,192,96360,1,0,0:0:0:0:
320,192,96360,1,0,0:0:0:0:
320,192,96506,1,0,0:0:0:0:
64,192,96506,1,0,0:0:0:0:
192,192,96652,1,0,0:0:0:0:
320,192,96652,1,0,0:0:0:0:
448,192,96652,1,0,0:0:0:0:
192,192,96798,1,0,0:0:0:0:
64,192,96798,1,0,0:0:0:0:
448,192,96798,1,0,0:0:0:0:
192,192,96944,1,0,0:0:0:0:
320,192,96944,1,0,0:0:0:0:
64,192,97090,1,0,0:0:0:0:
192,192,97090,1,0,0:0:0:0:
448,192,97090,1,0,0:0:0:0:
320,192,97090,1,0,0:0:0:0:
448,192,97236,1,0,0:0:0:0:
64,192,97236,1,0,0:0:0:0:
320,192,97382,1,0,0:0:0:0:
192,192,97455,1,0,0:0:0:0:
64,192,97528,1,0,0:0:0:0:
448,192,97528,1,0,0:0:0:0:
448,192,97674,1,0,0:0:0:0:
320,192,97674,1,0,0:0:0:0:
192,192,97674,1,0,0:0:0:0:
320,192,97820,1,0,0:0:0:0:
192,192,97820,1,0,0:0:0:0:
64,192,97820,1,0,0:0:0:0:
192,192,97966,128,0,98404:0:0:0:0:
320,192,97966,128,0,98404:0:0:0:0:
448,192,97966,128,0,98404:0:0:0:0:
