osu file format v14

[General]
AudioFilename: audio.mp3
AudioLeadIn: 0
PreviewTime: -1
Countdown: 0
SampleSet: Normal
StackLeniency: 0.7
Mode: 3
LetterboxInBreaks: 0
SpecialStyle: 0
WidescreenStoryboard: 1

[Editor]
Bookmarks: 10975,21410,42280,55157,55239,55320,55323,55402,60538,65758,68038,76190,86627
DistanceSpacing: 1.2
BeatDivisor: 4
GridSize: 4
TimelineZoom: 3.299999

[Metadata]
Title:Ame, Kimi wo Tsurete
TitleUnicode:Ame, Kimi wo Tsurete
Artist:EGOIST
ArtistUnicode:EGOIST
Creator:Hecka
Version:4k Achromatic
Source:
Tags:ryo supercell chelly guilty crown inori yuzuriha shu ouma extra terrestrial biological entities ギルティクラウン
BeatmapID:3225144
BeatmapSetID:699721

[Difficulty]
HPDrainRate:7
CircleSize:4
OverallDifficulty:8
ApproachRate:10
SliderMultiplier:1.4
SliderTickRate:1

[Events]
//Background and Video events
0,0,"bg.jpg",0,0
//Break Periods
2,42161,51456
//Storyboard Layer 0 (Background)
//Storyboard Layer 1 (Fail)
//Storyboard Layer 2 (Pass)
//Storyboard Layer 3 (Foreground)
//Storyboard Layer 4 (Overlay)
//Storyboard Sound Samples

[TimingPoints]
548,326.086956521739,4,1,0,50,1,0
55330,-100,4,1,0,50,0,1
65762,-100,4,1,0,50,0,1
70982,326.086956521739,4,1,0,50,1,1
75873,-100,4,1,0,50,0,0
76199,-100,4,1,0,50,0,1
96742,-100,4,1,0,50,0,0

[HitObjects]
320,192,548,5,0,0:0:0:0:
64,192,548,1,0,0:0:0:0:
192,192,711,1,0,0:0:0:0:
64,192,874,1,0,0:0:0:0:
192,192,1037,1,0,0:0:0:0:
320,192,1037,1,0,0:0:0:0:
64,192,1200,1,0,0:0:0:0:
192,192,1363,1,0,0:0:0:0:
64,192,1526,1,0,0:0:0:0:
320,192,1526,1,0,0:0:0:0:
192,192,1689,1,0,0:0:0:0:
64,192,1852,1,0,0:0:0:0:
192,192,2015,1,0,0:0:0:0:
448,192,2015,1,0,0:0:0:0:
64,192,2178,1,0,0:0:0:0:
192,192,2341,1,0,0:0:0:0:
448,192,2504,1,0,0:0:0:0:
320,192,2504,1,0,0:0:0:0:
448,192,2667,1,0,0:0:0:0:
448,192,2830,1,0,0:0:0:0:
192,192,3156,1,0,0:0:0:0:
448,192,3156,1,0,0:0:0:0:
64,192,3319,1,0,0:0:0:0:
192,192,3482,1,0,0:0:0:0:
64,192,3645,1,0,0:0:0:0:
448,192,3645,1,0,0:0:0:0:
192,192,3808,1,0,0:0:0:0:
64,192,3971,1,0,0:0:0:0:
192,192,4134,1,0,0:0:0:0:
448,192,4134,1,0,0:0:0:0:
64,192,4297,1,0,0:0:0:0:
192,192,4461,1,0,0:0:0:0:
64,192,4624,1,0,0:0:0:0:
448,192,4624,1,0,0:0:0:0:
192,192,4787,1,0,0:0:0:0:
64,192,4950,1,0,0:0:0:0:
320,192,5113,1,0,0:0:0:0:
448,192,5113,1,0,0:0:0:0:
320,192,5276,1,0,0:0:0:0:
320,192,5439,1,0,0:0:0:0:
448,192,5765,1,0,0:0:0:0:
64,192,5765,1,0,0:0:0:0:
320,192,5928,1,0,0:0:0:0:
448,192,6091,1,0,0:0:0:0:
64,192,6254,1,0,0:0:0:0:
320,192,6254,1,0,0:0:0:0:
448,192,6417,1,0,0:0:0:0:
320,192,6580,1,0,0:0:0:0:
64,192,6743,1,0,0:0:0:0:
448,192,6743,1,0,0:0:0:0:
320,192,6906,1,0,0:0:0:0:
192,192,7069,1,0,0:0:0:0:
448,192,7069,1,0,0:0:0:0:
320,192,7232,1,0,0:0:0:0:
64,192,7232,1,0,0:0:0:0:
448,192,7395,1,0,0:0:0:0:
320,192,7558,1,0,0:0:0:0:
192,192,7721,1,0,0:0:0:0:
64,192,7721,1,0,0:0:0:0:
192,192,7884,1,0,0:0:0:0:
192,192,8047,1,0,0:0:0:0:
448,192,8374,1,0,0:0:0:0:
64,192,8374,128,0,10982:0:0:0:0:
320,192,8537,1,0,0:0:0:0:
448,192,8700,1,0,0:0:0:0:
320,192,8863,1,0,0:0:0:0:
192,192,8863,1,0,0:0:0:0:
448,192,9026,1,0,0:0:0:0:
320,192,9189,1,0,0:0:0:0:
448,192,9352,1,0,0:0:0:0:
192,192,9352,1,0,0:0:0:0:
320,192,9515,1,0,0:0:0:0:
192,192,9678,1,0,0:0:0:0:
448,192,9678,1,0,0:0:0:0:
320,192,9841,1,0,0:0:0:0:
192,192,9841,1,0,0:0:0:0:
448,192,10004,1,0,0:0:0:0:
320,192,10167,1,0,0:0:0:0:
448,192,10330,1,0,0:0:0:0:
320,192,10330,1,0,0:0:0:0:
448,192,10493,1,0,0:0:0:0:
448,192,10656,1,0,0:0:0:0:
192,192,10982,1,0,0:0:0:0:
320,192,10982,1,0,0:0:0:0:
448,192,10982,1,0,0:0:0:0:
320,192,11145,1,0,0:0:0:0:
192,192,11308,1,0,0:0:0:0:
320,192,11471,1,0,0:0:0:0:
448,192,11471,1,0,0:0:0:0:
64,192,11634,1,0,0:0:0:0:
192,192,11797,1,0,0:0:0:0:
448,192,11961,1,0,0:0:0:0:
320,192,11961,1,0,0:0:0:0:
448,192,12124,1,0,0:0:0:0:
64,192,12124,1,0,0:0:0:0:
320,192,12287,1,0,0:0:0:0:
64,192,12450,1,0,0:0:0:0:
448,192,12450,1,0,0:0:0:0:
192,192,12613,1,0,0:0:0:0:
64,192,12776,1,0,0:0:0:0:
320,192,12939,1,0,0:0:0:0:
192,192,12939,1,0,0:0:0:0:
320,192,13102,1,0,0:0:0:0:
320,192,13265,1,0,0:0:0:0:
64,192,13428,1,0,0:0:0:0:
192,192,13428,1,0,0:0:0:0:
192,192,13591,1,0,0:0:0:0:
64,192,13591,1,0,0:0:0:0:
448,192,13754,1,0,0:0:0:0:
192,192,13917,1,0,0:0:0:0:
320,192,14080,1,0,0:0:0:0:
64,192,14080,1,0,0:0:0:0:
192,192,14243,1,0,0:0:0:0:
448,192,14406,1,0,0:0:0:0:
192,192,14569,1,0,0:0:0:0:
64,192,14569,1,0,0:0:0:0:
320,192,14732,1,0,0:0:0:0:
192,192,14732,1,0,0:0:0:0:
448,192,14895,1,0,0:0:0:0:
320,192,15058,1,0,0:0:0:0:
192,192,15058,1,0,0:0:0:0:
64,192,15221,1,0,0:0:0:0:
448,192,15384,1,0,0:0:0:0:
320,192,15547,1,0,0:0:0:0:
64,192,15547,1,0,0:0:0:0:
448,192,15711,1,0,0:0:0:0:
320,192,15711,1,0,0:0:0:0:
320,192,15874,1,0,0:0:0:0:
64,192,16037,1,0,0:0:0:0:
448,192,16037,1,0,0:0:0:0:
448,192,16200,1,0,0:0:0:0:
64,192,16200,1,0,0:0:0:0:
192,192,16200,1,0,0:0:0:0:
192,192,16363,1,0,0:0:0:0:
320,192,16526,1,0,0:0:0:0:
448,192,16689,1,0,0:0:0:0:
192,192,16689,1,0,0:0:0:0:
64,192,16852,1,0,0:0:0:0:
320,192,17015,1,0,0:0:0:0:
192,192,17178,1,0,0:0:0:0:
64,192,17178,1,0,0:0:0:0:
192,192,17341,1,0,0:0:0:0:
448,192,17341,1,0,0:0:0:0:
320,192,17504,1,0,0:0:0:0:
192,192,17667,1,0,0:0:0:0:
448,192,17667,1,0,0:0:0:0:
64,192,17830,1,0,0:0:0:0:
448,192,17993,1,0,0:0:0:0:
320,192,18156,1,0,0:0:0:0:
192,192,18156,1,0,0:0:0:0:
192,192,18319,1,0,0:0:0:0:
192,192,18482,1,0,0:0:0:0:
320,192,18645,1,0,0:0:0:0:
64,192,18645,1,0,0:0:0:0:
320,192,18808,1,0,0:0:0:0:
64,192,18808,1,0,0:0:0:0:
448,192,18971,1,0,0:0:0:0:
192,192,19134,1,0,0:0:0:0:
320,192,19297,1,0,0:0:0:0:
448,192,19297,1,0,0:0:0:0:
192,192,19461,1,0,0:0:0:0:
64,192,19624,1,0,0:0:0:0:
448,192,19787,1,0,0:0:0:0:
192,192,19787,1,0,0:0:0:0:
448,192,19950,1,0,0:0:0:0:
320,192,19950,1,0,0:0:0:0:
64,192,20113,1,0,0:0:0:0:
320,192,20276,1,0,0:0:0:0:
448,192,20276,1,0,0:0:0:0:
192,192,20439,1,0,0:0:0:0:
64,192,20602,1,0,0:0:0:0:
320,192,20602,1,0,0:0:0:0:
448,192,20765,1,0,0:0:0:0:
192,192,20765,1,0,0:0:0:0:
64,192,20928,1,0,0:0:0:0:
192,192,20928,1,0,0:0:0:0:
192,192,21009,1,0,0:0:0:0:
448,192,21091,1,0,0:0:0:0:
320,192,21091,1,0,0:0:0:0:
64,192,21254,1,0,0:0:0:0:
192,192,21417,1,0,0:0:0:0:
320,192,21417,1,0,0:0:0:0:
448,192,21417,128,0,26634:0:0:0:0:
192,192,26634,128,0,31852:0:0:0:0:
64,192,26634,1,0,0:0:0:0:
320,192,26634,1,0,0:0:0:0:
448,192,31852,128,0,37069:0:0:0:0:
320,192,31852,1,0,0:0:0:0:
64,192,31852,1,0,0:0:0:0:
64,192,37069,128,0,39515:0:0:0:0:
192,192,39678,128,0,40819:0:0:0:0:
320,192,40982,128,0,41961:0:0:0:0:
192,192,41634,1,0,0:0:0:0:
64,192,41634,128,0,41797:0:0:0:0:
64,192,41961,1,0,0:0:0:0:
192,192,41961,1,0,0:0:0:0:
448,192,41961,1,0,0:0:0:0:
448,192,51906,5,0,0:0:0:0:
320,192,51906,1,0,0:0:0:0:
192,192,51988,1,0,0:0:0:0:
64,192,51988,1,0,0:0:0:0:
320,192,52069,1,0,0:0:0:0:
448,192,52069,1,0,0:0:0:0:
192,192,52151,1,0,0:0:0:0:
64,192,52151,1,0,0:0:0:0:
320,192,52232,1,0,0:0:0:0:
448,192,52232,1,0,0:0:0:0:
192,192,52314,1,0,0:0:0:0:
64,192,52314,1,0,0:0:0:0:
448,192,52395,1,0,0:0:0:0:
320,192,52395,1,0,0:0:0:0:
448,192,52721,1,0,0:0:0:0:
320,192,52721,1,0,0:0:0:0:
64,192,52721,128,0,52884:0:0:0:0:
192,192,52884,128,0,53047:0:0:0:0:
320,192,53047,128,0,53211:0:0:0:0:
64,192,53211,1,0,0:0:0:0:
192,192,53211,128,0,53374:0:0:0:0:
320,192,53374,128,0,53537:0:0:0:0:
448,192,53537,128,0,53700:0:0:0:0:
320,192,53700,128,0,53863:0:0:0:0:
64,192,53700,1,0,0:0:0:0:
448,192,53863,128,0,54026:0:0:0:0:
64,192,54026,1,0,0:0:0:0:
320,192,54026,1,0,0:0:0:0:
448,192,54107,1,0,0:0:0:0:
192,192,54107,1,0,0:0:0:0:
64,192,54270,1,0,0:0:0:0:
320,192,54270,1,0,0:0:0:0:
448,192,54352,1,0,0:0:0:0:
192,192,54352,1,0,0:0:0:0:
320,192,54515,1,0,0:0:0:0:
192,192,54515,1,0,0:0:0:0:
448,192,54596,1,0,0:0:0:0:
64,192,54596,1,0,0:0:0:0:
320,192,54678,1,0,0:0:0:0:
192,192,54678,1,0,0:0:0:0:
64,192,54841,1,0,0:0:0:0:
192,192,54841,1,0,0:0:0:0:
320,192,54922,1,0,0:0:0:0:
448,192,54922,1,0,0:0:0:0:
192,192,55004,1,0,0:0:0:0:
64,192,55004,1,0,0:0:0:0:
320,192,55086,1,0,0:0:0:0:
448,192,55086,1,0,0:0:0:0:
192,192,55167,1,0,0:0:0:0:
64,192,55167,1,0,0:0:0:0:
320,192,55249,1,0,0:0:0:0:
192,192,55330,1,0,0:0:0:0:
64,192,55330,1,0,0:0:0:0:
448,192,55330,1,0,0:0:0:0:
320,192,55412,1,0,0:0:0:0:
192,192,55493,1,0,0:0:0:0:
64,192,55575,1,0,0:0:0:0:
320,192,55656,1,0,0:0:0:0:
448,192,55656,1,0,0:0:0:0:
192,192,55656,1,0,0:0:0:0:
64,192,55738,1,0,0:0:0:0:
192,192,55819,1,0,0:0:0:0:
320,192,55901,1,0,0:0:0:0:
64,192,55982,1,0,0:0:0:0:
448,192,55982,1,0,0:0:0:0:
192,192,56064,1,0,0:0:0:0:
320,192,56145,1,0,0:0:0:0:
448,192,56145,1,0,0:0:0:0:
64,192,56227,1,0,0:0:0:0:
192,192,56308,1,0,0:0:0:0:
448,192,56308,1,0,0:0:0:0:
320,192,56308,1,0,0:0:0:0:
64,192,56390,1,0,0:0:0:0:
192,192,56471,1,0,0:0:0:0:
320,192,56553,1,0,0:0:0:0:
64,192,56634,1,0,0:0:0:0:
192,192,56634,1,0,0:0:0:0:
448,192,56716,1,0,0:0:0:0:
320,192,56797,1,0,0:0:0:0:
64,192,56797,1,0,0:0:0:0:
192,192,56879,1,0,0:0:0:0:
320,192,56961,1,0,0:0:0:0:
448,192,56961,1,0,0:0:0:0:
64,192,56961,1,0,0:0:0:0:
192,192,57042,1,0,0:0:0:0:
320,192,57124,1,0,0:0:0:0:
448,192,57124,128,0,57450:0:0:0:0:
64,192,57205,1,0,0:0:0:0:
192,192,57287,1,0,0:0:0:0:
320,192,57368,1,0,0:0:0:0:
64,192,57450,1,0,0:0:0:0:
192,192,57450,1,0,0:0:0:0:
320,192,57531,1,0,0:0:0:0:
448,192,57613,1,0,0:0:0:0:
192,192,57613,1,0,0:0:0:0:
64,192,57613,1,0,0:0:0:0:
320,192,57694,1,0,0:0:0:0:
448,192,57776,1,0,0:0:0:0:
64,192,57776,128,0,58102:0:0:0:0:
192,192,57857,1,0,0:0:0:0:
320,192,57939,1,0,0:0:0:0:
448,192,58020,1,0,0:0:0:0:
192,192,58102,1,0,0:0:0:0:
320,192,58102,1,0,0:0:0:0:
448,192,58183,1,0,0:0:0:0:
320,192,58265,1,0,0:0:0:0:
192,192,58265,1,0,0:0:0:0:
64,192,58265,1,0,0:0:0:0:
448,192,58346,1,0,0:0:0:0:
192,192,58428,1,0,0:0:0:0:
320,192,58509,1,0,0:0:0:0:
448,192,58591,1,0,0:0:0:0:
64,192,58591,1,0,0:0:0:0:
192,192,58672,1,0,0:0:0:0:
320,192,58754,1,0,0:0:0:0:
448,192,58754,1,0,0:0:0:0:
192,192,58836,1,0,0:0:0:0:
320,192,58917,1,0,0:0:0:0:
64,192,58917,1,0,0:0:0:0:
448,192,58917,1,0,0:0:0:0:
192,192,58999,1,0,0:0:0:0:
64,192,59080,1,0,0:0:0:0:
320,192,59162,1,0,0:0:0:0:
192,192,59243,1,0,0:0:0:0:
448,192,59243,1,0,0:0:0:0:
64,192,59325,1,0,0:0:0:0:
192,192,59406,1,0,0:0:0:0:
320,192,59406,1,0,0:0:0:0:
448,192,59488,1,0,0:0:0:0:
64,192,59569,1,0,0:0:0:0:
192,192,59569,1,0,0:0:0:0:
320,192,59569,1,0,0:0:0:0:
448,192,59651,1,0,0:0:0:0:
192,192,59732,1,0,0:0:0:0:
64,192,59732,128,0,60058:0:0:0:0:
448,192,59814,1,0,0:0:0:0:
320,192,59895,1,0,0:0:0:0:
192,192,59977,1,0,0:0:0:0:
320,192,60058,1,0,0:0:0:0:
448,192,60058,1,0,0:0:0:0:
192,192,60140,1,0,0:0:0:0:
64,192,60221,1,0,0:0:0:0:
320,192,60221,1,0,0:0:0:0:
448,192,60221,1,0,0:0:0:0:
192,192,60303,1,0,0:0:0:0:
64,192,60384,1,0,0:0:0:0:
320,192,60466,1,0,0:0:0:0:
448,192,60547,1,0,0:0:0:0:
192,192,60547,1,0,0:0:0:0:
64,192,60547,1,0,0:0:0:0:
320,192,60629,1,0,0:0:0:0:
192,192,60711,1,0,0:0:0:0:
64,192,60792,1,0,0:0:0:0:
192,192,60874,1,0,0:0:0:0:
320,192,60874,1,0,0:0:0:0:
448,192,60874,1,0,0:0:0:0:
64,192,60955,1,0,0:0:0:0:
192,192,61037,1,0,0:0:0:0:
320,192,61118,1,0,0:0:0:0:
448,192,61200,1,0,0:0:0:0:
192,192,61200,1,0,0:0:0:0:
64,192,61281,1,0,0:0:0:0:
320,192,61363,1,0,0:0:0:0:
448,192,61363,1,0,0:0:0:0:
192,192,61444,1,0,0:0:0:0:
448,192,61526,1,0,0:0:0:0:
320,192,61526,1,0,0:0:0:0:
64,192,61526,1,0,0:0:0:0:
192,192,61607,1,0,0:0:0:0:
320,192,61689,1,0,0:0:0:0:
64,192,61689,128,0,62830:0:0:0:0:
448,192,61770,1,0,0:0:0:0:
192,192,61852,1,0,0:0:0:0:
320,192,61933,1,0,0:0:0:0:
448,192,62015,1,0,0:0:0:0:
192,192,62096,1,0,0:0:0:0:
320,192,62178,1,0,0:0:0:0:
448,192,62178,1,0,0:0:0:0:
192,192,62259,1,0,0:0:0:0:
448,192,62341,1,0,0:0:0:0:
320,192,62422,1,0,0:0:0:0:
192,192,62504,1,0,0:0:0:0:
448,192,62586,1,0,0:0:0:0:
320,192,62667,1,0,0:0:0:0:
192,192,62749,1,0,0:0:0:0:
320,192,62830,1,0,0:0:0:0:
448,192,62830,1,0,0:0:0:0:
192,192,62912,1,0,0:0:0:0:
64,192,62993,1,0,0:0:0:0:
320,192,62993,1,0,0:0:0:0:
448,192,63075,1,0,0:0:0:0:
320,192,63156,1,0,0:0:0:0:
192,192,63156,1,0,0:0:0:0:
64,192,63238,1,0,0:0:0:0:
192,192,63319,1,0,0:0:0:0:
448,192,63401,1,0,0:0:0:0:
320,192,63482,1,0,0:0:0:0:
64,192,63482,1,0,0:0:0:0:
192,192,63482,1,0,0:0:0:0:
448,192,63564,1,0,0:0:0:0:
64,192,63645,1,0,0:0:0:0:
192,192,63727,1,0,0:0:0:0:
448,192,63808,1,0,0:0:0:0:
320,192,63808,1,0,0:0:0:0:
64,192,63890,1,0,0:0:0:0:
192,192,63971,1,0,0:0:0:0:
320,192,63971,1,0,0:0:0:0:
448,192,64053,1,0,0:0:0:0:
320,192,64134,1,0,0:0:0:0:
192,192,64134,1,0,0:0:0:0:
64,192,64134,1,0,0:0:0:0:
448,192,64216,1,0,0:0:0:0:
192,192,64297,1,0,0:0:0:0:
64,192,64379,1,0,0:0:0:0:
448,192,64461,1,0,0:0:0:0:
192,192,64461,1,0,0:0:0:0:
320,192,64542,1,0,0:0:0:0:
192,192,64624,1,0,0:0:0:0:
64,192,64624,1,0,0:0:0:0:
448,192,64705,1,0,0:0:0:0:
320,192,64787,1,0,0:0:0:0:
192,192,64787,1,0,0:0:0:0:
64,192,64787,1,0,0:0:0:0:
448,192,64868,1,0,0:0:0:0:
320,192,64950,1,0,0:0:0:0:
64,192,64950,1,0,0:0:0:0:
192,192,65031,1,0,0:0:0:0:
320,192,65113,1,0,0:0:0:0:
448,192,65113,1,0,0:0:0:0:
64,192,65194,1,0,0:0:0:0:
320,192,65276,1,0,0:0:0:0:
448,192,65276,1,0,0:0:0:0:
192,192,65357,1,0,0:0:0:0:
64,192,65357,1,0,0:0:0:0:
320,192,65439,1,0,0:0:0:0:
448,192,65439,1,0,0:0:0:0:
192,192,65520,1,0,0:0:0:0:
64,192,65520,1,0,0:0:0:0:
320,192,65602,1,0,0:0:0:0:
448,192,65602,1,0,0:0:0:0:
192,192,65683,1,0,0:0:0:0:
64,192,65765,1,0,0:0:0:0:
320,192,65765,1,0,0:0:0:0:
448,192,65765,1,0,0:0:0:0:
192,192,65846,1,0,0:0:0:0:
320,192,65928,1,0,0:0:0:0:
448,192,66009,1,0,0:0:0:0:
192,192,66091,1,0,0:0:0:0:
320,192,66091,1,0,0:0:0:0:
64,192,66091,1,0,0:0:0:0:
448,192,66172,1,0,0:0:0:0:
320,192,66254,1,0,0:0:0:0:
64,192,66336,1,0,0:0:0:0:
192,192,66417,1,0,0:0:0:0:
448,192,66417,1,0,0:0:0:0:
320,192,66499,1,0,0:0:0:0:
64,192,66580,1,0,0:0:0:0:
192,192,66580,1,0,0:0:0:0:
448,192,66662,1,0,0:0:0:0:
320,192,66743,1,0,0:0:0:0:
192,192,66743,1,0,0:0:0:0:
64,192,66743,1,0,0:0:0:0:
448,192,66825,1,0,0:0:0:0:
64,192,66906,1,0,0:0:0:0:
192,192,66988,1,0,0:0:0:0:
320,192,67069,1,0,0:0:0:0:
448,192,67069,1,0,0:0:0:0:
64,192,67151,1,0,0:0:0:0:
192,192,67232,1,0,0:0:0:0:
448,192,67232,1,0,0:0:0:0:
320,192,67314,1,0,0:0:0:0:
64,192,67395,1,0,0:0:0:0:
192,192,67395,1,0,0:0:0:0:
448,192,67395,1,0,0:0:0:0:
320,192,67477,1,0,0:0:0:0:
192,192,67558,1,0,0:0:0:0:
64,192,67558,128,0,67884:0:0:0:0:
448,192,67640,1,0,0:0:0:0:
320,192,67721,1,0,0:0:0:0:
192,192,67803,1,0,0:0:0:0:
320,192,67884,1,0,0:0:0:0:
448,192,67884,1,0,0:0:0:0:
192,192,67966,1,0,0:0:0:0:
64,192,68047,1,0,0:0:0:0:
320,192,68047,1,0,0:0:0:0:
448,192,68047,1,0,0:0:0:0:
192,192,68129,1,0,0:0:0:0:
64,192,68211,1,0,0:0:0:0:
448,192,68292,1,0,0:0:0:0:
320,192,68374,1,0,0:0:0:0:
192,192,68374,1,0,0:0:0:0:
64,192,68374,1,0,0:0:0:0:
448,192,68455,1,0,0:0:0:0:
192,192,68537,1,0,0:0:0:0:
64,192,68537,1,0,0:0:0:0:
320,192,68618,1,0,0:0:0:0:
448,192,68700,1,0,0:0:0:0:
192,192,68700,1,0,0:0:0:0:
64,192,68700,1,0,0:0:0:0:
320,192,68781,1,0,0:0:0:0:
192,192,68863,1,0,0:0:0:0:
64,192,68944,1,0,0:0:0:0:
448,192,69026,1,0,0:0:0:0:
320,192,69026,1,0,0:0:0:0:
192,192,69107,1,0,0:0:0:0:
320,192,69189,1,0,0:0:0:0:
448,192,69189,1,0,0:0:0:0:
64,192,69270,1,0,0:0:0:0:
192,192,69352,1,0,0:0:0:0:
320,192,69352,1,0,0:0:0:0:
448,192,69352,1,0,0:0:0:0:
64,192,69433,1,0,0:0:0:0:
192,192,69515,1,0,0:0:0:0:
320,192,69596,1,0,0:0:0:0:
448,192,69678,1,0,0:0:0:0:
64,192,69678,1,0,0:0:0:0:
192,192,69759,1,0,0:0:0:0:
448,192,69841,1,0,0:0:0:0:
64,192,69841,1,0,0:0:0:0:
320,192,69922,1,0,0:0:0:0:
192,192,70004,1,0,0:0:0:0:
64,192,70004,1,0,0:0:0:0:
448,192,70004,1,0,0:0:0:0:
320,192,70086,1,0,0:0:0:0:
64,192,70167,1,0,0:0:0:0:
448,192,70167,128,0,70493:0:0:0:0:
192,192,70249,1,0,0:0:0:0:
320,192,70330,1,0,0:0:0:0:
64,192,70412,1,0,0:0:0:0:
192,192,70493,1,0,0:0:0:0:
320,192,70493,1,0,0:0:0:0:
64,192,70575,1,0,0:0:0:0:
192,192,70656,1,0,0:0:0:0:
320,192,70656,1,0,0:0:0:0:
448,192,70656,1,0,0:0:0:0:
64,192,70738,1,0,0:0:0:0:
448,192,70819,1,0,0:0:0:0:
320,192,70901,1,0,0:0:0:0:
192,192,70982,1,0,0:0:0:0:
64,192,70982,1,0,0:0:0:0:
448,192,70982,1,0,0:0:0:0:
320,192,71063,1,0,0:0:0:0:
64,192,71145,1,0,0:0:0:0:
192,192,71226,1,0,0:0:0:0:
448,192,71308,1,0,0:0:0:0:
320,192,71308,1,0,0:0:0:0:
64,192,71308,1,0,0:0:0:0:
192,192,71389,1,0,0:0:0:0:
320,192,71471,1,0,0:0:0:0:
448,192,71552,1,0,0:0:0:0:
64,192,71634,1,0,0:0:0:0:
192,192,71634,1,0,0:0:0:0:
320,192,71715,1,0,0:0:0:0:
192,192,71797,1,0,0:0:0:0:
448,192,71797,1,0,0:0:0:0:
64,192,71878,1,0,0:0:0:0:
192,192,71960,1,0,0:0:0:0:
320,192,71960,1,0,0:0:0:0:
448,192,71960,1,0,0:0:0:0:
64,192,72041,1,0,0:0:0:0:
448,192,72123,128,0,73264:0:0:0:0:
320,192,72123,1,0,0:0:0:0:
192,192,72204,1,0,0:0:0:0:
64,192,72286,1,0,0:0:0:0:
320,192,72367,1,0,0:0:0:0:
64,192,72449,1,0,0:0:0:0:
320,192,72530,1,0,0:0:0:0:
192,192,72612,1,0,0:0:0:0:
64,192,72612,1,0,0:0:0:0:
320,192,72693,1,0,0:0:0:0:
64,192,72775,1,0,0:0:0:0:
192,192,72857,1,0,0:0:0:0:
320,192,72938,1,0,0:0:0:0:
64,192,73020,1,0,0:0:0:0:
320,192,73101,1,0,0:0:0:0:
64,192,73183,1,0,0:0:0:0:
192,192,73264,1,0,0:0:0:0:
320,192,73264,1,0,0:0:0:0:
64,192,73346,1,0,0:0:0:0:
448,192,73427,1,0,0:0:0:0:
192,192,73427,1,0,0:0:0:0:
320,192,73509,1,0,0:0:0:0:
64,192,73590,1,0,0:0:0:0:
192,192,73590,1,0,0:0:0:0:
448,192,73590,1,0,0:0:0:0:
320,192,73672,1,0,0:0:0:0:
192,192,73753,1,0,0:0:0:0:
64,192,73753,1,0,0:0:0:0:
448,192,73835,1,0,0:0:0:0:
320,192,73916,1,0,0:0:0:0:
192,192,73916,1,0,0:0:0:0:
64,192,73916,1,0,0:0:0:0:
448,192,73998,1,0,0:0:0:0:
320,192,74079,1,0,0:0:0:0:
64,192,74161,1,0,0:0:0:0:
192,192,74242,1,0,0:0:0:0:
448,192,74242,1,0,0:0:0:0:
320,192,74324,1,0,0:0:0:0:
192,192,74405,1,0,0:0:0:0:
448,192,74405,1,0,0:0:0:0:
64,192,74487,1,0,0:0:0:0:
320,192,74568,1,0,0:0:0:0:
192,192,74568,1,0,0:0:0:0:
448,192,74568,1,0,0:0:0:0:
64,192,74650,1,0,0:0:0:0:
192,192,74732,1,0,0:0:0:0:
448,192,74813,1,0,0:0:0:0:
320,192,74895,1,0,0:0:0:0:
64,192,74895,1,0,0:0:0:0:
192,192,74976,1,0,0:0:0:0:
320,192,75058,1,0,0:0:0:0:
64,192,75058,1,0,0:0:0:0:
448,192,75139,1,0,0:0:0:0:
320,192,75221,1,0,0:0:0:0:
192,192,75221,1,0,0:0:0:0:
64,192,75221,1,0,0:0:0:0:
448,192,75302,1,0,0:0:0:0:
192,192,75384,1,0,0:0:0:0:
64,192,75384,1,0,0:0:0:0:
320,192,75465,1,0,0:0:0:0:
192,192,75547,1,0,0:0:0:0:
448,192,75547,1,0,0:0:0:0:
64,192,75628,1,0,0:0:0:0:
192,192,75710,1,0,0:0:0:0:
320,192,75791,1,0,0:0:0:0:
448,192,75873,1,0,0:0:0:0:
64,192,75873,1,0,0:0:0:0:
192,192,75954,1,0,0:0:0:0:
320,192,75954,1,0,0:0:0:0:
448,192,76036,1,0,0:0:0:0:
64,192,76036,1,0,0:0:0:0:
192,192,76117,1,0,0:0:0:0:
320,192,76117,1,0,0:0:0:0:
448,192,76199,1,0,0:0:0:0:
64,192,76199,1,0,0:0:0:0:
192,192,76362,1,0,0:0:0:0:
448,192,76525,1,0,0:0:0:0:
320,192,76525,1,0,0:0:0:0:
64,192,76525,1,0,0:0:0:0:
320,192,76688,1,0,0:0:0:0:
448,192,76851,1,0,0:0:0:0:
192,192,76851,1,0,0:0:0:0:
192,192,77014,1,0,0:0:0:0:
64,192,77014,1,0,0:0:0:0:
448,192,77177,1,0,0:0:0:0:
320,192,77177,1,0,0:0:0:0:
64,192,77177,1,0,0:0:0:0:
320,192,77340,1,0,0:0:0:0:
448,192,77503,1,0,0:0:0:0:
64,192,77503,1,0,0:0:0:0:
320,192,77666,1,0,0:0:0:0:
192,192,77666,1,0,0:0:0:0:
448,192,77829,1,0,0:0:0:0:
64,192,77829,1,0,0:0:0:0:
192,192,77829,1,0,0:0:0:0:
448,192,77992,1,0,0:0:0:0:
64,192,78155,1,0,0:0:0:0:
192,192,78155,1,0,0:0:0:0:
192,192,78318,1,0,0:0:0:0:
320,192,78318,1,0,0:0:0:0:
448,192,78482,1,0,0:0:0:0:
64,192,78482,1,0,0:0:0:0:
320,192,78482,1,0,0:0:0:0:
448,192,78645,1,0,0:0:0:0:
64,192,78808,128,0,79460:0:0:0:0:
192,192,78808,1,0,0:0:0:0:
320,192,78808,1,0,0:0:0:0:
448,192,78971,1,0,0:0:0:0:
320,192,79134,1,0,0:0:0:0:
192,192,79134,1,0,0:0:0:0:
448,192,79297,1,0,0:0:0:0:
320,192,79378,1,0,0:0:0:0:
448,192,79460,128,0,80112:0:0:0:0:
192,192,79460,1,0,0:0:0:0:
320,192,79623,1,0,0:0:0:0:
64,192,79786,1,0,0:0:0:0:
192,192,79786,1,0,0:0:0:0:
320,192,79949,1,0,0:0:0:0:
320,192,80112,128,0,80764:0:0:0:0:
64,192,80112,1,0,0:0:0:0:
192,192,80275,1,0,0:0:0:0:
448,192,80438,1,0,0:0:0:0:
64,192,80438,1,0,0:0:0:0:
192,192,80601,1,0,0:0:0:0:
64,192,80683,1,0,0:0:0:0:
192,192,80764,128,0,81416:0:0:0:0:
448,192,80764,1,0,0:0:0:0:
64,192,80927,1,0,0:0:0:0:
320,192,81090,1,0,0:0:0:0:
448,192,81090,1,0,0:0:0:0:
64,192,81253,1,0,0:0:0:0:
320,192,81416,1,0,0:0:0:0:
448,192,81416,1,0,0:0:0:0:
64,192,81416,1,0,0:0:0:0:
448,192,86634,128,0,91525:0:0:0:0:
