osu file format v14

[General]
AudioFilename: audio.mp3
AudioLeadIn: 0
PreviewTime: 0
Countdown: 0
SampleSet: Soft
StackLeniency: 0.2
Mode: 0
LetterboxInBreaks: 0
WidescreenStoryboard: 1

[Editor]
Bookmarks: 10995,21430,31865,42300,51919,52734,55343,76199,86634
DistanceSpacing: 0.2
BeatDivisor: 4
GridSize: 4
TimelineZoom: 1.5

[Metadata]
Title:Ame, Kimi o Tsurete
TitleUnicode:Ame, Kimi o Tsurete
Artist:EGOIST
ArtistUnicode:EGOIST
Creator:borborygmos
Version:tears
Source:
Tags:I wish I was chinese...
BeatmapID:1297305
BeatmapSetID:611697

[Difficulty]
HPDrainRate:5
CircleSize:4
OverallDifficulty:8
ApproachRate:9
SliderMultiplier:1.5
SliderTickRate:1

[Events]
//Background and Video events
0,0,"maxresdefault (1).jpg",0,0
//Break Periods
//Storyboard Layer 0 (Background)
//Storyboard Layer 1 (Fail)
//Storyboard Layer 2 (Pass)
//Storyboard Layer 3 (Foreground)
//Storyboard Sound Samples

[TimingPoints]
561,326.086956521739,4,2,0,40,1,0
10995,-200,4,2,0,40,0,0
42300,-100,4,2,0,40,0,0
51919,-66.6666666666667,4,2,0,40,0,0
52164,-66.6666666666667,4,2,0,5,0,0
52245,-57.1428571428571,4,2,0,40,0,0
55343,-38.4615384615385,4,2,0,40,0,0
57789,-133.333333333333,4,2,0,40,0,0
57952,-38.4615384615385,4,2,0,40,0,0
60560,-100,4,2,0,40,0,0
60887,-80,4,2,0,40,0,0
61213,-66.6666666666667,4,2,0,40,0,0
61539,-50,4,2,0,40,0,0
61702,-43.4782608695652,4,2,0,40,0,0
63169,-66.6666666666667,4,2,0,40,0,0
63495,-57.1428571428571,4,2,0,40,0,0
63821,-50,4,2,0,40,0,0
64147,-43.4782608695652,4,2,0,40,0,0
64474,-38.4615384615385,4,2,0,40,0,0
70982,326.086956521739,4,2,0,40,1,0
70982,-100,4,2,0,40,0,0
71308,-75.187969924812,4,2,0,40,0,0
71634,-60.2409638554217,4,2,0,40,0,0
72123,-43.4782608695652,4,2,0,40,0,0
73590,-75.187969924812,4,2,0,40,0,0
73916,-60.2409638554217,4,2,0,40,0,0
74242,-50,4,2,0,40,0,0
74895,-43.4782608695652,4,2,0,40,0,0
75547,-38.4615384615385,4,2,0,40,0,0
76199,-50,4,2,0,40,0,0
81090,-133.333333333333,4,2,0,40,0,0
81416,-50,4,2,0,40,0,0
96742,-133.333333333333,4,2,0,40,0,0
97068,-133.333333333333,4,2,0,5,0,0

[Colours]
Combo1 : 255,255,128
Combo2 : 255,128,192
Combo3 : 128,128,192
Combo4 : 128,255,255

[HitObjects]
211,6,10995,6,0,P|229:61|234:129,4,112.5,6|2|2|2|2,0:0|0:0|0:0|0:0|0:0,0:0:0:0:
67,351,13441,1,4,3:0:0:0:
115,282,13604,6,0,P|177:293|236:291,4,112.5,2|2|2|2|2,0:0|0:0|0:0|0:0|0:0,0:0:0:0:
362,2,16050,1,4,3:0:0:0:
418,66,16213,6,0,P|354:75|308:93,4,112.5,6|2|2|2|2,3:0|0:0|0:0|0:0|0:0,0:0:0:0:
286,374,18658,1,4,3:0:0:0:
354,319,18821,2,0,P|342:269|327:195,4,112.5,2|2|2|2|2,0:0|0:0|0:0|0:0|0:0,0:0:0:0:
325,58,21267,1,0,0:0:0:0:
393,97,21430,6,0,L|406:7,1,75,2|0,3:0|0:0,0:0:0:0:
441,184,21919,1,0,0:0:0:0:
392,246,22082,2,0,P|378:289|378:325,1,75,2|0,0:0|0:0,0:0:0:0:
382,323,22490,1,0,3:0:0:0:
387,328,22571,1,4,3:0:0:0:
245,308,22734,6,0,L|196:316,1,37.5,2|0,0:0|0:0,0:0:0:0:
297,242,23060,1,0,0:0:0:0:
136,289,23224,2,0,L|95:278,1,37.5,2|0,0:0|0:0,0:0:0:0:
24,339,23550,2,0,L|12:374,1,37.5,2|0,0:0|0:0,0:0:0:0:
79,199,23876,1,4,3:0:0:0:
47,127,24039,6,0,L|46:46,1,75,2|0,0:0|0:0,0:0:0:0:
196,0,24528,1,0,0:0:0:0:
254,52,24691,2,0,P|241:86|234:133,1,75,2|0,0:0|0:0,0:0:0:0:
303,255,25180,5,4,3:0:0:0:
239,296,25343,2,0,L|193:299,2,37.5,2|0|0,0:0|0:0|0:0,0:0:0:0:
400,371,25832,2,0,L|444:347,1,37.5,2|0,0:0|0:0,0:0:0:0:
502,315,26158,2,0,L|516:266,1,37.5,2|0,0:0|0:0,0:0:0:0:
475,85,26484,1,4,3:0:0:0:
408,131,26647,6,0,P|402:174|388:212,1,75,2|0,0:0|0:0,0:0:0:0:
301,333,27137,1,0,0:0:0:0:
247,276,27300,2,0,P|238:240|218:189,1,75,2|0,0:0|0:0,0:0:0:0:
135,54,27789,1,4,3:0:0:0:
251,13,27952,6,0,L|300:18,1,37.5,2|0,0:0|0:0,0:0:0:0:
112,36,28278,1,0,0:0:0:0:
34,12,28441,2,0,L|42:56,1,37.5,2|0,0:0|0:0,0:0:0:0:
52,143,28767,2,0,L|44:187,1,37.5,2|0,0:0|0:0,0:0:0:0:
1,335,29093,1,2,0:0:0:0:
101,287,29256,5,2,0:0:0:0:
101,287,29419,2,2,B|163:271|179:346|214:374|242:369|274:348,1,187.5,2|0,0:1|0:0,0:0:0:0:
331,304,30397,1,2,0:0:0:0:
374,229,30560,1,2,0:0:0:0:
455,199,30724,1,2,0:0:0:0:
486,320,30887,6,2,B|467:289|407:284|383:333|347:317,1,150,2|0,0:1|0:0,0:0:0:0:
273,272,31702,1,2,3:0:0:0:
313,92,31865,6,0,P|310:59|301:15,1,75,6|0,0:0|0:0,0:0:0:0:
221,0,32354,1,0,0:0:0:0:
72,121,32517,2,0,P|26:108|-12:97,1,75,2|0,0:0|0:0,0:0:0:0:
0,181,33006,1,4,3:0:0:0:
62,241,33169,6,0,L|109:251,2,37.5,2|0|0,0:0|0:0|0:0,0:0:0:0:
163,384,33658,2,0,L|171:344,1,37.5,2|0,0:0|0:0,0:0:0:0:
218,264,33984,2,0,L|210:224,1,37.5,2|0,0:0|0:0,0:0:0:0:
169,143,34310,1,0,3:0:0:0:
166,135,34392,1,0,3:0:0:0:
163,127,34474,6,0,P|175:89|178:39,1,75,2|0,0:0|0:0,0:0:0:0:
105,19,34963,1,0,0:0:0:0:
313,0,35126,2,0,P|301:38|298:88,1,75,2|0,0:0|0:0,0:0:0:0:
363,135,35615,1,4,3:0:0:0:
433,330,35778,6,0,L|442:288,2,37.5,2|0|0,0:0|0:0|0:0,0:0:0:0:
352,368,36267,2,0,L|309:377,1,37.5,2|0,0:0|0:0,0:0:0:0:
238,341,36593,2,0,L|201:333,1,37.5,2|0,0:0|0:0,0:0:0:0:
124,366,36919,1,4,3:0:0:0:
37,160,37082,6,0,P|57:193|66:240,1,75,2|0,0:0|0:0,0:0:0:0:
20,291,37571,1,0,0:0:0:0:
165,222,37734,2,0,P|197:230|240:236,1,75,2|0,0:0|0:0,0:0:0:0:
314,192,38224,1,4,3:0:0:0:
268,89,38387,6,0,L|276:48,2,37.5,2|0|0,0:0|0:0|0:0,0:0:0:0:
191,122,38876,2,0,L|179:77,1,37.5,2|0,0:0|0:0,0:0:0:0:
191,122,39202,2,0,L|179:77,1,37.5,2|0,0:0|0:0,0:0:0:0:
121,26,39528,1,4,3:0:0:0:
16,65,39691,6,0,P|49:69|65:74,1,37.5,2|2,0:0|0:0,0:0:0:0:
125,162,40017,2,2,B|112:218|112:280|131:313,1,150,2|0,0:1|0:0,0:0:0:0:
213,342,40832,1,2,0:0:0:0:
281,124,40995,6,0,L|283:77,1,37.5,2|2,0:0|0:0,0:0:0:0:
388,16,41321,2,2,P|380:80|352:169,1,150,2|0,0:1|1:0,0:0:0:0:
278,211,42137,1,8,3:0:0:0:
406,376,42300,6,0,L|394:289,2,75,6|4|0,0:0|3:0|1:0,0:0:0:0:
453,235,42789,1,4,3:0:0:0:
327,384,42952,1,2,0:0:0:0:
252,374,43115,1,2,0:0:0:0:
167,330,43278,1,0,1:0:0:0:
237,208,43441,6,0,L|249:295,2,75,2|4|4,0:0|3:0|3:0,0:0:0:0:
330,324,43930,1,0,1:0:0:0:
377,253,44093,2,0,P|382:214|379:176,1,75,2|0,0:0|0:0,0:0:0:0:
324,131,44419,2,0,P|321:168|326:205,1,75,2|0,0:0|1:0,0:0:0:0:
432,211,44745,1,0,0:0:0:0:
496,142,44908,5,4,3:0:0:0:
499,152,44990,1,0,3:0:0:0:
502,162,45071,1,4,3:0:0:0:
419,75,45234,1,0,1:0:0:0:
446,0,45397,1,4,3:0:0:0:
337,90,45560,2,0,P|336:137|330:181,1,75,2|0,0:0|0:0,0:0:0:0:
367,14,45887,1,2,1:2:0:0:
261,53,46050,1,0,3:0:0:0:
250,50,46131,1,0,3:0:0:0:
239,47,46213,5,4,3:0:0:0:
173,0,46376,1,4,3:0:0:0:
92,149,46539,1,0,1:0:0:0:
34,99,46702,2,0,P|22:57|8:20,1,75,2|0,0:0|0:0,0:0:0:0:
0,211,47028,2,0,P|12:253|26:290,1,75,2|0,0:0|0:0,0:0:0:0:
95,318,47354,1,0,0:0:0:0:
145,209,47517,5,6,3:0:0:0:
130,315,47680,1,4,3:0:0:0:
166,225,47843,1,0,1:0:0:0:
177,299,48006,1,4,3:0:0:0:
239,255,48169,2,0,P|238:292|245:339,1,75,2|0,0:0|0:0,0:0:0:0:
368,215,48495,2,0,P|342:241|304:270,1,75,2|0,1:2|0:0,0:0:0:0:
279,182,48821,5,4,3:0:0:0:
281,99,48984,1,4,3:0:0:0:
331,196,49147,1,0,1:0:0:0:
369,131,49310,2,0,P|374:90|392:43,1,75,2|0,0:0|0:0,0:0:0:0:
482,9,49637,2,0,P|477:50|459:97,1,75,2|0,0:0|1:0,0:0:0:0:
410,140,49963,1,0,0:0:0:0:
459,235,50126,5,2,0:0:0:0:
475,195,50289,1,0,0:0:0:0:
470,318,50452,1,2,1:2:0:0:
512,283,50615,1,0,0:0:0:0:
375,286,50778,1,2,0:0:0:0:
381,362,50941,1,0,0:0:0:0:
262,284,51104,1,2,1:2:0:0:
312,227,51267,1,0,0:0:0:0:
294,113,51430,5,2,0:0:0:0:
274,238,51593,1,2,0:0:0:0:
279,85,51756,1,2,1:3:0:0:
157,212,51919,2,2,P|192:152|177:36,1,168.750006437302,2|0,1:0|0:0,0:0:0:0:
155,13,52245,2,2,P|189:98|363:161,1,262.500002503395,2|0,0:1|0:0,0:0:0:0:
475,355,52734,6,0,P|443:265|406:214,2,131.250001251698,2|0|0,0:0|0:0|0:0,0:0:0:0:
186,175,53224,2,0,P|258:236|316:262,2,131.250001251698,2|0|0,0:0|0:0|0:0,0:0:0:0:
352,0,53713,2,0,P|321:85|286:126,1,131.250001251698,2|0,0:0|0:0,0:0:0:0:
332,188,54039,5,0,1:0:0:0:
340,177,54120,1,0,1:0:0:0:
353,176,54202,1,0,1:0:0:0:
364,182,54283,1,0,1:0:0:0:
369,193,54365,1,0,1:0:0:0:
437,319,54528,1,0,1:0:0:0:
388,337,54609,1,0,1:0:0:0:
335,341,54691,6,0,P|306:272|284:249,1,65.6250006258488,2|0,1:0|1:0,0:0:0:0:
217,317,54854,2,0,P|226:242|218:211,1,65.6250006258488,2|0,1:0|1:0,0:0:0:0:
126,237,55017,2,0,P|171:177|180:146,1,65.6250006258488,2|0,1:0|1:0,0:0:0:0:
87,122,55180,2,0,P|155:93|179:71,1,65.6250006258488,2|0,1:0|1:0,0:0:0:0:
284,9,55343,6,0,P|275:84|299:216,1,194.999991073609,6|2,0:0|0:0,0:0:0:0:
115,70,55669,2,0,P|144:139|231:241,1,194.999991073609,2|2,1:2|0:0,0:0:0:0:
481,284,55995,2,0,P|420:238|294:193,1,194.999991073609,2|2,3:2|0:0,0:0:0:0:
512,107,56321,2,0,P|437:97|305:121,1,194.999991073609,2|2,1:2|0:0,0:0:0:0:
152,384,56647,6,0,P|198:324|243:197,1,194.999991073609,2|2,0:0|0:0,0:0:0:0:
198,48,56974,1,2,1:2:0:0:
15,269,57137,2,0,P|85:239|187:152,1,194.999991073609,2|0,0:0|0:0,0:0:0:0:
424,144,57463,2,0,P|335:184|262:248,1,194.999991073609,2|0,0:0|1:0,0:0:0:0:
301,384,57789,2,0,P|320:369|333:351,1,28.1250010728836,2|0,1:0|0:0,0:0:0:0:
228,375,57952,6,0,P|237:300|213:168,1,194.999991073609,6|0,0:0|0:0,0:0:0:0:
397,314,58278,2,0,P|368:245|281:143,1,194.999991073609,2|2,1:2|0:0,0:0:0:0:
31,100,58604,2,0,P|92:146|218:191,1,194.999991073609,2|2,0:0|0:0,0:0:0:0:
0,277,58930,2,0,P|75:287|207:263,1,194.999991073609,2|2,1:2|0:0,0:0:0:0:
360,0,59256,6,0,P|314:60|269:187,1,194.999991073609,2|2,0:0|0:0,0:0:0:0:
314,336,59582,1,2,1:2:0:0:
497,115,59746,2,0,P|427:145|325:232,1,194.999991073609,2|0,0:0|0:0,0:0:0:0:
88,240,60072,2,0,P|177:200|250:136,1,194.999991073609,2|0,0:0|1:0,0:0:0:0:
217,0,60397,1,4,0:0:0:0:
42,43,60560,6,2,L|46:131,1,75,2|2,1:0|1:0,0:0:0:0:
151,76,60887,2,2,L|113:172,1,93.75,2|2,1:0|1:0,0:0:0:0:
237,150,61213,2,2,L|124:260,1,112.500004291535,2|2,1:0|1:0,0:0:0:0:
88,340,61539,1,0,1:0:0:0:
212,303,61702,6,2,B|299:270|362:318|377:324|393:329|456:353|521:327|521:327|526:200|461:93|368:48|245:127|219:204|219:204|280:235|365:229|432:164,1,1035.00001974106,2|2,1:0|1:0,0:0:0:0:
209,132,62843,1,0,1:0:0:0:
51,329,63006,1,2,0:0:0:0:
38,153,63169,6,2,P|25:207|3:259,1,112.500004291535,2|2,1:0|1:0,0:0:0:0:
119,104,63495,2,2,P|135:182|125:275,1,131.250001251698,2|2,1:0|1:0,0:0:0:0:
184,0,63821,2,2,P|250:70|288:179,1,150,2|2,1:0|1:0,0:0:0:0:
357,341,64147,2,2,B|365:302|365:302|337:253|361:193|425:183|476:224|466:305|393:310,1,258.750004935265,2|2,1:0|1:0,0:0:0:0:
323,349,64474,6,0,P|317:232|402:125,1,194.999991073609,6|0,0:0|0:0,0:0:0:0:
484,58,64800,1,2,1:2:0:0:
291,339,64963,2,0,P|285:222|370:115,1,194.999991073609,2|2,1:2|1:2,0:0:0:0:
218,384,65289,2,0,P|131:305|115:169,1,194.999991073609,2|2,1:2|1:2,0:0:0:0:
151,146,65533,1,0,1:0:0:0:
162,48,65615,1,0,1:0:0:0:
75,3,65696,1,0,1:0:0:0:
5,71,65778,6,2,P|59:149|85:246,1,194.999991073609,2|2,0:0|0:0,0:0:0:0:
228,13,66104,2,2,P|211:106|160:193,1,194.999991073609,2|2,1:2|0:0,0:0:0:0:
350,383,66430,2,2,P|296:305|270:207,1,194.999991073609,2|2,0:0|0:0,0:0:0:0:
467,185,66756,2,2,P|373:168|286:117,1,194.999991073609,2|2,1:2|0:0,0:0:0:0:
58,309,67082,6,2,P|136:255|233:229,1,194.999991073609,2|2,0:0|0:0,0:0:0:0:
369,270,67408,1,2,1:2:0:0:
75,75,67571,2,2,P|168:91|255:142,1,194.999991073609,2|2,0:0|0:0,0:0:0:0:
131,384,67897,2,2,P|147:290|198:203,1,194.999991073609,2|2,0:0|1:2,0:0:0:0:
317,337,68224,1,2,0:0:0:0:
408,22,68387,6,2,P|376:164|309:260,1,194.999991073609,2|2,0:0|0:0,0:0:0:0:
185,0,68713,2,2,P|242:78|276:169,1,194.999991073609,2|2,1:2|0:0,0:0:0:0:
363,384,69039,2,2,P|256:285|206:179,1,194.999991073609,2|2,0:0|0:0,0:0:0:0:
493,201,69365,2,2,P|396:211|300:195,1,194.999991073609,2|2,1:2|0:0,0:0:0:0:
9,178,69691,6,2,P|147:134|264:144,1,194.999991073609,2|2,0:0|0:0,0:0:0:0:
341,223,70017,1,2,1:2:0:0:
102,382,70180,2,2,P|140:292|203:218,1,194.999991073609,2|0,0:0|0:0,0:0:0:0:
477,65,70506,2,2,P|439:155|376:229,1,194.999991073609,2|0,0:0|1:2,0:0:0:0:
130,245,70832,1,2,0:0:0:0:
28,62,70982,6,2,L|36:154,1,75,6|2,1:0|1:0,0:0:0:0:
146,54,71308,2,2,L|110:156,1,99.7499958904268,2|2,1:0|1:0,0:0:0:0:
269,99,71634,2,2,L|160:213,1,124.500001804733,2|2,1:0|1:0,0:0:0:0:
105,316,71960,1,2,1:2:0:0:
348,352,72123,6,2,B|343:302|305:261|182:203|212:8|472:-86|533:177|448:284|518:247|298:199|192:254|160:382|160:382|75:377|25:274|52:177,1,1035.00001974106,2|2,1:0|1:0,0:0:0:0:
89,4,73264,1,0,1:0:0:0:
0,49,73427,1,0,0:0:0:0:
125,129,73590,6,2,P|134:78|119:28,1,99.7499958904268,2|2,1:0|1:0,0:0:0:0:
203,183,73916,2,2,P|246:131|262:65,1,124.500001804733,2|2,1:0|1:0,0:0:0:0:
268,293,74242,2,2,P|323:242|364:179,1,150,2|2,1:0|1:0,0:0:0:0:
477,11,74568,2,2,P|454:82|450:157,1,150,6|2,1:0|1:0,0:0:0:0:
428,360,74895,6,2,P|389:282|336:215,1,172.500003290176,2|2,1:0|1:0,0:0:0:0:
95,124,75221,2,2,P|133:201|186:268,1,172.500003290176,2|2,1:0|1:0,0:0:0:0:
458,372,75547,6,2,P|410:276|341:194,1,194.999991073609,2|2,1:0|1:0,0:0:0:0:
65,112,75873,2,2,P|112:207|182:290,1,194.999991073609,2|2,1:0|1:0,0:0:0:0:
407,199,76117,1,0,1:0:0:0:
446,260,76199,6,0,P|364:209|325:130,1,150,6|0,1:2|0:0,0:0:0:0:
319,0,76525,1,2,1:2:0:0:
370,148,76688,1,2,0:0:0:0:
265,293,76851,2,2,P|243:198|271:115,1,150,2|2,0:0|0:0,0:0:0:0:
359,19,77177,1,2,1:2:0:0:
290,160,77340,1,2,0:0:0:0:
97,49,77503,6,2,P|162:83|206:143,1,150,2|2,0:0|0:0,0:0:0:0:
224,309,77829,1,2,1:2:0:0:
173,161,77992,1,2,0:0:0:0:
278,15,78155,2,2,P|299:86|289:159,1,150,2|2,0:0|0:0,0:0:0:0:
184,290,78481,1,2,1:2:0:0:
253,149,78644,1,2,0:0:0:0:
282,360,78808,5,2,0:0:0:0:
370,348,78971,1,2,0:0:0:0:
466,302,79134,1,2,0:0:0:0:
510,204,79297,1,2,0:0:0:0:
512,73,79460,5,2,0:0:0:0:
437,138,79623,1,2,0:0:0:0:
371,249,79786,1,2,0:0:0:0:
435,384,79949,1,2,0:0:0:0:
202,95,80112,6,0,P|252:167|247:256,1,150,2|0,0:0|0:0,0:0:0:0:
178,384,80438,1,0,1:2:0:0:
60,211,80601,2,0,P|146:226|206:292,1,150,2|0,0:0|0:0,0:0:0:0:
308,384,80927,1,0,0:0:0:0:
379,357,81090,2,0,P|406:328|409:270,1,84.3750032186509,2|0,1:2|0:0,0:0:0:0:
397,271,81416,6,2,P|395:192|439:111,1,150,6|2,0:0|0:0,0:0:0:0:
512,19,81742,1,2,1:2:0:0:
403,119,81905,1,2,0:0:0:0:
190,137,82068,2,2,P|244:79|332:53,1,150,2|2,0:0|0:0,0:0:0:0:
449,40,82394,1,2,1:2:0:0:
301,33,82557,1,2,0:0:0:0:
334,265,82721,6,2,P|299:198|240:154,1,150,2|2,0:0|0:0,0:0:0:0:
109,103,83047,1,2,1:2:0:0:
253,135,83210,1,2,0:0:0:0:
445,44,83373,2,2,P|374:21|300:32,1,150,2|2,0:0|0:0,0:0:0:0:
174,90,83699,1,2,1:2:0:0:
299,10,83862,1,2,0:0:0:0:
9,1,84025,6,2,P|45:56|73:161,1,150,2|2,0:0|0:0,0:0:0:0:
4,328,84351,1,2,1:2:0:0:
79,280,84514,1,2,0:0:0:0:
196,237,84677,2,2,P|255:259|362:271,1,150,2|2,0:0|0:0,0:0:0:0:
497,212,85003,1,2,1:2:0:0:
512,46,85166,1,2,0:0:0:0:
376,248,85329,6,0,L|390:332,2,75,2|0|0,1:2|1:0|1:0,0:0:0:0:
268,170,85574,1,0,1:0:0:0:
227,153,85655,2,0,P|221:100|206:58,2,75,2|0|2,1:2|1:0|1:2,0:0:0:0:
114,232,85900,1,0,1:0:0:0:
76,249,85982,6,0,P|93:342|91:358,1,75,0|0,1:0|1:0,0:0:0:0:
8,174,86145,1,0,1:0:0:0:
4,130,86226,1,0,1:0:0:0:
25,91,86308,1,0,1:0:0:0:
269,0,86471,1,0,1:0:0:0:
261,47,86552,1,0,1:0:0:0:
241,91,86634,6,2,P|286:173|286:252,1,150,6|2,0:0|0:0,0:0:0:0:
110,350,86960,1,2,1:2:0:0:
127,210,87123,1,2,0:0:0:0:
352,96,87286,2,2,P|325:185|269:241,1,150,2|2,0:0|0:0,0:0:0:0:
76,186,87612,1,2,1:2:0:0:
187,99,87775,1,2,0:0:0:0:
124,322,87938,6,2,P|79:240|79:161,1,150,2|2,0:0|0:0,0:0:0:0:
255,63,88264,1,2,1:2:0:0:
238,203,88427,1,2,0:0:0:0:
13,317,88590,2,2,P|39:227|95:171,1,150,2|2,0:0|0:0,0:0:0:0:
289,227,88916,1,2,1:2:0:0:
178,314,89079,1,2,0:0:0:0:
116,69,89242,6,2,L|89:216,2,150,2|2|2,0:0|0:0|1:2,0:0:0:0:
56,0,89732,1,2,0:0:0:0:
221,168,89895,2,2,L|194:20,2,150,2|2|2,0:0|0:0|1:2,0:0:0:0:
161,237,90384,1,2,0:0:0:0:
308,380,90547,6,2,P|274:276|291:202,1,150,2|2,0:0|0:0,0:0:0:0:
314,96,90873,2,2,P|387:14|459:-7,1,150,2|2,1:2|0:0,0:0:0:0:
332,380,91199,2,2,P|298:276|315:202,1,150,2|2,0:0|0:0,0:0:0:0:
338,96,91525,2,2,P|411:14|483:-7,1,150,2|2,1:2|1:2,0:0:0:0:
229,290,91851,6,2,P|184:208|184:129,1,150,6|2,0:0|0:0,0:0:0:0:
360,31,92177,1,2,1:2:0:0:
343,171,92340,1,2,0:0:0:0:
118,285,92503,2,2,P|145:196|201:140,1,150,2|2,0:0|0:0,0:0:0:0:
394,195,92829,1,2,1:2:0:0:
283,282,92992,1,2,0:0:0:0:
346,59,93155,6,2,P|391:141|391:220,1,150,2|2,0:0|0:0,0:0:0:0:
215,318,93481,1,2,1:2:0:0:
232,178,93644,1,2,0:0:0:0:
457,64,93807,2,2,P|431:154|375:210,1,150,2|2,0:0|0:0,0:0:0:0:
181,154,94133,1,2,1:2:0:0:
292,67,94296,1,2,0:0:0:0:
230,319,94459,6,2,L|257:172,2,150,6|2|2,0:0|0:0|1:2,0:0:0:0:
197,103,94949,1,2,0:0:0:0:
410,183,95112,2,2,L|383:35,2,150,2|2|2,1:2|0:0|1:2,0:0:0:0:
350,252,95601,1,2,0:0:0:0:
172,80,95764,6,0,P|265:46|345:86,1,150,4|0,0:0|0:0,0:0:0:0:
145,63,96090,1,0,1:0:0:0:
131,55,96172,1,0,1:0:0:0:
118,47,96253,1,0,1:0:0:0:
105,39,96335,1,0,1:0:0:0:
92,31,96416,2,0,P|93:66|77:137,1,75,0|0,1:0|1:0,0:0:0:0:
47,228,96579,2,0,P|30:258|-18:312,1,75,0|0,1:0|1:0,0:0:0:0:
178,384,96742,6,0,B|152:363|156:318|197:273|221:315,1,112.500004291535,2|0,3:0|0:0,0:0:0:0:
