osu file format v14

[General]
AudioFilename: mmpp33.mp3
AudioLeadIn: 0
PreviewTime: 54596
Countdown: 0
SampleSet: Soft
StackLeniency: 0.7
Mode: 0
LetterboxInBreaks: 0
WidescreenStoryboard: 0

[Editor]
Bookmarks: 10900,16118,21335,31770,42205,47422,53618,55248,65683,66333,76118
DistanceSpacing: 0.9
BeatDivisor: 4
GridSize: 4
TimelineZoom: 1.7

[Metadata]
Title:Ame, Kimi o Tsurete
TitleUnicode:雨、キミを連れて
Artist:EGOIST
ArtistUnicode:EGOIST
Creator:CaffeAmericano
Version:Insane
Source:
Tags:Guilty Crown supercell ryo ost chelly extra terrestrial biological entities eINess
BeatmapID:784893
BeatmapSetID:352704

[Difficulty]
HPDrainRate:6.5
CircleSize:4
OverallDifficulty:8.2
ApproachRate:9
SliderMultiplier:1.6
SliderTickRate:1

[Events]
//Background and Video events
0,0,"BG-2010.jpg",0,0
//Break Periods
//Storyboard Layer 0 (Background)
//Storyboard Layer 1 (Fail)
//Storyboard Layer 2 (Pass)
//Storyboard Layer 3 (Foreground)
//Storyboard Sound Samples

[TimingPoints]
10899,326.086956521739,4,2,1,70,1,0
21333,-100,4,2,1,60,0,0
42203,-100,4,2,1,70,0,0
53616,-100,4,2,1,70,0,0
55246,-100,4,2,1,80,0,1
65029,-100,4,2,1,60,0,1
65355,-100,4,2,1,70,0,0
65681,-100,4,2,1,80,0,1
76116,-100,4,2,1,80,0,0
76279,-100,4,2,1,50,0,0

[Colours]
Combo1 : 138,193,143
Combo2 : 149,122,188
Combo3 : 202,202,202
Combo4 : 0,128,255

[HitObjects]
361,64,10898,6,0,P|277:79|243:142,1,160,6|8,0:0|0:0,0:0:0:0:
328,152,11388,1,2,0:0:0:0:
279,231,11551,2,0,P|231:236|189:220,1,80,2|0,0:0|0:0,0:0:0:0:
146,163,11877,2,0,P|119:195|113:239,1,80,8|0,0:0|0:0,0:0:0:0:
35,297,12203,6,0,L|108:328,1,80,2|0,0:0|0:0,0:0:0:0:
187,259,12529,2,0,L|111:231,1,80,8|0,0:0|0:0,0:0:0:0:
208,356,12855,2,0,P|275:299|273:213,1,160,2|8,0:0|0:0,0:0:0:0:
198,166,13344,1,2,0:0:0:0:
108,272,13507,6,0,L|194:257,1,80,2|0,0:0|0:0,0:0:0:0:
279,231,13833,1,8,0:0:0:0:
198,166,13996,2,0,P|213:82|282:43,1,160,2|2,0:0|0:0,0:0:0:0:
384,169,14485,1,8,0:0:0:0:
291,140,14648,1,2,0:0:0:0:
202,237,14812,6,0,P|251:241|289:228,1,80,2|0,0:0|0:0,0:0:0:0:
462,159,15138,2,0,P|417:159|382:169,1,80,8|0,0:0|0:0,0:0:0:0:
309,260,15464,2,0,B|316:128|316:128|260:156,1,160,2|8,0:0|0:0,0:0:0:0:
313,353,15953,1,2,0:0:0:0:
313,353,16034,1,0,0:0:0:0:
313,353,16116,6,0,P|388:309|392:221,1,160,6|8,0:0|0:0,0:0:0:0:
344,162,16605,1,2,0:0:0:0:
309,260,16768,2,0,P|272:275|219:280,1,80,2|0,0:0|0:0,0:0:0:0:
267,181,17094,2,0,P|300:167|344:161,1,80,8|0,0:0|0:0,0:0:0:0:
176,204,17420,6,0,P|163:158|162:112,1,80,2|0,0:0|0:0,0:0:0:0:
343,161,17746,2,0,P|356:207|357:253,1,80,8|0,0:0|0:0,0:0:0:0:
232,280,18072,2,0,B|193:260|169:292|169:292|124:272|84:296,1,160,2|8,0:0|0:0,0:0:0:0:
130,364,18562,1,2,0:0:0:0:
345,328,18725,6,0,P|355:284|349:244,1,80,2|0,0:0|0:0,0:0:0:0:
254,90,19051,1,8,0:0:0:0:
128,180,19214,2,0,B|162:206|192:179|192:179|232:206|280:196,1,160,2|2,0:0|0:0,0:0:0:0:
364,52,19703,1,8,0:0:0:0:
254,90,19866,1,2,0:0:0:0:
388,160,20029,6,0,P|432:156|479:146,1,80,2|0,0:0|0:0,0:0:0:0:
333,79,20355,2,0,P|289:83|242:93,1,80,8|0,0:0|0:0,0:0:0:0:
128,180,20681,1,2,0:0:0:0:
260,184,20844,1,2,0:0:0:0:
112,48,21007,1,8,0:0:0:0:
236,258,21333,6,0,P|260:178|228:90,1,160,6|8,0:0|0:0,0:0:0:0:
128,180,21822,1,2,0:0:0:0:
159,343,21985,2,0,P|239:367|327:335,1,160,2|8,0:0|0:0,0:0:0:0:
392,264,22475,1,0,0:0:0:0:
399,228,22556,1,0,0:0:0:0:
388,193,22638,5,2,0:0:0:0:
295,229,22801,1,2,0:0:0:0:
460,140,22964,1,8,0:0:0:0:
296,128,23127,2,0,P|328:152|368:168,1,80,2|0,0:0|0:0,0:0:0:0:
380,56,23453,1,2,0:0:0:0:
228,176,23616,2,0,P|204:142|197:98,1,80,8|0,0:0|0:0,0:0:0:0:
360,152,23942,6,0,B|360:208|360:208|372:252|372:252|372:312,1,160,2|8,0:0|0:0,0:0:0:0:
444,192,24431,1,0,0:0:0:0:
288,288,24594,2,0,B|232:288|232:288|183:267|183:267|123:267,1,160,2|8,0:0|0:0,0:0:0:0:
172,344,25083,1,2,0:0:0:0:
138,161,25246,6,0,P|94:171|59:189,1,80,2|0,0:0|0:0,0:0:0:0:
132,267,25572,1,8,0:0:0:0:
246,162,25735,2,0,P|234:118|216:84,1,80,2|0,0:0|0:0,0:0:0:0:
344,152,26062,2,0,P|347:196|359:233,1,80,2|8,0:0|0:0,0:0:0:0:
468,168,26388,1,2,0:0:0:0:
364,68,26551,6,0,B|336:52|300:72|300:72|252:40|180:76,1,160,6|8,0:0|0:0,0:0:0:0:
120,144,27040,1,2,0:0:0:0:
200,296,27203,2,0,B|241:319|289:287|289:287|325:307|351:292,1,160,2|8,0:0|0:0,0:0:0:0:
444,244,27692,1,0,0:0:0:0:
233,212,27855,5,2,0:0:0:0:
292,364,28018,1,0,0:0:0:0:
340,184,28181,1,8,0:0:0:0:
120,144,28344,2,0,P|107:186|102:234,1,80,2|0,0:0|0:0,0:0:0:0:
200,296,28670,1,2,0:0:0:0:
272,160,28833,2,0,P|279:117|273:63,1,80,8|0,0:0|0:0,0:0:0:0:
200,240,29159,6,0,P|273:268|347:241,1,160,2|8,0:0|0:0,0:0:0:0:
252,56,29812,2,0,P|179:27|106:56,1,160,2|8,0:0|0:0,0:0:0:0:
113,181,30301,2,0,P|147:160|179:136,1,80,2|2,0:0|0:0,0:0:0:0:
8,128,30627,5,2,0:0:0:0:
96,296,30790,2,0,B|124:312|160:292|160:292|192:316|256:296,1,160,8|2,0:0|0:0,0:0:0:0:
168,32,31442,1,8,0:0:0:0:
80,108,31605,1,2,0:0:0:0:
224,136,31768,6,0,B|260:151|281:134|281:134|327:163|400:124,1,160,6|8,0:0|0:0,0:0:0:0:
328,52,32257,1,0,0:0:0:0:
248,224,32420,2,0,B|210:238|190:221|190:221|144:249|69:209,1,160,2|8,0:0|0:0,0:0:0:0:
144,136,32909,1,2,0:0:0:0:
336,200,33072,6,0,P|336:236|324:284,1,80,2|0,0:0|0:0,0:0:0:0:
184,300,33398,1,8,0:0:0:0:
280,121,33562,2,0,P|314:109|363:104,1,80,2|0,0:0|0:0,0:0:0:0:
436,196,33888,1,2,0:0:0:0:
248,224,34051,1,8,0:0:0:0:
324,312,34214,1,2,0:0:0:0:
340,216,34377,6,0,L|360:52,1,160,2|8,0:0|0:0,0:0:0:0:
440,104,34866,1,2,0:0:0:0:
272,152,35029,2,0,B|164:140|164:140|212:200,1,160,2|8,0:0|0:0,0:0:0:0:
324,312,35518,1,2,0:0:0:0:
432,192,35681,5,2,0:0:0:0:
296,152,35844,1,0,0:0:0:0:
448,280,36007,1,8,0:0:0:0:
420,104,36170,1,2,0:0:0:0:
296,236,36333,2,0,P|236:228|204:216,1,80,2|0,0:0|0:0,0:0:0:0:
80,352,36659,2,0,P|118:341|158:337,1,80,8|2,0:0|0:0,0:0:0:0:
324,332,36985,6,0,P|396:320|443:245,1,160,6|8,0:0|0:0,0:0:0:0:
344,232,37475,1,2,0:0:0:0:
420,104,37638,2,0,B|369:102|369:102|309:118|309:118|261:118,1,160,2|8,0:0|0:0,0:0:0:0:
188,40,38127,1,2,0:0:0:0:
108,141,38290,6,0,P|101:178|107:219,1,80,2|0,0:0|0:0,0:0:0:0:
292,340,38616,2,8,P|297:283|289:245,1,80,8|2,0:0|0:0,0:0:0:0:
262,118,38942,2,0,P|224:144|184:184,1,80,2|0,0:0|0:0,0:0:0:0:
212,348,39268,1,8,0:0:0:0:
152,268,39431,1,2,0:0:0:0:
320,264,39594,6,0,B|376:264|376:264|432:280|432:280|480:280,1,160,2|8,0:0|0:0,0:0:0:0:
364,364,40083,1,0,0:0:0:0:
241,199,40246,2,0,P|278:132|383:110,1,160,2|8,0:0|0:0,0:0:0:0:
350,216,40735,1,2,0:0:0:0:
176,104,40898,6,0,B|92:172|92:172|160:196,1,160,2|8,0:0|0:0,0:0:0:0:
311,230,41388,1,2,0:0:0:0:
157,327,41551,1,2,0:0:0:0:
241,199,41714,1,2,0:0:0:0:
361,318,41877,1,8,0:0:0:0:
232,278,42040,1,2,0:0:0:0:
332,120,42203,6,0,B|452:120|452:120|420:164,1,160,6|8,0:0|0:0,0:0:0:0:
311,230,42692,1,0,0:0:0:0:
140,204,42855,2,0,P|149:160|170:116,1,80,2|2,0:0|0:0,0:0:0:0:
332,120,43181,2,0,P|369:144|403:179,1,80,8|2,0:0|0:0,0:0:0:0:
361,318,43507,6,0,P|316:332|257:334,1,80,2|0,0:0|0:0,0:0:0:0:
97,279,43833,2,0,P|89:235|97:187,1,80,8|0,0:0|0:0,0:0:0:0:
192,48,44159,1,2,0:0:0:0:
241,199,44322,1,2,0:0:0:0:
45,139,44485,1,8,0:0:0:0:
198,124,44648,1,2,0:0:0:0:
91,200,44812,6,0,P|89:239|96:278,1,80,2|0,0:0|0:0,0:0:0:0:
283,335,45138,2,0,P|285:295|278:256,1,80,8|0,0:0|0:0,0:0:0:0:
99,303,45464,2,0,P|139:303|179:300,1,80,2|0,0:0|0:0,0:0:0:0:
198,124,45790,1,8,0:0:0:0:
91,200,45953,1,2,0:0:0:0:
105,104,46116,6,0,P|159:36|235:34,1,160,2|8,0:0|0:0,0:0:0:0:
352,80,46605,1,0,0:0:0:0:
277,255,46768,1,2,0:0:0:0:
198,124,46931,1,2,0:0:0:0:
396,156,47094,1,8,0:0:0:0:
271,171,47257,1,0,0:0:0:0:
227,31,47420,6,0,P|183:31|128:56,1,80,6|0,0:0|0:0,0:0:0:0:
56,200,47746,2,0,P|100:200|155:175,1,80,8|0,0:0|0:0,0:0:0:0:
292,84,48072,2,0,P|296:128|308:172,1,80,2|0,0:0|0:0,0:0:0:0:
348,328,48398,1,8,0:0:0:0:
224,336,48562,1,2,0:0:0:0:
292,216,48725,6,0,P|284:144|206:101,1,160,2|8,0:0|0:0,0:0:0:0:
132,224,49214,2,0,L|208:188,1,80,2|2,0:0|0:0,0:0:0:0:
128,132,49540,1,2,0:0:0:0:
128,340,49703,1,8,0:0:0:0:
232,272,49866,1,2,0:0:0:0:
32,192,50029,6,0,P|28:232|36:292,1,80,2|0,0:0|0:0,0:0:0:0:
220,168,50355,2,0,P|224:128|216:68,1,80,8|0,0:0|0:0,0:0:0:0:
132,224,50681,1,2,0:0:0:0:
304,228,50844,1,2,0:0:0:0:
260,28,51007,2,2,P|221:20|182:28,1,80,8|0,0:0|0:0,0:0:0:0:
178,212,51333,6,0,P|217:220|256:212,1,80,2|2,0:0|0:0,0:0:0:0:
352,128,51659,1,8,0:0:0:0:
188,108,51822,1,2,0:0:0:0:
148,116,51904,1,2,0:0:0:0:
112,136,51985,1,2,0:0:0:0:
88,168,52067,1,2,0:0:0:0:
76,208,52148,1,2,0:0:0:0:
84,248,52230,1,2,0:0:0:0:
104,284,52312,1,12,0:0:0:0:
256,192,52638,12,0,53616,0:0:0:0:
368,296,53942,5,2,0:0:0:0:
349,302,54023,1,2,0:0:0:0:
329,310,54105,1,2,0:0:0:0:
309,317,54187,1,2,0:0:0:0:
288,324,54268,2,8,L|184:316,1,80,8|2,0:0|0:0,0:0:0:0:
132,352,54513,1,2,0:0:0:0:
132,352,54594,6,2,P|113:345|96:336,1,40
84,184,54757,2,2,P|60:221|54:241,1,40
154,255,54920,1,8,0:0:0:0:
181,246,55002,1,8,0:0:0:0:
208,236,55083,1,8,0:0:0:0:
234,226,55165,1,8,0:0:0:0:
260,216,55246,6,0,P|216:200|192:176,1,80,6|0,0:0|0:0,0:0:0:0:
144,24,55572,1,8,0:0:0:0:
84,100,55735,1,0,0:0:0:0:
256,140,55898,2,2,P|308:160|336:192,1,80
396,348,56225,1,8,0:0:0:0:
432,248,56388,1,0,0:0:0:0:
254,287,56551,5,2,0:0:0:0:
344,272,56714,1,2,0:0:0:0:
225,370,56877,2,0,P|192:350|170:311,1,80,8|0,0:0|0:0,0:0:0:0:
184,148,57203,1,2,0:0:0:0:
280,212,57366,1,2,0:0:0:0:
112,228,57529,2,0,P|68:224|28:212,1,80,8|0,0:0|0:0,0:0:0:0:
264,112,57855,6,0,P|308:116|348:128,1,80,2|2,0:0|0:0,0:0:0:0:
184,148,58181,1,8,0:0:0:0:
260,32,58344,1,2,0:0:0:0:
416,152,58507,2,0,P|428:200|432:244,1,80,2|0,0:0|0:0,0:0:0:0:
254,287,58833,2,2,P|266:243|286:199,1,80,8|2,0:0|0:0,0:0:0:0:
308,116,59159,5,2,0:0:0:0:
260,32,59322,1,2,0:0:0:0:
416,152,59485,1,8,0:0:0:0:
195,135,59648,1,8,0:0:0:0:
348,232,59812,1,2,0:0:0:0:
308,116,59975,1,2,0:0:0:0:
387,43,60138,1,10,0:0:0:0:
387,43,60219,1,2,0:0:0:0:
387,43,60301,1,2,0:0:0:0:
260,32,60464,6,0,P|184:12|102:59,1,160,6|8,0:0|0:0,0:0:0:0:
82,159,60953,1,0,0:0:0:0:
125,266,61116,2,0,P|182:212|195:135,1,160,2|8,0:0|0:0,0:0:0:0:
82,159,61605,1,2,0:0:0:0:
289,208,61768,6,0,L|272:128,1,80,2|0,0:0|0:0,0:0:0:0:
387,43,62094,2,0,L|403:127,1,80,8|0,0:0|0:0,0:0:0:0:
472,208,62420,2,0,L|376:224,1,80,2|0,0:0|0:0,0:0:0:0:
193,266,62746,1,8,0:0:0:0:
289,208,62909,1,0,0:0:0:0:
205,361,63072,6,0,P|135:342|98:265,1,160,2|8,0:0|0:0,0:0:0:0:
82,159,63562,1,0,0:0:0:0:
197,87,63725,2,0,B|245:87|245:87|309:103|309:103|357:103,1,160,2|8,0:0|0:0,0:0:0:0:
229,183,64214,1,2,0:0:0:0:
96,76,64377,6,0,L|172:53,1,80,2|0,0:0|0:0,0:0:0:0:
140,224,64703,2,0,L|63:248,1,80,8|0,0:0|0:0,0:0:0:0:
76,140,65029,1,2,0:0:0:0:
110,129,65110,1,2,0:0:0:0:
146,125,65192,1,2,0:0:0:0:
180,133,65273,1,2,0:0:0:0:
209,154,65355,1,10,0:0:0:0:
229,183,65437,1,2,0:0:0:0:
238,217,65518,1,2,0:0:0:0:
240,252,65600,1,2,0:0:0:0:
236,288,65681,6,2,P|208:260|144:256,1,80,6|2,0:0|0:0,0:0:0:0:
424,240,66007,1,8,0:0:0:0:
336,352,66170,1,2,0:0:0:0:
276,180,66333,1,2,0:0:0:0:
336,256,66496,1,2,0:0:0:0:
459,95,66659,2,0,P|411:87|351:85,1,80,8|0,0:0|0:0,0:0:0:0:
212,115,66985,5,2,0:0:0:0:
173,195,67148,1,2,0:0:0:0:
336,256,67312,1,8,0:0:0:0:
276,180,67475,1,2,0:0:0:0:
136,284,67638,1,2,0:0:0:0:
240,276,67801,1,2,0:0:0:0:
365,163,67964,2,0,P|377:121|380:85,1,80,8|2,0:0|0:0,0:0:0:0:
227,36,68290,6,0,P|215:78|212:114,1,80,2|2,0:0|0:0,0:0:0:0:
418,245,68616,1,8,0:0:0:0:
418,245,68779,1,2,0:0:0:0:
288,344,68942,2,0,P|244:356|208:348,1,80,2|2,0:0|0:0,0:0:0:0:
52,184,69268,1,8,0:0:0:0:
52,184,69431,1,2,0:0:0:0:
188,76,69594,6,0,P|232:102|279:102,1,80,2|2,0:0|0:0,0:0:0:0:
436,148,69920,1,8,0:0:0:0:
304,24,70083,1,2,0:0:0:0:
276,200,70246,1,2,0:0:0:0:
396,64,70409,1,8,0:0:0:0:
259,104,70572,1,8,0:0:0:0:
368,208,70735,1,2,0:0:0:0:
189,282,70898,6,0,P|271:323|349:293,1,160,6|8,0:0|0:0,0:0:0:0:
452,232,71388,1,0,0:0:0:0:
328,144,71551,2,0,L|387:70,1,80,2|0,0:0|0:0,0:0:0:0:
141,142,71877,2,0,L|200:68,1,80,8|0,0:0|0:0,0:0:0:0:
239,191,72203,6,8,P|176:247|96:242,1,160,2|8,0:0|0:0,0:0:0:0:
141,142,72692,1,2,0:0:0:0:
328,144,72855,2,0,P|323:183|307:220,1,80,2|2,0:0|0:0,0:0:0:0:
140,141,73181,2,0,P|144:102|160:65,1,80,8|2,0:0|0:0,0:0:0:0:
360,284,73507,6,0,B|304:284|304:284|256:300|256:300|184:300,1,160,2|8,0:0|0:0,2:0:0:0:
324,356,73996,1,0,0:0:0:0:
464,284,74159,2,0,P|452:244|416:196,1,80,2|0,0:0|0:0,0:0:0:0:
220,148,74485,2,2,P|232:188|268:236,1,80,8|2,0:0|0:0,0:0:0:0:
308,104,74812,5,2,0:0:0:0:
292,80,74893,1,2,0:0:0:0:
268,64,74975,1,2,0:0:0:0:
244,52,75056,1,2,0:0:0:0:
216,48,75138,2,0,P|172:60|136:96,1,80,8|2,0:0|0:0,0:0:0:0:
124,216,75464,1,2,0:0:0:0:
136,240,75545,1,2,0:0:0:0:
156,260,75627,1,2,0:0:0:0:
180,272,75708,1,2,0:0:0:0:
208,280,75790,6,0,P|264:280|308:268,1,80,8|2,0:0|0:0,0:0:0:0:
412,168,76116,1,6,0:0:0:0:
256,192,76279,12,0,81333,0:0:0:0:
