osu file format v14

[General]
AudioFilename: audio.mp3
AudioLeadIn: 0
PreviewTime: 54604
Countdown: 0
SampleSet: Soft
StackLeniency: 0.7
Mode: 0
LetterboxInBreaks: 0
WidescreenStoryboard: 0

[Editor]
Bookmarks: 216180
DistanceSpacing: 1.6
BeatDivisor: 12
GridSize: 32
TimelineZoom: 1.9

[Metadata]
Title:Ame, Kimi o Tsurete
TitleUnicode:雨、キミを連れて
Artist:EGOIST
ArtistUnicode:EGOIST
Creator:Aistre
Version:Monochromatic Rainfall
Source:
Tags:ryo chelly supercell wo j-rock japanese j rock jrock Extra Terrestrial Biological Entities alphabet respirte gaz gazza log_off_now log off now lon kifo muya-
BeatmapID:4068538
BeatmapSetID:1962999

[Difficulty]
HPDrainRate:5
CircleSize:4
OverallDifficulty:9
ApproachRate:9.3
SliderMultiplier:2.05
SliderTickRate:0.5

[Events]
//Background and Video events
0,0,"gsdfgsdfg.png",0,0
//Break Periods
2,77956,80463
2,81543,85664
2,86760,90898
2,91978,95626
//Storyboard Layer 0 (Background)
//Storyboard Layer 1 (Fail)
//Storyboard Layer 2 (Pass)
//Storyboard Layer 3 (Foreground)
//Storyboard Layer 4 (Overlay)
//Storyboard Sound Samples

[TimingPoints]
474,326.086956521739,4,2,1,40,1,0
474,-200,4,2,1,40,0,0
10908,-117.647058823529,4,2,1,60,0,0
11397,-117.647058823529,4,2,2,60,0,0
11560,-117.647058823529,4,2,1,60,0,0
11723,-117.647058823529,4,2,2,60,0,0
11887,-117.647058823529,4,2,3,60,0,0
12050,-117.647058823529,4,2,2,60,0,0
12213,-117.647058823529,4,2,1,60,0,0
12376,-117.647058823529,4,2,2,60,0,0
12539,-117.647058823529,4,2,1,60,0,0
12865,-117.647058823529,4,2,3,60,0,0
13191,-117.647058823529,4,2,1,60,0,0
13517,-117.647058823529,4,2,4,60,0,0
13843,-117.647058823529,4,2,1,60,0,0
14006,-117.647058823529,4,2,2,60,0,0
14169,-117.647058823529,4,2,1,60,0,0
14332,-117.647058823529,4,2,2,60,0,0
14495,-117.647058823529,4,2,3,60,0,0
14658,-117.647058823529,4,2,2,60,0,0
14821,-117.647058823529,4,2,1,60,0,0
14984,-117.647058823529,4,2,2,60,0,0
15147,-117.647058823529,4,2,1,60,0,0
15473,-117.647058823529,4,2,3,60,0,0
15800,-117.647058823529,4,2,1,60,0,0
16126,-117.647058823529,4,2,4,60,0,0
16452,-117.647058823529,4,2,1,60,0,0
16615,-117.647058823529,4,2,2,60,0,0
16778,-117.647058823529,4,2,1,60,0,0
16941,-117.647058823529,4,2,2,60,0,0
17104,-117.647058823529,4,2,3,60,0,0
17267,-117.647058823529,4,2,2,60,0,0
17430,-117.647058823529,4,2,1,60,0,0
17593,-117.647058823529,4,2,2,60,0,0
17756,-117.647058823529,4,2,1,60,0,0
18082,-117.647058823529,4,2,3,60,0,0
18408,-117.647058823529,4,2,1,60,0,0
18734,-117.647058823529,4,2,4,60,0,0
19060,-117.647058823529,4,2,1,60,0,0
19223,-117.647058823529,4,2,2,60,0,0
19387,-117.647058823529,4,2,1,60,0,0
19550,-117.647058823529,4,2,2,60,0,0
19713,-117.647058823529,4,2,3,60,0,0
19876,-117.647058823529,4,2,2,60,0,0
20039,-117.647058823529,4,2,1,60,0,0
20202,-117.647058823529,4,2,2,60,0,0
20365,-117.647058823529,4,2,1,60,0,0
20691,-117.647058823529,4,2,3,60,0,0
21017,-117.647058823529,4,2,1,60,0,0
21180,-117.647058823529,4,2,2,60,0,0
21343,-117.647058823529,4,2,3,65,0,0
21669,-117.647058823529,4,2,1,65,0,0
21832,-117.647058823529,4,2,2,65,0,0
21995,-117.647058823529,4,2,3,65,0,0
22321,-117.647058823529,4,2,1,65,0,0
22484,-117.647058823529,4,2,2,65,0,0
22647,-117.647058823529,4,2,3,65,0,0
22810,-117.647058823529,4,2,2,65,0,0
22973,-117.647058823529,4,2,3,65,0,0
23137,-117.647058823529,4,2,2,65,0,0
23300,-117.647058823529,4,2,1,65,0,0
23463,-117.647058823529,4,2,2,65,0,0
23626,-117.647058823529,4,2,1,65,0,0
23789,-117.647058823529,4,2,2,65,0,0
23952,-117.647058823529,4,2,4,65,0,0
24278,-117.647058823529,4,2,1,65,0,0
24441,-117.647058823529,4,2,2,65,0,0
24604,-117.647058823529,4,2,3,65,0,0
24930,-117.647058823529,4,2,1,65,0,0
25093,-117.647058823529,4,2,2,65,0,0
25256,-117.647058823529,4,2,3,65,0,0
25419,-117.647058823529,4,2,2,65,0,0
25582,-117.647058823529,4,2,3,65,0,0
25745,-117.647058823529,4,2,2,65,0,0
25908,-117.647058823529,4,2,1,65,0,0
26071,-117.647058823529,4,2,2,65,0,0
26234,-117.647058823529,4,2,1,65,0,0
26397,-117.647058823529,4,2,2,65,0,0
26560,-117.647058823529,4,2,5,65,0,0
26887,-117.647058823529,4,2,1,65,0,0
27050,-117.647058823529,4,2,2,65,0,0
27213,-117.647058823529,4,2,3,65,0,0
27539,-117.647058823529,4,2,1,65,0,0
27702,-117.647058823529,4,2,2,65,0,0
27865,-117.647058823529,4,2,3,65,0,0
28028,-117.647058823529,4,2,2,65,0,0
28191,-117.647058823529,4,2,3,65,0,0
28354,-117.647058823529,4,2,2,65,0,0
28517,-117.647058823529,4,2,1,65,0,0
28680,-117.647058823529,4,2,2,65,0,0
28843,-117.647058823529,4,2,1,65,0,0
29006,-117.647058823529,4,2,2,65,0,0
29169,-117.647058823529,4,2,4,65,0,0
29332,-117.647058823529,4,2,2,65,0,0
29495,-117.647058823529,4,2,1,65,0,0
30310,-117.647058823529,4,2,2,65,0,0
30473,-117.647058823529,4,2,3,65,0,0
30637,-117.647058823529,4,2,2,65,0,0
30800,-117.647058823529,4,2,3,65,0,0
31126,-117.647058823529,4,2,1,65,0,0
31615,-117.647058823529,4,2,2,65,0,0
31778,-117.647058823529,4,2,5,65,0,0
32104,-117.647058823529,4,2,1,65,0,0
32267,-117.647058823529,4,2,2,65,0,0
32430,-117.647058823529,4,2,3,65,0,0
32756,-117.647058823529,4,2,1,65,0,0
32919,-117.647058823529,4,2,2,65,0,0
33082,-117.647058823529,4,2,3,65,0,0
33571,-117.647058823529,4,2,2,65,0,0
33734,-117.647058823529,4,2,3,65,0,0
33816,-117.647058823529,4,2,2,65,0,0
34060,-117.647058823529,4,2,1,65,0,0
34223,-117.647058823529,4,2,2,65,0,0
34387,-117.647058823529,4,2,4,65,0,0
34713,-117.647058823529,4,2,1,65,0,0
34876,-117.647058823529,4,2,2,65,0,0
35039,-117.647058823529,4,2,3,65,0,0
35365,-117.647058823529,4,2,1,65,0,0
35528,-117.647058823529,4,2,2,65,0,0
35691,-117.647058823529,4,2,3,65,0,0
35854,-117.647058823529,4,2,2,65,0,0
36017,-117.647058823529,4,2,3,65,0,0
36180,-117.647058823529,4,2,2,65,0,0
36343,-117.647058823529,4,2,1,65,0,0
36506,-117.647058823529,4,2,2,65,0,0
36669,-117.647058823529,4,2,1,65,0,0
36832,-117.647058823529,4,2,2,65,0,0
36995,-117.647058823529,4,2,5,65,0,0
37321,-117.647058823529,4,2,1,65,0,0
37484,-117.647058823529,4,2,2,65,0,0
37647,-117.647058823529,4,2,3,65,0,0
37973,-117.647058823529,4,2,1,65,0,0
38137,-117.647058823529,4,2,2,65,0,0
38300,-117.647058823529,4,2,3,65,0,0
38789,-117.647058823529,4,2,2,65,0,0
38952,-117.647058823529,4,2,1,65,0,0
39115,-117.647058823529,4,2,2,65,0,0
39278,-117.647058823529,4,2,1,65,0,0
39441,-117.647058823529,4,2,2,65,0,0
39604,-117.647058823529,4,2,4,65,0,0
39767,-117.647058823529,4,2,2,65,0,0
39930,-117.647058823529,4,2,3,65,0,0
40256,-117.647058823529,4,2,1,65,0,0
40745,-117.647058823529,4,2,2,65,0,0
40908,-117.647058823529,4,2,3,65,0,0
41071,-117.647058823529,4,2,2,65,0,0
41234,-117.647058823529,4,2,3,65,0,0
41560,-117.647058823529,4,2,1,65,0,0
41887,-117.647058823529,4,2,2,65,0,0
42213,-117.647058823529,4,2,4,75,0,0
42539,-117.647058823529,4,2,6,75,0,0
42702,-117.647058823529,4,2,2,75,0,0
42865,-117.647058823529,4,2,6,75,0,0
43028,-117.647058823529,4,2,2,75,0,0
43191,-117.647058823529,4,2,6,75,0,0
43354,-117.647058823529,4,2,2,75,0,0
43843,-117.647058823529,4,2,6,75,0,0
44006,-117.647058823529,4,2,2,75,0,0
44169,-117.647058823529,4,2,5,75,0,0
44332,-117.647058823529,4,2,2,75,0,0
44495,-117.647058823529,4,2,7,75,0,0
44658,-117.647058823529,4,2,2,75,0,0
44821,-117.647058823529,4,2,6,75,0,0
44984,-117.647058823529,4,2,2,75,0,0
45147,-117.647058823529,4,2,6,75,0,0
45310,-117.647058823529,4,2,2,75,0,0
45473,-117.647058823529,4,2,6,75,0,0
45637,-117.647058823529,4,2,2,75,0,0
45800,-117.647058823529,4,2,6,75,0,0
45963,-117.647058823529,4,2,2,75,0,0
46126,-117.647058823529,4,2,6,75,0,0
46289,-117.647058823529,4,2,2,75,0,0
46452,-117.647058823529,4,2,6,75,0,0
46615,-117.647058823529,4,2,2,75,0,0
46778,-117.647058823529,4,2,5,75,0,0
46941,-117.647058823529,4,2,2,75,0,0
47104,-117.647058823529,4,2,7,75,0,0
47267,-117.647058823529,4,2,2,75,0,0
47430,-117.647058823529,4,2,6,75,0,0
47593,-117.647058823529,4,2,2,75,0,0
47756,-117.647058823529,4,2,6,75,0,0
47919,-117.647058823529,4,2,2,75,0,0
48082,-117.647058823529,4,2,6,75,0,0
48245,-117.647058823529,4,2,2,75,0,0
48408,-117.647058823529,4,2,6,75,0,0
48571,-117.647058823529,4,2,2,75,0,0
48734,-117.647058823529,4,2,6,75,0,0
48897,-117.647058823529,4,2,2,75,0,0
49060,-117.647058823529,4,2,6,75,0,0
49223,-117.647058823529,4,2,2,75,0,0
49387,-117.647058823529,4,2,5,75,0,0
49550,-117.647058823529,4,2,2,75,0,0
49713,-117.647058823529,4,2,7,75,0,0
49876,-117.647058823529,4,2,2,75,0,0
50039,-117.647058823529,4,2,6,75,0,0
50202,-117.647058823529,4,2,2,75,0,0
50365,-117.647058823529,4,2,6,75,0,0
50528,-117.647058823529,4,2,2,75,0,0
50691,-117.647058823529,4,2,6,75,0,0
50854,-117.647058823529,4,2,2,75,0,0
51017,-117.647058823529,4,2,6,75,0,0
51180,-117.647058823529,4,2,2,75,0,0
51343,-117.647058823529,4,2,6,75,0,0
51506,-117.647058823529,4,2,2,75,0,0
51669,-117.647058823529,4,2,6,75,0,0
51832,-117.647058823529,4,2,2,75,0,0
51995,-76.9230769230769,4,2,2,75,0,0
52321,-76.9230769230769,4,2,7,75,0,0
52647,-133.333333333333,4,2,8,50,0,0
53952,-133.333333333333,4,2,8,80,0,0
54033,-133.333333333333,4,2,2,80,0,0
54278,-133.333333333333,4,2,8,80,0,0
54441,-133.333333333333,4,2,2,80,0,0
54604,-133.333333333333,4,2,8,80,0,0
54767,-133.333333333333,4,2,2,80,0,0
54930,-133.333333333333,4,2,8,80,0,0
55012,-133.333333333333,4,2,2,80,0,0
55256,-83.3333333333333,4,2,8,90,0,1
55582,-83.3333333333333,4,2,9,90,0,1
55745,-83.3333333333333,4,2,8,90,0,1
56071,-83.3333333333333,4,2,2,90,0,1
56234,-83.3333333333333,4,2,9,90,0,1
56397,-83.3333333333333,4,2,8,90,0,1
56723,-83.3333333333333,4,2,2,90,0,1
56887,-83.3333333333333,4,2,9,90,0,1
57050,-83.3333333333333,4,2,2,90,0,1
57213,-83.3333333333333,4,2,9,90,0,1
57376,-83.3333333333333,4,2,2,90,0,1
57539,-83.3333333333333,4,2,10,90,0,1
57702,-83.3333333333333,4,2,2,90,0,1
57865,-83.3333333333333,4,2,9,90,0,1
58028,-83.3333333333333,4,2,2,90,0,1
58191,-83.3333333333333,4,2,9,90,0,1
58354,-83.3333333333333,4,2,8,90,0,1
58680,-83.3333333333333,4,2,2,90,0,1
58843,-83.3333333333333,4,2,9,90,0,1
59006,-83.3333333333333,4,2,2,90,0,1
59169,-83.3333333333333,4,2,9,90,0,1
59332,-83.3333333333333,4,2,2,90,0,1
59495,-83.3333333333333,4,2,9,90,0,1
59658,-83.3333333333333,4,2,2,90,0,1
59821,-83.3333333333333,4,2,9,90,0,1
59984,-83.3333333333333,4,2,2,90,0,1
60147,-83.3333333333333,4,2,10,90,0,1
60310,-83.3333333333333,4,2,2,90,0,1
60473,-83.3333333333333,4,2,10,90,0,1
60800,-83.3333333333333,4,2,12,90,0,1
61289,-83.3333333333333,4,2,2,90,0,1
61452,-83.3333333333333,4,2,10,90,0,1
61615,-83.3333333333333,4,2,8,90,0,1
61941,-83.3333333333333,4,2,2,90,0,1
62104,-83.3333333333333,4,2,12,90,0,1
62593,-83.3333333333333,4,2,2,90,0,1
62756,-83.3333333333333,4,2,9,90,0,1
62919,-83.3333333333333,4,2,2,90,0,1
63082,-83.3333333333333,4,2,11,90,0,1
63408,-83.3333333333333,4,2,12,90,0,1
64876,-83.3333333333333,4,2,2,90,0,1
65039,-83.3333333333333,4,2,10,90,0,1
65202,-83.3333333333333,4,2,2,90,0,1
65691,-83.3333333333333,4,2,8,90,0,1
66017,-83.3333333333333,4,2,9,90,0,1
66180,-83.3333333333333,4,2,8,90,0,1
66506,-83.3333333333333,4,2,2,90,0,1
66669,-83.3333333333333,4,2,12,90,0,1
67158,-83.3333333333333,4,2,2,90,0,1
67321,-83.3333333333333,4,2,9,90,0,1
67484,-83.3333333333333,4,2,2,90,0,1
67647,-83.3333333333333,4,2,9,90,0,1
67810,-83.3333333333333,4,2,2,90,0,1
67973,-83.3333333333333,4,2,10,90,0,1
68137,-83.3333333333333,4,2,2,90,0,1
68300,-83.3333333333333,4,2,11,90,0,1
68463,-83.3333333333333,4,2,2,90,0,1
68626,-83.3333333333333,4,2,9,90,0,1
68789,-83.3333333333333,4,2,8,90,0,1
69115,-83.3333333333333,4,2,2,90,0,1
69278,-83.3333333333333,4,2,12,90,0,1
69767,-83.3333333333333,4,2,2,90,0,1
69930,-83.3333333333333,4,2,9,90,0,1
70093,-83.3333333333333,4,2,2,90,0,1
70256,-83.3333333333333,4,2,9,90,0,1
70419,-83.3333333333333,4,2,2,90,0,1
70582,-83.3333333333333,4,2,10,90,0,1
70745,-83.3333333333333,4,2,2,90,0,1
70908,-83.3333333333333,4,2,10,90,0,1
71234,-83.3333333333333,4,2,12,90,0,1
71723,-83.3333333333333,4,2,2,90,0,1
71887,-83.3333333333333,4,2,10,90,0,1
72050,-83.3333333333333,4,2,8,90,0,1
72376,-83.3333333333333,4,2,2,90,0,1
72539,-83.3333333333333,4,2,12,90,0,1
73028,-83.3333333333333,4,2,2,90,0,1
73191,-83.3333333333333,4,2,9,90,0,1
73354,-83.3333333333333,4,2,2,90,0,1
73517,-83.3333333333333,4,2,11,90,0,1
73843,-83.3333333333333,4,2,12,90,0,1
74495,-83.3333333333333,4,2,9,90,0,1
74821,-83.3333333333333,4,2,10,90,0,1
75147,-83.3333333333333,4,2,2,90,0,1
75555,-83.3333333333333,4,2,1,90,0,1
75637,-83.3333333333333,4,2,2,90,0,1
75718,-83.3333333333333,4,2,3,90,0,1
75881,-83.3333333333333,4,2,2,90,0,1
75963,-83.3333333333333,4,2,1,90,0,1
76044,-83.3333333333333,4,2,2,90,0,1
76126,-83.3333333333333,4,2,2,90,0,0
76778,-83.3333333333333,4,2,2,40,0,0
77430,-83.3333333333333,4,2,4,40,0,0
78082,-83.3333333333333,4,2,2,40,0,0
80039,-83.3333333333333,4,2,3,40,0,0
80365,-83.3333333333333,4,2,2,40,0,0
80691,-83.3333333333333,4,2,6,40,0,0
81017,-83.3333333333333,4,2,13,40,0,0
81425,-83.3333333333333,4,2,2,40,0,0
82647,-83.3333333333333,4,2,4,40,0,0
83300,-83.3333333333333,4,2,2,40,0,0
85256,-83.3333333333333,4,2,3,40,0,0
85908,-83.3333333333333,4,2,2,40,0,0
87865,-83.3333333333333,4,2,4,40,0,0
88517,-83.3333333333333,4,2,2,40,0,0
90473,-83.3333333333333,4,2,3,40,0,0
90800,-83.3333333333333,4,2,2,40,0,0
91126,-83.3333333333333,4,2,6,40,0,0
91452,-83.3333333333333,4,2,13,40,0,0
91859,-83.3333333333333,4,2,2,40,0,0
93082,-83.3333333333333,4,2,4,40,0,0
93734,-83.3333333333333,4,2,2,40,0,0
95691,-83.3333333333333,4,2,3,40,0,0
96017,-83.3333333333333,4,2,2,40,0,0
96180,-100,4,2,2,60,0,0
96669,-100,4,2,3,60,0,0
96995,-133.333333333333,4,2,2,55,0,0
98952,-133.333333333333,4,2,6,55,0,0
99278,-133.333333333333,4,2,2,55,0,0
99604,-666.666666666667,4,2,2,55,0,0
100256,-666.666666666667,4,2,99,55,0,0
100276,-666.666666666667,4,2,2,55,0,0
102213,-133.333333333333,4,2,13,55,0,0
102539,-133.333333333333,4,2,2,55,0,0
102865,-133.333333333333,4,2,6,55,0,0
103191,-133.333333333333,4,2,2,55,0,0
104169,-133.333333333333,4,2,6,55,0,0
104495,-133.333333333333,4,2,2,55,0,0
104821,-666.666666666667,4,2,2,55,0,0
105473,-666.666666666667,4,2,99,55,0,0
105493,-666.666666666667,4,2,2,55,0,0
107430,-133.333333333333,4,2,2,55,0,0
108082,-133.333333333333,4,2,6,55,0,0
108408,-133.333333333333,4,2,2,55,0,0
109387,-133.333333333333,4,2,6,55,0,0
109713,-133.333333333333,4,2,2,55,0,0
110039,-666.666666666667,4,2,2,55,0,0
110691,-666.666666666667,4,2,99,55,0,0
110711,-666.666666666667,4,2,2,55,0,0
112647,-133.333333333333,4,2,13,55,0,0
112973,-133.333333333333,4,2,2,55,0,0
113300,-133.333333333333,4,2,6,55,0,0
113626,-133.333333333333,4,2,2,55,0,0
114604,-133.333333333333,4,2,6,55,0,0
114930,-133.333333333333,4,2,2,55,0,0
115256,-666.666666666667,4,2,2,55,0,0
115908,-666.666666666667,4,2,99,55,0,0
115928,-666.666666666667,4,2,2,55,0,0
117539,-133.333333333333,4,2,3,55,0,0
117702,-133.333333333333,4,2,2,55,0,0
117865,-166.666666666667,4,2,14,60,0,0
118191,-166.666666666667,4,2,2,60,0,0
118517,-166.666666666667,4,2,6,60,0,0
118843,-166.666666666667,4,2,2,60,0,0
119169,-166.666666666667,4,2,6,60,0,0
119495,-166.666666666667,4,2,2,60,0,0
119821,-166.666666666667,4,2,6,60,0,0
120147,-166.666666666667,4,2,2,60,0,0
120473,-166.666666666667,4,2,6,60,0,0
121126,-166.666666666667,4,2,2,60,0,0
121778,-166.666666666667,4,2,6,60,0,0
122430,-166.666666666667,4,2,2,60,0,0
123082,-166.666666666667,4,2,4,60,0,0
123408,-166.666666666667,4,2,2,60,0,0
123734,-166.666666666667,4,2,6,60,0,0
124060,-166.666666666667,4,2,2,60,0,0
124387,-166.666666666667,4,2,6,60,0,0
124713,-166.666666666667,4,2,2,60,0,0
125039,-166.666666666667,4,2,6,60,0,0
125365,-166.666666666667,4,2,2,60,0,0
125691,-166.666666666667,4,2,6,60,0,0
126180,-166.666666666667,4,2,2,60,0,0
126995,-166.666666666667,4,2,6,60,0,0
127647,-166.666666666667,4,2,2,60,0,0
127973,-166.666666666667,4,2,11,60,0,0
128300,-117.647058823529,4,2,8,70,0,0
128381,-117.647058823529,4,2,2,70,0,0
128626,-117.647058823529,4,2,8,70,0,0
128707,-117.647058823529,4,2,2,70,0,0
128952,-117.647058823529,4,2,8,70,0,0
129033,-117.647058823529,4,2,2,70,0,0
129278,-117.647058823529,4,2,8,70,0,0
129359,-117.647058823529,4,2,2,70,0,0
129604,-117.647058823529,4,2,8,70,0,0
129685,-117.647058823529,4,2,2,70,0,0
129930,-117.647058823529,4,2,8,70,0,0
130012,-117.647058823529,4,2,2,70,0,0
130256,-117.647058823529,4,2,8,70,0,0
130338,-117.647058823529,4,2,2,70,0,0
130582,-117.647058823529,4,2,8,70,0,0
130664,-117.647058823529,4,2,2,70,0,0
130908,-117.647058823529,4,2,8,70,0,0
130990,-117.647058823529,4,2,2,70,0,0
131234,-117.647058823529,4,2,8,70,0,0
131316,-117.647058823529,4,2,2,70,0,0
131560,-117.647058823529,4,2,8,70,0,0
131642,-117.647058823529,4,2,2,70,0,0
131887,-117.647058823529,4,2,8,70,0,0
131968,-117.647058823529,4,2,2,70,0,0
132213,-117.647058823529,4,2,8,70,0,0
132294,-117.647058823529,4,2,2,70,0,0
132539,-117.647058823529,4,2,8,70,0,0
132620,-117.647058823529,4,2,2,70,0,0
132865,-117.647058823529,4,2,8,70,0,0
132946,-117.647058823529,4,2,2,70,0,0
133191,-117.647058823529,4,2,8,70,0,0
133272,-117.647058823529,4,2,2,70,0,0
133517,-117.647058823529,4,2,8,70,0,0
133598,-117.647058823529,4,2,2,70,0,0
133843,-100,4,2,8,70,0,0
133925,-100,4,2,2,70,0,0
134169,-100,4,2,8,70,0,0
134251,-100,4,2,2,70,0,0
134495,-100,4,2,8,70,0,0
134577,-100,4,2,2,70,0,0
134821,-100,4,2,8,70,0,0
134903,-100,4,2,2,70,0,0
135147,-100,4,2,8,70,0,0
135229,-100,4,2,2,70,0,0
135473,-100,4,2,8,70,0,0
135555,-100,4,2,2,70,0,0
135800,-100,4,2,8,70,0,0
135881,-100,4,2,2,70,0,0
136126,-100,4,2,8,70,0,0
136207,-100,4,2,2,70,0,0
136452,-100,4,2,8,70,0,0
136533,-100,4,2,2,70,0,0
136778,-100,4,2,8,70,0,0
136859,-100,4,2,2,70,0,0
137104,-100,4,2,8,70,0,0
137185,-100,4,2,2,70,0,0
137430,-100,4,2,8,75,0,0
137512,-100,4,2,2,75,0,0
137756,-100,4,2,8,75,0,0
137838,-100,4,2,2,75,0,0
138082,-100,4,2,8,75,0,0
138164,-100,4,2,2,75,0,0
138408,-100,4,2,5,75,0,0
138734,-100,4,2,2,75,0,0
138816,-100,4,2,1,75,0,0
138897,-100,4,2,2,75,0,0
138979,-100,4,2,1,75,0,0
139060,-100,4,2,2,75,0,0
139142,-100,4,2,7,75,0,0
139305,-100,4,2,1,75,0,0
139387,-100,4,2,2,75,0,0
139468,-100,4,2,1,75,0,0
139550,-100,4,2,2,75,0,0
139631,-100,4,2,7,75,0,0
139794,-100,4,2,1,75,0,0
139876,-100,4,2,2,75,0,0
139957,-100,4,2,1,75,0,0
140039,-100,4,2,2,75,0,0
140120,-100,4,2,7,75,0,0
140691,-100,4,2,2,65,0,0
140854,-100,4,2,4,65,0,0
141017,-250,4,2,6,65,0,0
141343,-83.3333333333333,4,2,8,90,0,1
141669,-83.3333333333333,4,2,9,90,0,1
141832,-83.3333333333333,4,2,8,90,0,1
142158,-83.3333333333333,4,2,2,90,0,1
142321,-83.3333333333333,4,2,9,90,0,1
142484,-83.3333333333333,4,2,8,90,0,1
142810,-83.3333333333333,4,2,2,90,0,1
142973,-83.3333333333333,4,2,9,90,0,1
143137,-83.3333333333333,4,2,2,90,0,1
143300,-83.3333333333333,4,2,9,90,0,1
143463,-83.3333333333333,4,2,2,90,0,1
143626,-83.3333333333333,4,2,10,90,0,1
143789,-83.3333333333333,4,2,2,90,0,1
143952,-83.3333333333333,4,2,9,90,0,1
144115,-83.3333333333333,4,2,2,90,0,1
144278,-83.3333333333333,4,2,9,90,0,1
144441,-83.3333333333333,4,2,8,90,0,1
144767,-83.3333333333333,4,2,2,90,0,1
144930,-83.3333333333333,4,2,9,90,0,1
145093,-83.3333333333333,4,2,2,90,0,1
145256,-83.3333333333333,4,2,9,90,0,1
145419,-83.3333333333333,4,2,2,90,0,1
145582,-83.3333333333333,4,2,9,90,0,1
145745,-83.3333333333333,4,2,2,90,0,1
145908,-83.3333333333333,4,2,9,90,0,1
146071,-83.3333333333333,4,2,2,90,0,1
146234,-83.3333333333333,4,2,10,90,0,1
146397,-83.3333333333333,4,2,2,90,0,1
146560,-83.3333333333333,4,2,10,90,0,1
146887,-83.3333333333333,4,2,12,90,0,1
147376,-83.3333333333333,4,2,2,90,0,1
147539,-83.3333333333333,4,2,10,90,0,1
147702,-83.3333333333333,4,2,8,90,0,1
148028,-83.3333333333333,4,2,2,90,0,1
148191,-83.3333333333333,4,2,12,90,0,1
148680,-83.3333333333333,4,2,2,90,0,1
148843,-83.3333333333333,4,2,9,90,0,1
149006,-83.3333333333333,4,2,2,90,0,1
149169,-83.3333333333333,4,2,11,90,0,1
149495,-83.3333333333333,4,2,12,90,0,1
150963,-83.3333333333333,4,2,2,90,0,1
151126,-83.3333333333333,4,2,10,90,0,1
151289,-83.3333333333333,4,2,2,90,0,1
151778,-83.3333333333333,4,2,8,90,0,1
152104,-83.3333333333333,4,2,9,90,0,1
152267,-83.3333333333333,4,2,8,90,0,1
152593,-83.3333333333333,4,2,2,90,0,1
152756,-83.3333333333333,4,2,12,90,0,1
153245,-83.3333333333333,4,2,2,90,0,1
153408,-83.3333333333333,4,2,9,90,0,1
153571,-83.3333333333333,4,2,2,90,0,1
153734,-83.3333333333333,4,2,9,90,0,1
153897,-83.3333333333333,4,2,2,90,0,1
154060,-83.3333333333333,4,2,10,90,0,1
154223,-83.3333333333333,4,2,2,90,0,1
154387,-83.3333333333333,4,2,11,90,0,1
154550,-83.3333333333333,4,2,2,90,0,1
154713,-83.3333333333333,4,2,9,90,0,1
154876,-83.3333333333333,4,2,8,90,0,1
155202,-83.3333333333333,4,2,2,90,0,1
155365,-83.3333333333333,4,2,12,90,0,1
155854,-83.3333333333333,4,2,2,90,0,1
156017,-83.3333333333333,4,2,9,90,0,1
156180,-83.3333333333333,4,2,2,90,0,1
156343,-83.3333333333333,4,2,9,90,0,1
156506,-83.3333333333333,4,2,2,90,0,1
156669,-83.3333333333333,4,2,10,90,0,1
156832,-83.3333333333333,4,2,2,90,0,1
156995,-83.3333333333333,4,2,10,90,0,1
157321,-83.3333333333333,4,2,12,90,0,1
157810,-83.3333333333333,4,2,2,90,0,1
157973,-83.3333333333333,4,2,10,90,0,1
158137,-83.3333333333333,4,2,8,90,0,1
158463,-83.3333333333333,4,2,2,90,0,1
158626,-83.3333333333333,4,2,12,90,0,1
159115,-83.3333333333333,4,2,2,90,0,1
159278,-83.3333333333333,4,2,9,90,0,1
159441,-83.3333333333333,4,2,2,90,0,1
159604,-83.3333333333333,4,2,11,90,0,1
159930,-83.3333333333333,4,2,12,90,0,1
160582,-83.3333333333333,4,2,9,90,0,1
160908,-83.3333333333333,4,2,12,90,0,1
161723,-83.3333333333333,4,2,2,90,0,1
161887,-83.3333333333333,4,2,7,90,0,1
162213,-83.3333333333333,4,2,2,60,0,1
162539,-117.647058823529,4,2,2,60,0,0
164821,-117.647058823529,4,2,13,60,0,0
165310,-117.647058823529,4,2,2,60,0,0
166615,-117.647058823529,4,2,3,60,0,0
166941,-117.647058823529,4,2,8,60,0,0
167104,-117.647058823529,4,2,1,60,0,0
167267,-117.647058823529,4,2,8,60,0,0
167430,-117.647058823529,4,2,2,60,0,0
170039,-117.647058823529,4,2,13,60,0,0
170528,-117.647058823529,4,2,2,60,0,0
171995,-117.647058823529,4,2,3,60,0,0
172104,-117.647058823529,4,2,2,60,0,0
172213,-117.647058823529,4,2,1,60,0,0
172321,-117.647058823529,4,2,2,60,0,0
172430,-117.647058823529,4,2,1,60,0,0
172539,-117.647058823529,4,2,8,60,0,0
172647,-100,4,2,8,70,0,0
173300,-100,4,2,10,70,0,0
173463,-100,4,2,8,70,0,0
174115,-100,4,2,2,70,0,0
174278,-100,4,2,9,70,0,0
174441,-100,4,2,2,70,0,0
174604,-100,4,2,9,70,0,0
174767,-100,4,2,8,70,0,0
175908,-100,4,2,10,70,0,0
176071,-100,4,2,2,70,0,0
176234,-100,4,2,12,70,0,0
176723,-100,4,2,2,70,0,0
176887,-100,4,2,9,70,0,0
177050,-100,4,2,2,70,0,0
177213,-100,4,2,9,70,0,0
177376,-100,4,2,8,70,0,0
177865,-100,4,2,2,70,0,0
178843,-100,4,2,15,70,0,0
179332,-100,4,2,2,70,0,0
179495,-100,4,2,3,70,0,0
179658,-100,4,2,2,70,0,0
179821,-100,4,2,15,70,0,0
179984,-100,4,2,2,70,0,0
180147,-100,4,2,15,70,0,0
180963,-100,4,2,2,70,0,0
181126,-100,4,2,3,70,0,0
181289,-100,4,2,2,70,0,0
181452,-100,4,2,15,70,0,0
181941,-100,4,2,2,70,0,0
182104,-100,4,2,3,70,0,0
182267,-100,4,2,2,70,0,0
182430,-100,4,2,15,70,0,0
182593,-100,4,2,2,70,0,0
182756,-100,4,2,15,70,0,0
183082,-133.333333333333,4,2,15,50,0,0
183571,-133.333333333333,4,2,2,50,0,0
193028,-133.333333333333,4,2,4,50,0,0
193191,-133.333333333333,4,2,6,50,0,0
193354,-133.333333333333,4,2,2,50,0,0
193517,-100,4,2,1,60,0,0
193680,-100,4,2,2,60,0,0
193843,-100,4,2,1,60,0,0
194006,-100,4,2,2,60,0,0
194169,-100,4,2,1,60,0,0
194332,-100,4,2,2,60,0,0
194495,-100,4,2,1,60,0,0
194984,-100,4,2,2,60,0,0
195147,-100,4,2,1,60,0,0
195310,-100,4,2,2,60,0,0
195473,-100,4,2,16,60,0,0
195637,-100,4,2,2,60,0,0
195800,-100,4,2,16,60,0,0
195963,-100,4,2,2,60,0,0
196126,-100,4,2,1,65,0,0
196289,-100,4,2,2,65,0,0
196452,-100,4,2,1,65,0,0
196615,-100,4,2,2,65,0,0
196778,-100,4,2,1,65,0,0
196941,-100,4,2,2,65,0,0
197104,-100,4,2,1,65,0,0
197593,-100,4,2,2,65,0,0
197756,-100,4,2,1,65,0,0
197919,-100,4,2,2,65,0,0
198082,-100,4,2,16,65,0,0
198245,-100,4,2,2,65,0,0
198408,-100,4,2,16,65,0,0
198571,-100,4,2,2,65,0,0
198734,-100,4,2,13,70,0,0
199060,-100,4,2,8,70,0,0
199713,-100,4,2,9,70,0,0
199876,-100,4,2,8,70,0,0
201343,-83.3333333333333,4,2,8,75,0,0
203626,-500,4,2,9,75,0,0
205256,-100,4,2,8,80,0,0
205338,-100,4,2,2,80,0,0
205582,-100,4,2,8,80,0,0
205745,-100,4,2,2,80,0,0
205908,-100,4,2,8,80,0,0
206071,-100,4,2,2,80,0,0
206234,-100,4,2,8,80,0,0
206316,-100,4,2,2,80,0,0
206560,-83.3333333333333,4,2,8,90,0,1
206887,-83.3333333333333,4,2,9,90,0,1
207050,-83.3333333333333,4,2,8,90,0,1
207376,-83.3333333333333,4,2,2,90,0,1
207539,-83.3333333333333,4,2,9,90,0,1
207702,-83.3333333333333,4,2,8,90,0,1
208028,-83.3333333333333,4,2,2,90,0,1
208191,-83.3333333333333,4,2,9,90,0,1
208354,-83.3333333333333,4,2,2,90,0,1
208517,-83.3333333333333,4,2,9,90,0,1
208680,-83.3333333333333,4,2,2,90,0,1
208843,-83.3333333333333,4,2,10,90,0,1
209006,-83.3333333333333,4,2,2,90,0,1
209169,-83.3333333333333,4,2,9,90,0,1
209332,-83.3333333333333,4,2,2,90,0,1
209495,-83.3333333333333,4,2,9,90,0,1
209658,-83.3333333333333,4,2,8,90,0,1
209984,-83.3333333333333,4,2,2,90,0,1
210147,-83.3333333333333,4,2,9,90,0,1
210310,-83.3333333333333,4,2,2,90,0,1
210473,-83.3333333333333,4,2,9,90,0,1
210637,-83.3333333333333,4,2,2,90,0,1
210800,-83.3333333333333,4,2,9,90,0,1
210963,-83.3333333333333,4,2,2,90,0,1
211126,-83.3333333333333,4,2,9,90,0,1
211289,-83.3333333333333,4,2,2,90,0,1
211452,-83.3333333333333,4,2,10,90,0,1
211615,-83.3333333333333,4,2,2,90,0,1
211778,-83.3333333333333,4,2,10,90,0,1
212104,-83.3333333333333,4,2,12,90,0,1
212593,-83.3333333333333,4,2,2,90,0,1
212756,-83.3333333333333,4,2,10,90,0,1
212919,-83.3333333333333,4,2,8,90,0,1
213245,-83.3333333333333,4,2,2,90,0,1
213408,-83.3333333333333,4,2,12,90,0,1
213897,-83.3333333333333,4,2,2,90,0,1
214060,-83.3333333333333,4,2,9,90,0,1
214223,-83.3333333333333,4,2,2,90,0,1
214387,-83.3333333333333,4,2,11,90,0,1
214713,-83.3333333333333,4,2,12,90,0,1
215691,-83.3333333333333,4,2,9,90,0,1
215854,-83.3333333333333,4,2,8,90,0,1
216180,-83.3333333333333,4,2,2,90,0,1
216343,-83.3333333333333,4,2,13,90,0,1
216506,-83.3333333333333,4,2,2,90,0,1
216669,-83.3333333333333,4,2,8,90,0,1
216751,-83.3333333333333,4,2,2,90,0,1
216995,-83.3333333333333,4,2,8,90,0,1
217321,-83.3333333333333,4,2,9,90,0,1
217484,-83.3333333333333,4,2,8,90,0,1
217810,-83.3333333333333,4,2,2,90,0,1
217973,-83.3333333333333,4,2,12,90,0,1
218463,-83.3333333333333,4,2,2,90,0,1
218626,-83.3333333333333,4,2,9,90,0,1
218789,-83.3333333333333,4,2,2,90,0,1
218952,-83.3333333333333,4,2,9,90,0,1
219115,-83.3333333333333,4,2,2,90,0,1
219278,-83.3333333333333,4,2,10,90,0,1
219441,-83.3333333333333,4,2,2,90,0,1
219604,-83.3333333333333,4,2,11,90,0,1
219767,-83.3333333333333,4,2,2,90,0,1
219930,-83.3333333333333,4,2,9,90,0,1
220093,-83.3333333333333,4,2,8,90,0,1
220419,-83.3333333333333,4,2,2,90,0,1
220582,-83.3333333333333,4,2,12,90,0,1
221071,-83.3333333333333,4,2,2,90,0,1
221234,-83.3333333333333,4,2,9,90,0,1
221397,-83.3333333333333,4,2,2,90,0,1
221560,-83.3333333333333,4,2,9,90,0,1
221723,-83.3333333333333,4,2,2,90,0,1
221887,-83.3333333333333,4,2,10,90,0,1
222050,-83.3333333333333,4,2,2,90,0,1
222213,-83.3333333333333,4,2,10,90,0,1
222539,-83.3333333333333,4,2,12,90,0,1
223028,-83.3333333333333,4,2,2,90,0,1
223191,-83.3333333333333,4,2,10,90,0,1
223354,-83.3333333333333,4,2,8,90,0,1
223680,-83.3333333333333,4,2,2,90,0,1
223843,-83.3333333333333,4,2,12,90,0,1
224332,-83.3333333333333,4,2,2,90,0,1
224495,-83.3333333333333,4,2,9,90,0,1
224658,-83.3333333333333,4,2,2,90,0,1
224821,-83.3333333333333,4,2,11,90,0,1
225147,-83.3333333333333,4,2,12,90,0,1
225800,-83.3333333333333,4,2,9,90,0,1
226126,-83.3333333333333,4,2,10,90,0,1
226452,-83.3333333333333,4,2,9,90,0,1
226778,-83.3333333333333,4,2,11,90,0,1
227104,-83.3333333333333,4,2,8,90,0,1
227185,-83.3333333333333,4,2,2,90,0,1
227430,-83.3333333333333,4,2,14,85,0,0
227593,-83.3333333333333,4,2,2,85,0,0
227756,-83.3333333333333,4,2,6,85,0,0
228082,-83.3333333333333,4,2,4,85,0,0
228245,-83.3333333333333,4,2,2,85,0,0
228408,-83.3333333333333,4,2,6,85,0,0
228734,-83.3333333333333,4,2,4,85,0,0
228897,-83.3333333333333,4,2,2,85,0,0
229060,-83.3333333333333,4,2,6,85,0,0
229387,-83.3333333333333,4,2,4,85,0,0
229550,-83.3333333333333,4,2,2,85,0,0
229713,-83.3333333333333,4,2,6,85,0,0
230039,-83.3333333333333,4,2,4,85,0,0
230202,-83.3333333333333,4,2,2,85,0,0
230365,-83.3333333333333,4,2,6,85,0,0
230691,-83.3333333333333,4,2,4,85,0,0
230854,-83.3333333333333,4,2,2,85,0,0
231017,-83.3333333333333,4,2,6,85,0,0
231180,-83.3333333333333,4,2,2,85,0,0
231343,-83.3333333333333,4,2,4,85,0,0
231669,-83.3333333333333,4,2,6,85,0,0
231832,-83.3333333333333,4,2,2,85,0,0
231995,-83.3333333333333,4,2,5,85,0,0
232158,-83.3333333333333,4,2,2,85,0,0
232321,-83.3333333333333,4,2,7,85,0,0
232484,-83.3333333333333,4,2,2,85,0,0
232647,-83.3333333333333,4,2,17,85,0,0
232810,-83.3333333333333,4,2,2,85,0,0
232973,-83.3333333333333,4,2,7,85,0,0
233137,-83.3333333333333,4,2,2,85,0,0
233300,-83.3333333333333,4,2,4,85,0,0
233463,-83.3333333333333,4,2,2,85,0,0
233626,-83.3333333333333,4,2,7,85,0,0
233789,-83.3333333333333,4,2,2,85,0,0
233952,-83.3333333333333,4,2,4,85,0,0
234115,-83.3333333333333,4,2,2,85,0,0
234278,-83.3333333333333,4,2,7,85,0,0
234441,-83.3333333333333,4,2,2,85,0,0
234604,-83.3333333333333,4,2,4,85,0,0
234767,-83.3333333333333,4,2,2,85,0,0
234930,-83.3333333333333,4,2,7,85,0,0
235093,-83.3333333333333,4,2,2,85,0,0
235256,-83.3333333333333,4,2,4,85,0,0
235419,-83.3333333333333,4,2,2,85,0,0
235582,-83.3333333333333,4,2,7,85,0,0
235745,-83.3333333333333,4,2,2,85,0,0
235908,-83.3333333333333,4,2,4,85,0,0
236071,-83.3333333333333,4,2,2,85,0,0
236234,-83.3333333333333,4,2,7,85,0,0
236397,-83.3333333333333,4,2,2,85,0,0
236560,-83.3333333333333,4,2,14,85,0,0
236642,-83.3333333333333,4,2,2,85,0,0
237050,-83.3333333333333,4,2,3,85,0,0
237131,-83.3333333333333,4,2,8,85,0,0
237294,-83.3333333333333,4,2,2,85,0,0
237539,-83.3333333333333,4,2,8,85,0,0
237620,-83.3333333333333,4,2,2,85,0,0
237865,-83.3333333333333,4,2,8,90,0,0
238191,-83.3333333333333,4,2,12,90,0,0
238680,-83.3333333333333,4,2,2,90,0,0
238843,-83.3333333333333,4,2,12,90,0,0
239332,-83.3333333333333,4,2,2,90,0,0
239495,-83.3333333333333,4,2,12,90,0,0
239984,-83.3333333333333,4,2,2,90,0,0
240147,-83.3333333333333,4,2,9,90,0,0
240473,-83.3333333333333,4,2,11,90,0,0
240637,-83.3333333333333,4,2,2,90,0,0
240800,-83.3333333333333,4,2,12,90,0,0
241289,-83.3333333333333,4,2,2,90,0,0
241452,-83.3333333333333,4,2,12,90,0,0
241941,-83.3333333333333,4,2,2,90,0,0
242104,-83.3333333333333,4,2,12,90,0,0
242593,-83.3333333333333,4,2,2,90,0,0
242756,-83.3333333333333,4,2,9,90,0,0
243082,-83.3333333333333,4,2,10,90,0,0
243245,-83.3333333333333,4,2,2,90,0,0
243408,-83.3333333333333,4,2,12,90,0,0
243897,-83.3333333333333,4,2,2,90,0,0
244060,-83.3333333333333,4,2,12,90,0,0
244550,-83.3333333333333,4,2,2,90,0,0
244713,-83.3333333333333,4,2,12,90,0,0
245202,-83.3333333333333,4,2,2,90,0,0
245365,-83.3333333333333,4,2,9,90,0,0
245691,-83.3333333333333,4,2,11,90,0,0
245854,-83.3333333333333,4,2,2,90,0,0
246017,-83.3333333333333,4,2,9,90,0,0
246506,-83.3333333333333,4,2,2,90,0,0
246669,-83.3333333333333,4,2,9,90,0,0
247321,-83.3333333333333,4,2,8,90,0,0
247403,-83.3333333333333,4,2,2,90,0,0
247647,-83.3333333333333,4,2,8,90,0,0
247729,-83.3333333333333,4,2,2,90,0,0
247973,-83.3333333333333,4,2,18,90,0,0

[Colours]
Combo1 : 248,73,69
Combo2 : 251,164,194
Combo3 : 255,217,128

[HitObjects]
180,60,474,6,0,L|193:110,2,51.25
256,64,963,2,0,L|256:0,2,51.25
331,60,1452,2,0,L|319:110,2,51.25
256,64,1941,2,0,L|256:0,2,51.25
180,60,2430,2,0,L|193:110,2,51.25
138,102,3082,6,0,L|151:152,2,51.25
256,64,3571,2,0,L|256:0,2,51.25
374,102,4060,2,0,L|361:152,2,51.25
256,64,4550,2,0,L|256:0,2,51.25
138,102,5039,2,0,L|151:152,2,51.25
97,143,5691,6,0,L|110:193,2,51.25
256,64,6180,2,0,L|256:0,2,51.25
415,143,6669,2,0,L|402:193,2,51.25
256,64,7158,2,0,L|256:0,2,51.25
97,143,7647,2,0,L|110:193,2,51.25
53,178,8300,6,0,L|66:228,2,51.25
256,64,8789,2,0,L|256:0,2,51.25
459,178,9278,2,0,L|446:228,2,51.25
256,64,9767,2,0,L|256:0,2,51.25
53,178,10256,2,0,L|66:228,2,51.25
56,326,10908,6,0,P|134:327|189:246,1,174.250003323555,14|10,2:1|2:2,0:0:0:0:
139,189,11397,2,0,L|41:176,1,87.1250016617775,2|10,2:2|2:2,0:0:0:0:
154,49,11723,1,2,2:2:0:0:
221,164,11887,1,10,2:2:0:0:
239,31,12050,1,10,2:1:0:0:
292,104,12213,5,10,2:2:0:0:
366,233,12376,2,0,P|420:204|437:78,1,174.250003323555,10|2,2:1|2:2,0:0:0:0:
284,228,12865,2,0,P|300:290|338:305,2,87.1250016617775,10|0|10,2:2|0:0|2:2,0:0:0:0:
366,233,13354,1,8,2:1:0:0:
256,370,13517,6,0,P|187:327|78:317,1,174.250003323555,10|10,2:2|2:2,0:0:0:0:
47,384,14006,2,0,P|9:339|18:290,1,87.1250016617775,2|10,2:2|2:2,0:0:0:0:
135,175,14332,1,2,2:2:0:0:
96,314,14495,1,10,2:2:0:0:
32,203,14658,1,10,2:1:0:0:
8,313,14821,5,10,2:2:0:0:
157,255,14984,2,0,P|206:226|215:190,1,87.1250016617775,10|10,2:1|2:2,0:0:0:0:
97,16,15310,1,0,0:0:0:0:
135,175,15473,2,0,L|245:137,2,87.1250016617775,10|8|10,2:2|2:1|0:0,0:0:0:0:
32,203,15963,1,8,2:1:0:0:
187,50,16126,6,0,B|288:56|258:97|350:105,1,174.250003323555,10|10,2:2|2:2,0:0:0:0:
454,135,16615,2,0,L|484:230,1,87.1250016617775,2|10,2:2|2:2,0:0:0:0:
496,37,16941,1,2,2:2:0:0:
406,228,17104,2,0,L|376:323,1,87.1250016617775,10|10,2:2|2:1,0:0:0:0:
454,135,17430,1,10,2:2:0:0:
362,143,17593,2,0,L|294:69,2,87.1250016617775,10|10|0,2:1|2:2|0:0,0:0:0:0:
301,209,18082,2,0,L|242:144,2,87.1250016617775,10|0|10,2:2|0:0|2:2,0:0:0:0:
295,298,18571,1,8,2:1:0:0:
184,369,18734,6,0,P|122:333|119:218,1,174.250003323555,10|10,2:2|2:2,0:0:0:0:
173,94,19223,2,0,P|186:148|166:183,1,87.1250016617775,2|10,2:2|2:2,0:0:0:0:
109,238,19550,1,2,2:2:0:0:
20,104,19713,1,10,2:2:0:0:
96,159,19876,1,10,2:1:0:0:
221,27,20039,5,10,2:2:0:0:
278,185,20202,2,0,L|373:215,1,87.1250016617775,10|10,2:1|2:2,0:0:0:0:
343,116,20528,1,0,0:0:0:0:
286,274,20691,2,0,L|191:304,1,87.1250016617775,10|8,2:2|2:2,0:0:0:0:
186,305,20935,1,8,2:2:0:0:
169,310,21017,1,10,2:2:0:0:
346,378,21180,1,2,2:2:0:0:
139,222,21343,6,0,P|57:256|55:356,1,174.250003323555,10|10,2:1|2:2,0:0:0:0:
133,384,21832,1,2,2:2:0:0:
202,300,21995,2,0,L|286:274,1,87.1250016617775,10|0,2:2|0:0,0:0:0:0:
345,181,22321,1,10,2:2:0:0:
190,95,22484,1,10,2:1:0:0:
190,95,22566,1,0,0:0:0:0:
190,95,22647,5,10,2:2:0:0:
226,212,22810,1,10,2:1:0:0:
267,135,22973,1,10,2:2:0:0:
150,17,23137,2,0,P|109:50|100:97,1,87.1250016617775,2|10,2:2|2:2,0:0:0:0:
17,121,23463,2,0,L|205:92,1,174.250003323555,2|10,2:2|2:1,0:0:0:0:
439,161,23952,6,0,L|251:132,1,174.250003323555,10|10,2:2|2:2,0:0:0:0:
322,61,24441,1,2,2:2:0:0:
512,122,24604,2,0,P|524:177|493:218,1,87.1250016617775,10|0,2:2|0:0,0:0:0:0:
437,247,24930,1,10,2:2:0:0:
365,199,25093,1,10,2:1:0:0:
237,269,25256,6,0,B|142:287|179:317|66:334,1,174.250003323555,10|10,2:2|2:2,0:0:0:0:
268,349,25745,2,0,P|319:308|321:264,1,87.1250016617775,2|10,2:2|2:2,0:0:0:0:
229,147,26071,1,10,2:1:0:0:
178,214,26234,2,0,P|219:265|263:267,1,87.1250016617775,10|10,2:2|2:1,0:0:0:0:
28,384,26560,6,0,L|-6:178,1,174.250003323555,10|10,2:2|2:2,0:0:0:0:
11,110,27050,1,2,2:2:0:0:
178,214,27213,2,0,P|158:261|113:275,1,87.1250016617775,10|0,2:2|0:0,0:0:0:0:
81,187,27539,1,10,2:2:0:0:
233,130,27702,1,10,2:1:0:0:
178,214,27865,5,10,2:2:0:0:
76,86,28028,1,10,2:1:0:0:
170,51,28191,1,10,2:2:0:0:
81,187,28354,2,0,L|-8:202,1,87.1250016617775,2|10,2:2|2:2,0:0:0:0:
127,274,28680,2,0,L|216:259,1,87.1250016617775,2|10,2:2|2:2,0:0:0:0:
298,303,29006,1,10,2:1:0:0:
298,303,29169,5,10,2:2:0:0:
474,249,29332,1,2,2:2:0:0:
474,249,29495,2,0,P|479:189|376:121,1,174.250003323555,10|10,2:2|2:2,0:0:0:0:
306,155,29984,1,0,0:0:0:0:
385,215,30147,1,10,2:2:0:0:
398,120,30310,1,10,2:1:0:0:
398,120,30473,5,10,2:2:0:0:
187,45,30637,1,10,2:1:0:0:
187,45,30800,2,0,L|5:78,1,174.250003323555,10|10,2:2|2:2,0:0:0:0:
128,172,31289,1,0,0:0:0:0:
143,178,31370,1,0,0:0:0:0:
159,184,31452,1,10,2:2:0:0:
90,17,31615,1,2,2:2:0:0:
14,197,31778,6,0,P|-7:244|88:331,1,174.250003323555,10|10,2:2|2:2,0:0:0:0:
128,384,32267,1,2,2:2:0:0:
221,244,32430,2,0,P|252:197|240:162,1,87.1250016617775,10|0,2:2|0:0,0:0:0:0:
102,206,32756,1,10,2:2:0:0:
174,311,32919,1,10,2:1:0:0:
309,283,33082,6,0,L|425:294,1,87.1250016617775,10|8,2:2|2:1,0:0:0:0:
440,214,33408,1,10,2:2:0:0:
362,373,33571,2,0,L|246:384,1,87.1250016617775,2|10,2:2|2:2,0:0:0:0:
395,291,33897,1,2,2:2:0:0:
274,202,34060,1,10,2:2:0:0:
309,283,34223,1,10,2:1:0:0:
326,126,34387,6,0,L|148:88,1,174.250003323555,10|10,2:2|2:2,0:0:0:0:
293,34,34876,1,2,2:2:0:0:
176,182,35039,2,0,L|61:206,1,87.1250016617775,10|0,2:2|0:0,0:0:0:0:
25,138,35365,1,10,2:2:0:0:
3,313,35528,1,10,2:1:0:0:
3,313,35609,1,0,0:0:0:0:
3,313,35691,5,10,2:2:0:0:
161,260,35854,1,10,2:1:0:0:
18,218,36017,1,10,2:2:0:0:
123,346,36180,2,0,P|175:355|215:334,1,87.1250016617775,2|10,2:2|2:2,0:0:0:0:
342,278,36506,1,10,2:1:0:0:
297,369,36669,1,10,2:2:0:0:
161,260,36832,1,10,2:1:0:0:
443,292,36995,6,0,L|411:104,1,174.250003323555,10|10,2:2|2:2,0:0:0:0:
293,187,37484,1,2,2:2:0:0:
379,43,37647,2,0,P|458:45|498:138,1,174.250003323555,10|10,2:2|2:2,0:0:0:0:
413,120,38137,1,10,2:1:0:0:
379,237,38300,6,0,L|180:218,1,174.250003323555,10|10,2:2|2:2,0:0:0:0:
79,108,38789,2,0,L|172:99,1,87.1250016617775,2|10,2:2|2:2,0:0:0:0:
293,187,39115,1,2,2:2:0:0:
149,272,39278,1,10,2:2:0:0:
224,147,39441,1,10,2:1:0:0:
224,147,39604,5,10,2:2:0:0:
206,337,39767,1,2,2:2:0:0:
206,337,39930,2,0,P|140:357|67:279,1,174.250003323555,10|10,2:2|2:2,0:0:0:0:
235,253,40419,1,0,0:0:0:0:
297,323,40582,1,10,2:2:0:0:
149,272,40745,1,10,2:1:0:0:
149,272,40908,5,10,2:2:0:0:
399,217,41071,1,10,2:1:0:0:
399,217,41234,2,0,P|461:161|444:79,1,174.250003323555,10|2,2:2|2:3,0:0:0:0:
306,10,41723,1,0,0:0:0:0:
306,10,41805,1,0,0:0:0:0:
306,10,41887,1,8,2:2:0:0:
187,348,42213,6,0,B|128:368|128:368|1:319,1,174.250003323555,14|10,2:1|2:2,0:0:0:0:
142,193,42702,1,10,2:1:0:0:
215,260,42865,2,0,L|121:289,1,87.1250016617775,2|2,2:2|2:2,0:0:0:0:
61,133,43191,1,10,2:2:0:0:
225,178,43354,6,0,L|319:207,1,87.1250016617775,10|2,2:1|2:3,0:0:0:0:
131,285,43680,1,10,2:1:0:0:
302,347,43843,1,10,2:2:0:0:
347,274,44006,2,0,P|339:230|305:202,1,87.1250016617775,2|10,2:2|2:1,0:0:0:0:
263,276,44332,2,0,P|271:320|305:348,1,87.1250016617775,10|10,2:1|2:2,0:0:0:0:
466,374,44658,1,2,2:2:0:0:
450,193,44821,5,10,2:1:0:0:
386,352,44984,1,10,2:1:0:0:
393,135,45147,1,10,2:2:0:0:
443,294,45310,1,10,2:1:0:0:
474,111,45473,2,0,L|485:16,1,87.1250016617775,2|2,2:2|2:2,0:0:0:0:
393,135,45800,2,0,L|313:169,1,87.1250016617775,10|10,2:2|2:1,0:0:0:0:
450,193,46126,5,2,2:2:0:0:
292,37,46289,1,10,2:1:0:0:
235,251,46452,1,10,2:2:0:0:
393,135,46615,2,0,L|404:40,1,87.1250016617775,2|10,2:2|2:1,0:0:0:0:
285,190,46941,1,10,2:1:0:0:
213,5,47104,1,10,2:2:0:0:
316,114,47267,1,2,2:2:0:0:
188,315,47430,6,0,P|151:269|158:224,1,87.1250016617775,10|10,2:1|2:1,0:0:0:0:
323,315,47756,2,0,P|355:285|361:243,1,87.1250016617775,10|10,2:2|2:1,0:0:0:0:
199,168,48082,1,2,2:2:0:0:
256,352,48245,1,2,2:2:0:0:
285,190,48408,1,10,2:2:0:0:
131,246,48571,1,10,2:1:0:0:
323,315,48734,6,0,L|416:334,1,87.1250016617775,2|10,2:2|2:1,0:0:0:0:
402,156,49060,1,10,2:2:0:0:
360,238,49223,2,0,L|454:229,1,87.1250016617775,2|10,2:2|2:1,0:0:0:0:
340,87,49550,1,10,2:1:0:0:
495,157,49713,1,10,2:2:0:0:
285,190,49876,1,2,2:2:0:0:
432,68,50039,6,0,P|414:22|376:1,1,87.1250016617775,10|10,2:1|2:1,0:0:0:0:
285,190,50365,1,10,2:2:0:0:
360,238,50528,1,10,2:1:0:0:
265,39,50691,1,2,2:2:0:0:
340,87,50854,1,2,2:2:0:0:
206,233,51017,1,10,2:2:0:0:
281,281,51180,1,10,2:1:0:0:
285,190,51343,5,2,2:2:0:0:
74,291,51506,1,10,2:1:0:0:
93,58,51669,1,14,2:2:0:0:
209,144,51832,1,10,2:2:0:0:
209,144,51914,1,8,2:2:0:0:
209,144,51995,6,0,L|124:168,1,66.6249969501497,8|8,2:2|2:2,0:0:0:0:
93,216,52158,2,0,L|28:197,1,66.6249969501497,10|8,2:2|2:2,0:0:0:0:
170,9,52321,1,10,2:1:0:0:
180,310,52647,6,0,L|201:220,2,76.8750029325486,2|2|2,2:2|2:2|2:2,0:0:0:0:
256,306,53136,2,0,L|256:386,2,76.8750029325486,2|2|2,2:2|2:2|2:2,0:0:0:0:
332,310,53626,2,0,L|311:220,1,76.8750029325486,2|2,2:2|2:2,0:0:0:0:
303,22,53952,5,8,2:2:0:0:
350,9,54033,1,8,2:2:0:0:
397,24,54115,1,8,2:2:0:0:
427,63,54196,1,8,2:2:0:0:
426,113,54278,1,8,2:2:0:0:
225,192,54441,1,8,2:2:0:0:
225,192,54522,1,8,2:2:0:0:
225,192,54604,1,10,2:2:0:0:
330,113,54767,5,8,2:2:0:0:
280,119,54848,1,8,2:2:0:0:
233,101,54930,1,8,2:2:0:0:
204,60,55011,1,8,2:2:0:0:
176,18,55094,1,8,2:2:0:0:
128,0,55176,1,8,2:2:0:0:
75,13,55256,6,0,P|23:57|14:109,1,122.999996246338,14|0,2:1|0:0,0:0:0:0:
181,293,55582,1,10,2:2:0:0:
115,108,55745,1,2,2:2:0:0:
21,229,55908,1,10,2:1:0:0:
181,161,56071,1,10,2:1:0:0:
259,324,56234,2,0,P|220:371|141:367,1,122.999996246338,10|2,2:2|2:2,0:0:0:0:
114,222,56560,5,10,2:1:0:0:
199,77,56723,1,10,2:1:0:0:
181,293,56887,1,10,2:2:0:0:
115,108,57050,2,0,L|-8:78,1,122.999996246338,2|10,2:2|2:1,0:0:0:0:
259,324,57376,1,10,2:1:0:0:
181,161,57539,1,14,2:2:0:0:
99,322,57702,6,0,L|361:280,1,245.999992492676,2|10,2:2|2:1,0:0:0:0:
469,180,58191,1,10,2:2:0:0:
374,378,58354,1,2,2:2:0:0:
247,198,58517,1,10,2:1:0:0:
478,306,58680,1,10,2:1:0:0:
352,124,58843,1,10,2:2:0:0:
259,324,59006,1,2,2:2:0:0:
416,249,59169,5,10,2:1:0:0:
256,96,59332,1,10,2:1:0:0:
96,249,59495,1,10,2:2:0:0:
0,180,59658,2,0,L|124:155,1,122.999996246338,2|10,2:2|2:1,0:0:0:0:
259,324,59984,1,10,2:1:0:0:
96,249,60147,2,0,L|220:224,1,122.999996246338,14|2,2:2|2:2,0:0:0:0:
497,68,60473,6,0,L|222:6,1,245.999992492676,14|10,2:1|2:2,0:0:0:0:
52,121,60963,1,0,0:0:0:0:
216,224,61126,1,10,2:1:0:0:
236,120,61289,1,10,2:1:0:0:
89,326,61452,1,10,2:2:0:0:
69,222,61615,1,2,2:2:0:0:
305,190,61778,5,10,2:1:0:0:
52,121,61941,1,10,2:1:0:0:
216,224,62104,1,10,2:2:0:0:
140,76,62267,1,0,0:0:0:0:
198,326,62430,1,10,2:1:0:0:
236,120,62593,1,10,2:1:0:0:
141,260,62756,1,10,2:2:0:0:
140,76,62919,1,2,2:2:0:0:
216,224,63082,6,0,P|266:276|332:275,1,122.999996246338,14|0,2:1|0:0,0:0:0:0:
398,251,63408,2,0,P|348:199|282:200,1,122.999996246338,10|0,2:2|0:0,0:0:0:0:
389,355,63734,2,0,P|459:337|491:280,1,122.999996246338,10|8,2:1|2:1,0:0:0:0:
398,138,64060,2,0,P|327:155|295:212,1,122.999996246338,10|0,2:2|0:0,0:0:0:0:
489,194,64387,6,0,L|502:47,1,122.999996246338,14|8,2:1|2:1,0:0:0:0:
182,231,64713,1,10,2:2:0:0:
389,355,64876,1,10,2:1:0:0:
307,66,65039,1,10,2:2:0:0:
212,345,65202,1,10,2:2:0:0:
169,347,65283,1,8,2:2:0:0:
127,335,65365,1,8,2:2:0:0:
91,310,65446,1,8,2:2:0:0:
71,271,65528,1,10,2:2:0:0:
63,228,65609,1,8,2:2:0:0:
75,186,65691,5,14,2:1:0:0:
251,124,65854,1,2,2:2:0:0:
182,231,66017,1,10,2:2:0:0:
6,79,66180,1,2,2:2:0:0:
158,139,66343,1,10,2:1:0:0:
0,262,66506,1,10,2:1:0:0:
86,84,66669,2,0,P|138:45|200:55,1,122.999996246338,10|0,2:2|0:0,0:0:0:0:
75,186,66995,5,10,2:1:0:0:
308,290,67158,1,10,2:1:0:0:
158,139,67321,1,10,2:2:0:0:
235,346,67484,2,0,P|287:385|349:375,1,122.999996246338,2|10,2:2|2:1,0:0:0:0:
387,241,67810,1,10,2:1:0:0:
224,256,67973,1,14,2:2:0:0:
375,152,68137,1,2,2:2:0:0:
308,290,68300,5,14,2:1:0:0:
468,266,68464,1,10,2:1:0:0:
298,206,68626,1,10,2:2:0:0:
431,341,68789,1,2,2:2:0:0:
224,256,68952,1,10,2:1:0:0:
455,180,69115,1,10,2:1:0:0:
220,166,69278,2,0,P|185:103|200:46,1,122.999996246338,10|0,2:2|0:0,0:0:0:0:
292,121,69604,5,10,2:1:0:0:
159,380,69767,1,10,2:1:0:0:
1,135,69930,1,10,2:2:0:0:
224,256,70093,2,0,L|350:286,1,122.999996246338,2|10,2:2|2:1,0:0:0:0:
194,55,70419,1,10,2:1:0:0:
149,210,70582,2,0,L|23:240,1,122.999996246338,14|2,2:2|2:2,0:0:0:0:
312,375,70908,6,0,P|422:344|410:217,1,245.999992492676,14|10,2:1|2:2,0:0:0:0:
350,187,71397,1,0,0:0:0:0:
343,284,71560,1,10,2:1:0:0:
438,152,71723,2,0,L|467:19,1,122.999996246338,10|10,2:1|2:2,0:0:0:0:
259,226,72050,1,2,2:2:0:0:
266,129,72213,5,10,2:1:0:0:
343,284,72376,1,10,2:1:0:0:
370,95,72539,1,10,2:2:0:0:
259,226,72702,1,0,0:0:0:0:
203,36,72865,1,10,2:1:0:0:
266,129,73028,1,10,2:1:0:0:
85,219,73191,2,0,P|12:177|7:129,1,122.999996246338,10|2,2:2|2:2,0:0:0:0:
69,17,73517,6,0,L|90:154,1,122.999996246338,14|8,2:1|2:1,0:0:0:0:
155,303,73843,2,0,L|176:166,1,122.999996246338,10|0,2:2|0:0,0:0:0:0:
87,138,74169,1,10,2:1:0:0:
0,229,74332,1,8,2:1:0:0:
162,384,74495,2,0,P|226:347|233:294,1,122.999996246338,14|0,2:2|0:0,0:0:0:0:
72,333,74821,5,14,2:1:0:0:
71,283,74903,1,0,0:0:0:0:
97,241,74984,1,8,2:2:0:0:
140,216,75066,1,8,2:2:0:0:
188,216,75147,1,10,2:2:0:0:
236,217,75228,1,8,0:0:0:0:
279,192,75310,1,8,2:2:0:0:
305,150,75391,1,8,2:2:0:0:
304,100,75473,1,10,2:2:0:0:
277,58,75555,1,8,2:3:0:0:
228,46,75637,1,8,2:3:0:0:
182,64,75718,1,4,2:3:0:0:
161,108,75800,2,0,L|236:126,1,61.499998123169,10|8,2:3|2:3,0:0:0:0:
290,277,75963,2,0,L|365:259,1,61.499998123169,4|4,2:3|2:3,0:0:0:0:
383,0,76126,5,14,2:1:0:0:
256,192,76207,12,0,77756,0:0:0:0:
256,192,81017,5,10,2:1:0:0:
256,192,81343,1,14,2:1:0:0:
256,192,86234,5,10,2:1:0:0:
256,192,86560,1,14,2:1:0:0:
256,192,91452,5,10,2:1:0:0:
256,192,91778,1,14,2:1:0:0:
256,192,96180,5,8,2:2:0:0:
256,192,96262,1,8,2:2:0:0:
256,192,96343,1,8,2:2:0:0:
171,263,96506,1,8,2:3:0:0:
101,181,96669,2,0,L|-13:164,1,102.5,6|0,2:3|0:0,0:0:0:0:
27,79,96995,6,0,P|99:115|88:198,2,153.750005865097,14|2|2,2:1|2:2|2:2,0:0:0:0:
27,79,97973,1,2,2:2:0:0:
16,251,98300,2,0,L|171:218,1,153.750005865097,10|2,2:2|2:2,0:0:0:0:
100,180,98952,2,0,L|255:213,1,153.750005865097,2|2,2:2|2:2,0:0:0:0:
499,252,99604,6,0,B|429:266|454:281|383:295,1,122.999996246338,2|10,2:2|2:2,0:0:0:0:
384,294,101887,1,10,2:1:0:0:
384,294,102213,6,0,P|321:224|353:147,1,153.750005865097,14|2,2:1|2:2,0:0:0:0:
408,211,102865,2,0,P|411:136|355:89,1,153.750005865097,2|2,2:2|2:2,0:0:0:0:
147,125,103517,2,0,L|302:148,1,153.750005865097,10|2,2:2|2:2,0:0:0:0:
221,85,104169,2,0,L|66:108,1,153.750005865097,2|2,2:2|2:2,0:0:0:0:
13,252,104821,6,0,B|83:266|58:281|127:294,1,122.999996246338,2|10,2:2|2:2,0:0:0:0:
127,294,107104,1,10,2:1:0:0:
127,294,107430,6,0,P|191:237|178:162,2,153.750005865097,14|2|2,2:1|2:2|2:2,0:0:0:0:
102,207,108408,1,2,2:2:0:0:
154,384,108734,2,0,L|302:340,1,153.750005865097,10|2,2:2|2:2,0:0:0:0:
385,323,109387,2,0,L|237:279,1,153.750005865097,2|2,2:2|2:2,0:0:0:0:
235,10,110039,6,0,B|249:80|264:55|278:126,1,122.999996246338,2|10,2:2|2:2,0:0:0:0:
277,124,112321,1,10,2:1:0:0:
216,197,112647,6,0,P|167:232|67:195,1,153.750005865097,14|2,2:1|2:2,0:0:0:0:
168,267,113300,2,0,P|217:302|317:265,1,153.750005865097,2|2,2:2|2:2,0:0:0:0:
144,157,113952,2,0,L|119:-16,1,153.750005865097,10|2,2:2|2:2,0:0:0:0:
97,88,114604,2,0,L|75:240,1,153.750005865097,2|2,2:2|2:2,0:0:0:0:
235,374,115256,6,0,B|249:304|264:329|278:258,1,122.999996246338,2|10,2:2|2:2,0:0:0:0:
256,192,117050,1,8,2:2:0:0:
256,192,117131,1,8,2:2:0:0:
256,192,117213,1,8,2:2:0:0:
274,207,117376,1,8,2:3:0:0:
449,211,117539,2,0,L|504:200,1,51.2500019550324,6|4,2:3|0:3,0:0:0:0:
356,109,117865,6,0,L|373:39,1,61.499998123169,14|0,2:1|0:0,0:0:0:0:
283,65,118191,2,0,L|266:-5,1,61.499998123169,2|0,2:2|0:0,0:0:0:0:
208,103,118517,2,0,L|225:33,1,61.499998123169,2|0,2:2|0:0,0:0:0:0:
135,59,118843,2,0,L|118:-11,1,61.499998123169,2|0,2:2|0:0,0:0:0:0:
128,140,119169,6,0,L|75:189,1,61.499998123169,10|0,2:2|0:0,0:0:0:0:
54,251,119495,2,0,L|106:201,1,61.499998123169,2|0,2:2|0:0,0:0:0:0:
208,208,119821,2,0,L|163:250,1,61.499998123169,2|0,2:2|0:0,0:0:0:0:
170,355,120147,2,0,L|214:312,1,61.499998123169,2|0,2:2|0:0,0:0:0:0:
287,250,120473,6,0,L|356:270,7,61.499998123169,2|0|0|0|2|0|0|0,2:2|0:0|0:0|0:0|2:3|0:0|0:0|0:0,0:0:0:0:
287,134,121778,2,0,L|356:114,7,61.499998123169,10|0|0|0|2|0|2|8,2:2|0:0|0:0|0:0|2:3|0:0|2:2|2:1,0:0:0:0:
243,65,123082,6,0,P|209:102|208:130,1,61.499998123169,10|0,2:1|0:0,0:0:0:0:
227,184,123408,2,0,P|215:212|191:230,1,61.499998123169,2|0,2:2|0:0,0:0:0:0:
125,188,123734,2,0,P|91:225|90:253,1,61.499998123169,2|0,2:2|0:0,0:0:0:0:
109,307,124060,2,0,P|97:335|73:353,1,61.499998123169,2|0,2:2|0:0,0:0:0:0:
186,309,124387,6,0,L|261:325,1,61.499998123169,10|0,2:2|0:0,0:0:0:0:
304,373,124713,2,0,L|229:357,1,61.499998123169,2|0,2:2|0:0,0:0:0:0:
273,246,125039,2,0,L|348:262,1,61.499998123169,2|0,2:2|0:0,0:0:0:0:
437,339,125365,2,0,L|362:323,1,61.499998123169,2|0,2:2|0:0,0:0:0:0:
342,182,125691,6,0,L|329:99,7,61.499998123169,2|0|0|2|2|0|2|0,2:2|0:0|0:0|2:2|2:3|0:0|2:2|0:0,0:0:0:0:
170,182,126995,2,0,L|183:99,6,61.499998123169,10|0|0|0|2|0|2,2:2|0:0|0:0|0:0|2:3|0:0|2:2,0:0:0:0:
15,252,128300,6,0,P|31:307|111:328,1,130.687502492666,14|8,2:2|2:2,0:0:0:0:
165,354,128626,2,0,L|228:373,3,43.5625008308888,10|8|8|8,2:2|2:2|2:2|2:2,0:0:0:0:
152,275,128952,2,0,L|201:257,3,43.5625008308888,10|8|8|8,2:2|2:2|2:2|2:2,0:0:0:0:
90,223,129278,2,0,L|122:182,3,43.5625008308888,10|8|8|8,2:2|2:2|2:2|2:2,0:0:0:0:
59,128,129604,5,10,2:2:0:0:
59,128,129685,1,8,2:2:0:0:
59,128,129767,2,0,L|92:84,1,43.5625008308888,8|8,2:2|2:2,0:0:0:0:
181,138,129930,1,10,2:2:0:0:
181,138,130012,1,8,2:2:0:0:
181,138,130094,2,0,L|202:188,1,43.5625008308888,8|8,2:2|2:2,0:0:0:0:
223,38,130256,5,10,2:2:0:0:
223,38,130338,1,8,2:2:0:0:
223,38,130419,2,0,L|256:-6,1,43.5625008308888,8|8,2:2|2:2,0:0:0:0:
345,48,130582,1,10,2:2:0:0:
345,48,130664,1,8,2:2:0:0:
345,48,130745,2,0,L|366:96,1,43.5625008308888,8|8,2:2|2:2,0:0:0:0:
439,108,130908,5,10,2:2:0:0:
429,141,130990,1,8,2:2:0:0:
405,166,131071,1,8,2:2:0:0:
371,176,131153,1,8,2:2:0:0:
337,168,131234,1,10,2:2:0:0:
303,160,131316,1,8,2:2:0:0:
269,170,131397,1,8,2:2:0:0:
246,195,131479,1,8,2:2:0:0:
236,229,131560,6,0,P|279:242|300:248,1,43.5625008308888,8|8,2:2|2:2,0:0:0:0:
377,307,131723,2,0,P|334:294|312:287,1,43.5625008308888,8|8,2:2|2:2,0:0:0:0:
267,338,131887,2,0,P|280:295|287:273,1,43.5625008308888,8|8,2:2|2:2,0:0:0:0:
345,197,132050,2,0,P|332:240|325:262,1,43.5625008308888,8|8,2:2|2:2,0:0:0:0:
175,356,132213,5,10,2:2:0:0:
134,371,132294,1,8,2:2:0:0:
91,370,132376,1,8,2:2:0:0:
52,351,132457,1,8,2:2:0:0:
24,318,132539,1,8,2:2:0:0:
11,277,132620,1,8,2:2:0:0:
16,234,132702,1,8,2:2:0:0:
37,197,132783,1,8,2:2:0:0:
72,171,132865,5,8,2:2:0:0:
118,196,132946,1,8,2:2:0:0:
169,185,133028,1,8,2:2:0:0:
209,153,133109,1,8,2:2:0:0:
228,103,133191,1,8,2:2:0:0:
247,54,133272,1,8,2:2:0:0:
286,21,133353,1,10,2:2:0:0:
338,11,133435,1,8,2:2:0:0:
387,24,133517,6,0,L|410:169,1,130.687502492666,14|8,2:2|2:2,0:0:0:0:
475,203,133843,5,10,2:2:0:0:
475,203,133925,1,8,2:2:0:0:
475,203,134006,2,0,L|512:264,1,51.25,10|8,2:2|2:2,0:0:0:0:
414,273,134169,1,10,2:2:0:0:
414,273,134251,1,8,2:2:0:0:
414,273,134332,2,0,L|414:335,1,51.25,10|8,2:2|2:2,0:0:0:0:
347,205,134495,1,10,2:2:0:0:
347,205,134577,1,8,2:2:0:0:
347,205,134658,2,0,L|310:266,1,51.25,10|8,2:2|2:2,0:0:0:0:
283,326,134821,5,10,2:2:0:0:
247,304,134903,1,8,2:2:0:0:
228,267,134984,1,8,2:2:0:0:
226,225,135066,1,8,2:2:0:0:
240,186,135147,1,10,2:2:0:0:
266,154,135229,1,8,2:2:0:0:
282,116,135310,1,10,2:2:0:0:
283,74,135392,1,8,2:2:0:0:
267,36,135473,6,0,L|205:27,3,51.25,8|8|10|8,2:2|2:2|2:2|2:2,0:0:0:0:
157,81,135800,2,0,L|95:72,3,51.25,8|8|10|8,2:2|2:2|2:2|2:2,0:0:0:0:
42,112,136126,5,10,2:2:0:0:
10,151,136207,1,8,2:2:0:0:
0,201,136289,1,10,2:2:0:0:
14,249,136370,1,8,2:2:0:0:
49,286,136452,1,10,2:2:0:0:
97,302,136533,1,8,2:2:0:0:
147,294,136615,1,10,2:2:0:0:
188,263,136696,1,8,2:2:0:0:
215,219,136778,1,10,2:2:0:0:
256,188,136859,1,8,2:2:0:0:
306,180,136941,1,10,2:2:0:0:
354,196,137022,1,8,2:2:0:0:
389,232,137104,1,10,2:2:0:0:
403,281,137185,1,8,2:2:0:0:
393,331,137267,1,10,2:2:0:0:
361,370,137348,1,8,2:2:0:0:
310,380,137430,5,10,2:2:0:0:
251,358,137512,1,8,2:2:0:0:
221,304,137593,1,10,2:2:0:0:
224,242,137675,1,8,2:2:0:0:
269,201,137756,1,10,2:2:0:0:
327,182,137838,1,8,2:2:0:0:
368,136,137919,1,10,2:2:0:0:
377,74,138001,1,8,2:2:0:0:
340,24,138082,1,8,2:2:0:0:
280,7,138164,1,8,2:2:0:0:
222,27,138245,1,10,2:2:0:0:
192,81,138327,1,8,2:2:0:0:
207,140,138408,2,0,B|296:162|260:180|349:203,1,153.75,2|0,2:3|0:0,0:0:0:0:
412,158,138734,5,8,2:2:0:0:
424,174,138816,1,8,2:3:0:0:
428,193,138897,1,8,2:3:0:0:
429,213,138979,1,4,2:3:0:0:
424,232,139060,2,0,P|400:259|355:267,1,51.25,4|4,2:3|2:3,0:0:0:0:
377,354,139223,5,8,2:2:0:0:
341,345,139305,1,8,2:3:0:0:
312,323,139387,1,8,2:3:0:0:
296,290,139468,1,4,2:3:0:0:
293,253,139550,2,0,P|304:222|330:193,1,51.25,4|4,2:3|2:3,0:0:0:0:
339,121,139713,5,8,2:2:0:0:
299,88,139794,1,8,2:3:0:0:
248,79,139876,1,8,2:3:0:0:
198,88,139957,1,4,2:3:0:0:
160,123,140039,2,0,P|139:154|137:195,1,51.25,4|4,2:3|2:3,0:0:0:0:
195,251,140202,5,8,2:2:0:0:
233,189,140283,1,8,2:2:0:0:
239,117,140365,1,8,2:2:0:0:
208,50,140446,1,8,2:2:0:0:
149,7,140528,1,8,2:2:0:0:
78,0,140609,1,8,2:2:0:0:
10,25,140691,1,10,2:2:0:0:
0,216,140854,5,2,2:3:0:0:
0,216,140935,1,2,2:3:0:0:
0,216,141017,2,0,B|36:208|19:202|58:193,1,61.5,2|0,2:3|0:0,0:0:0:0:
95,123,141343,6,0,P|160:135|170:290,1,245.999992492676,14|10,2:1|2:2,0:0:0:0:
16,384,141832,1,2,2:2:0:0:
121,227,141995,1,10,2:1:0:0:
234,381,142158,1,10,2:1:0:0:
293,160,142321,1,10,2:2:0:0:
172,287,142484,1,2,2:2:0:0:
241,94,142647,5,10,2:1:0:0:
374,251,142810,1,10,2:1:0:0:
210,168,142973,1,10,2:2:0:0:
371,76,143137,2,0,L|509:40,1,122.999996246338,2|10,2:2|2:1,0:0:0:0:
440,200,143463,1,10,2:1:0:0:
267,16,143626,1,14,2:2:0:0:
174,241,143789,6,0,P|55:226|60:99,1,245.999992492676,2|10,2:2|2:1,0:0:0:0:
166,4,144278,1,10,2:2:0:0:
121,165,144441,1,2,2:2:0:0:
78,23,144604,1,10,2:1:0:0:
0,219,144767,1,10,2:1:0:0:
142,83,144930,1,10,2:2:0:0:
229,312,145093,1,2,2:2:0:0:
203,142,145256,5,10,2:1:0:0:
56,287,145419,1,10,2:1:0:0:
292,371,145582,1,10,2:2:0:0:
203,231,145745,2,0,P|144:283|150:352,1,122.999996246338,2|10,2:2|2:1,0:0:0:0:
336,116,146071,1,10,2:1:0:0:
95,204,146234,1,14,2:2:0:0:
290,253,146397,1,2,2:2:0:0:
203,142,146560,6,0,L|223:6,1,122.999996246338,14|0,2:1|0:0,0:0:0:0:
439,232,146887,1,10,2:2:0:0:
278,174,147050,1,0,0:0:0:0:
466,376,147213,1,10,2:1:0:0:
359,201,147376,1,10,2:1:0:0:
298,334,147539,2,0,L|166:363,1,122.999996246338,10|2,2:2|2:2,0:0:0:0:
344,115,147865,6,0,L|476:86,1,122.999996246338,10|10,2:1|2:1,0:0:0:0:
389,322,148191,1,10,2:2:0:0:
278,174,148354,1,0,0:0:0:0:
191,263,148517,1,10,2:1:0:0:
149,85,148680,1,10,2:1:0:0:
186,172,148843,2,0,L|54:201,1,122.999996246338,10|2,2:2|2:2,0:0:0:0:
232,376,149169,5,14,2:1:0:0:
278,174,149332,1,8,2:1:0:0:
80,275,149495,2,0,P|98:332|152:359,1,122.999996246338,10|0,2:2|0:0,0:0:0:0:
309,286,149821,1,10,2:1:0:0:
65,198,149984,1,8,2:1:0:0:
295,89,150147,2,0,P|348:115|366:172,1,122.999996246338,10|0,2:2|0:0,0:0:0:0:
376,353,150473,5,14,2:1:0:0:
186,172,150637,1,8,2:1:0:0:
421,53,150800,1,10,2:2:0:0:
309,286,150963,1,10,2:1:0:0:
210,91,151126,1,10,2:2:0:0:
31,179,151289,1,10,2:2:0:0:
6,234,151370,1,8,2:2:0:0:
9,294,151452,1,8,2:2:0:0:
41,346,151533,1,8,2:2:0:0:
95,375,151615,1,10,2:2:0:0:
155,376,151696,1,8,2:2:0:0:
209,347,151778,6,0,P|167:284|102:280,1,122.999996246338,14|2,2:1|2:2,0:0:0:0:
31,179,152104,1,10,2:2:0:0:
95,375,152267,1,2,2:2:0:0:
0,98,152430,1,10,2:1:0:0:
124,275,152593,1,10,2:1:0:0:
195,145,152756,2,0,L|335:130,1,122.999996246338,10|0,2:2|0:0,0:0:0:0:
31,179,153082,5,10,2:1:0:0:
238,265,153245,1,10,2:1:0:0:
142,53,153408,1,10,2:2:0:0:
124,275,153571,2,0,P|150:347|197:373,1,122.999996246338,2|10,2:2|2:1,0:0:0:0:
298,204,153897,1,10,2:1:0:0:
382,371,154060,1,14,2:2:0:0:
357,142,154223,1,2,2:2:0:0:
238,265,154387,5,14,2:1:0:0:
268,37,154550,1,10,2:1:0:0:
450,176,154713,1,10,2:2:0:0:
357,57,154876,1,2,2:2:0:0:
298,203,155039,1,10,2:1:0:0:
431,97,155202,1,10,2:1:0:0:
485,327,155365,2,0,P|428:373|364:362,1,122.999996246338,10|0,2:2|0:0,0:0:0:0:
238,265,155691,5,10,2:1:0:0:
468,251,155854,1,10,2:1:0:0:
213,179,156017,1,10,2:2:0:0:
401,296,156180,2,0,L|371:148,1,122.999996246338,2|10,2:2|2:1,0:0:0:0:
157,248,156506,1,10,2:1:0:0:
234,46,156669,1,14,2:2:0:0:
298,203,156832,1,2,2:2:0:0:
64,340,156995,6,0,P|21:287|28:222,1,122.999996246338,14|0,2:1|0:0,0:0:0:0:
157,335,157321,2,0,L|280:367,1,122.999996246338,10|0,2:2|0:0,0:0:0:0:
352,135,157647,1,10,2:1:0:0:
405,258,157810,2,0,L|282:290,1,122.999996246338,10|10,2:1|2:2,0:0:0:0:
213,179,158137,1,2,2:2:0:0:
400,12,158300,6,0,P|491:46|509:188,1,245.999992492676,10|10,2:1|2:2,0:0:0:0:
378,358,158789,1,0,0:0:0:0:
429,167,158952,1,10,2:1:0:0:
501,283,159115,1,10,2:1:0:0:
352,135,159278,1,10,2:2:0:0:
240,303,159441,1,2,2:2:0:0:
144,95,159604,6,0,L|276:63,1,122.999996246338,14|8,2:1|2:1,0:0:0:0:
358,223,159930,2,0,L|226:191,1,122.999996246338,10|0,2:2|0:0,0:0:0:0:
62,329,160256,1,10,2:1:0:0:
43,239,160419,1,8,2:1:0:0:
135,264,160582,2,0,P|164:343|144:383,1,122.999996246338,14|8,2:2|2:1,0:0:0:0:
26,149,160908,6,0,L|-4:15,1,122.999996246338,14|8,2:2|2:1,0:0:0:0:
245,359,161234,2,0,L|379:329,1,122.999996246338,10|8,2:2|2:1,0:0:0:0:
416,37,161560,1,10,2:2:0:0:
43,239,161723,1,8,2:3:0:0:
263,276,161887,2,0,B|295:157|295:157|256:88,1,184.499994369507,6|0,2:3|0:0,0:0:0:0:
260,27,162213,5,14,2:1:0:0:
260,27,162539,2,0,P|206:47|191:84,1,87.1250016617775,8|2,2:1|2:2,0:0:0:0:
99,169,162865,2,0,L|-22:151,1,87.1250016617775,8|0,2:1|0:0,0:0:0:0:
105,78,163191,1,10,2:1:0:0:
105,78,163517,2,0,L|136:258,2,174.250003323555,8|8|10,2:1|2:1|2:1,0:0:0:0:
99,169,164332,1,2,2:2:0:0:
162,8,164495,1,10,2:1:0:0:
232,229,164658,1,8,2:2:0:0:
256,73,164821,5,14,2:1:0:0:
256,73,165147,2,0,L|356:85,1,87.1250016617775,8|2,2:1|2:2,0:0:0:0:
421,102,165473,2,0,L|321:114,1,87.1250016617775,8|0,2:1|0:0,0:0:0:0:
256,131,165800,2,0,L|356:143,1,87.1250016617775,10|2,2:1|2:2,0:0:0:0:
424,204,166126,2,0,L|507:36,1,174.250003323555,10|10,2:1|2:1,0:0:0:0:
421,102,166615,1,10,2:3:0:0:
471,292,166778,1,8,2:1:0:0:
499,153,166941,1,10,2:3:0:0:
387,321,167104,2,0,P|337:301|316:253,1,87.1250016617775,4|6,2:3|2:3,0:0:0:0:
205,46,167430,5,14,2:1:0:0:
205,46,167756,2,0,P|154:70|139:114,1,87.1250016617775,10|2,2:1|2:2,0:0:0:0:
87,155,168082,2,0,P|60:121|59:78,1,87.1250016617775,8|2,2:1|2:2,0:0:0:0:
286,170,168408,2,0,P|247:128|200:128,1,87.1250016617775,10|0,2:1|0:0,0:0:0:0:
19,213,168734,6,0,L|49:392,2,174.250003323555,10|8|10,2:1|2:1|2:1,0:0:0:0:
147,375,169550,1,10,2:2:0:0:
192,153,169713,1,10,2:1:0:0:
111,291,169876,1,10,2:2:0:0:
59,78,170039,5,14,2:1:0:0:
59,78,170365,2,0,L|156:59,1,87.1250016617775,10|2,2:1|2:2,0:0:0:0:
278,163,170691,2,0,L|171:150,1,87.1250016617775,8|2,2:1|2:2,0:0:0:0:
140,34,171017,2,0,L|237:15,1,87.1250016617775,10|0,2:1|0:0,0:0:0:0:
316,243,171343,5,10,2:2:0:0:
316,243,171452,2,0,P|354:212|361:183,1,58.083334441185,8|8,2:2|2:2,0:0:0:0:
277,79,171669,5,8,2:2:0:0:
277,79,171778,2,0,P|293:55|318:41,1,58.083334441185,8|8,2:2|2:2,0:0:0:0:
417,79,171995,5,10,2:3:0:0:
417,79,172104,2,0,P|387:117|358:125,1,58.083334441185,8|4,2:3|2:3,0:0:0:0:
249,175,172321,5,8,2:3:0:0:
249,175,172430,2,0,P|225:191|211:216,1,58.083334441185,4|4,2:3|2:3,0:0:0:0:
246,355,172647,5,14,2:1:0:0:
246,355,172973,1,10,2:1:0:0:
401,313,173137,1,2,2:2:0:0:
180,289,173300,2,0,L|59:264,1,102.5,10|2,2:2|2:2,0:0:0:0:
277,91,173626,2,0,P|330:129|329:183,1,102.5,10|0,2:1|0:0,0:0:0:0:
290,242,173952,5,10,2:1:0:0:
194,23,174115,1,10,2:2:0:0:
37,183,174278,1,10,2:1:0:0:
114,52,174441,1,2,2:2:0:0:
148,154,174604,2,0,L|263:177,1,102.5,10|2,2:2|2:2,0:0:0:0:
377,70,174930,2,0,L|276:90,1,102.5,10|0,2:1|0:0,0:0:0:0:
290,242,175256,5,10,2:1:0:0:
290,242,175582,2,0,P|338:274|357:329,1,102.5,10|2,2:1|2:2,0:0:0:0:
110,371,175908,2,0,L|-3:352,1,102.5,10|2,2:2|2:2,0:0:0:0:
254,330,176234,2,0,L|367:311,1,102.5,10|0,2:2|0:0,0:0:0:0:
191,253,176560,5,10,2:1:0:0:
458,201,176723,2,0,L|345:182,1,102.5,10|10,2:2|2:1,0:0:0:0:
281,162,177050,1,2,2:2:0:0:
355,313,177213,1,10,2:2:0:0:
433,115,177376,1,2,2:2:0:0:
191,164,177539,2,0,P|195:114|240:76,1,102.5,10|0,2:1|0:0,0:0:0:0:
340,51,177865,5,14,2:2:0:0:
340,51,178191,2,0,L|363:162,1,102.5,10|2,2:1|2:2,0:0:0:0:
281,162,178517,2,0,L|245:269,1,102.5,8|2,2:1|2:2,0:0:0:0:
174,228,178843,2,0,L|89:303,1,102.5,14|0,2:1|0:0,0:0:0:0:
269,359,179169,6,0,L|246:248,1,102.5,14|2,2:1|2:2,0:0:0:0:
400,316,179495,2,0,L|324:231,1,102.5,12|2,2:1|2:2,0:0:0:0:
491,213,179821,2,0,L|383:177,1,102.5,14|2,2:1|2:2,0:0:0:0:
313,152,180147,1,14,2:1:0:0:
380,100,180310,1,2,0:0:0:0:
393,180,180473,5,14,2:1:0:0:
300,67,180637,1,0,0:0:0:0:
200,169,180800,2,0,L|78:196,1,102.5,14|2,2:1|2:2,0:0:0:0:
47,79,181126,2,0,L|169:106,1,102.5,12|2,2:1|2:2,0:0:0:0:
351,256,181452,2,0,L|229:229,1,102.5,14|0,2:1|0:0,0:0:0:0:
0,213,181778,6,0,L|100:190,1,102.5,14|2,2:1|2:2,0:0:0:0:
331,64,182104,2,0,L|230:86,1,102.5,12|2,2:1|2:2,0:0:0:0:
82,277,182430,2,0,L|182:299,1,102.5,14|2,2:1|2:2,0:0:0:0:
495,142,182756,2,0,L|394:119,1,102.5,14|2,2:1|0:0,0:0:0:0:
256,192,183082,5,10,2:1:0:0:
256,192,183408,1,10,2:1:0:0:
256,284,183571,1,2,2:2:0:0:
344,163,183734,1,10,2:1:0:0:
344,313,183897,1,2,2:2:0:0:
398,238,184060,2,0,L|493:223,1,76.8750029325486,10|2,2:1|2:2,0:0:0:0:
344,163,184387,6,0,L|329:68,2,76.8750029325486,10|2|10,2:1|2:2|2:1,0:0:0:0:
256,192,184876,1,2,2:2:0:0:
153,46,185202,1,2,2:2:0:0:
45,147,185528,1,2,2:2:0:0:
45,147,185691,6,0,P|87:172|101:210,1,76.8750029325486,10|2,2:1|2:2,0:0:0:0:
157,252,186017,2,0,P|114:275|74:268,1,76.8750029325486,10|2,2:1|2:2,0:0:0:0:
10,296,186343,2,0,P|10:247|36:216,1,76.8750029325486,10|0,2:1|0:0,0:0:0:0:
174,169,186669,1,10,2:1:0:0:
87,274,186832,1,0,0:0:0:0:
238,228,186995,5,10,2:1:0:0:
238,228,187158,2,0,L|326:246,1,76.8750029325486,2|10,2:2|2:1,0:0:0:0:
394,304,187484,2,0,L|313:150,1,153.750005865097,2|2,2:2|2:2,0:0:0:0:
465,59,188137,5,2,2:2:0:0:
465,59,188300,2,0,P|490:101|485:139,1,76.8750029325486,10|0,2:1|0:0,0:0:0:0:
406,116,188626,2,0,P|406:164|383:195,1,76.8750029325486,10|0,2:1|0:0,0:0:0:0:
325,133,188952,1,10,2:1:0:0:
325,133,189115,1,2,2:0:0:0:
246,110,189278,2,0,P|204:135|166:130,1,76.8750029325486,8|2,2:1|2:2,0:0:0:0:
188,48,189604,6,0,L|11:28,3,153.750005865097,10|10|10|10,2:1|2:1|2:1|2:1,0:0:0:0:
4,182,190745,1,2,2:2:0:0:
77,125,190908,5,10,2:1:0:0:
206,354,191234,1,10,2:1:0:0:
435,125,191560,1,10,2:1:0:0:
306,354,191886,1,10,2:1:0:0:
256,192,192213,6,0,B|273:102|293:134|310:43,1,153.750005865097,10|10,2:1|2:1,0:0:0:0:
337,241,192702,1,2,2:2:0:0:
337,241,192783,1,0,0:0:0:0:
337,241,192865,2,0,L|428:254,1,76.8750029325486,10|2,2:1|2:2,0:0:0:0:
475,309,193109,1,2,2:3:0:0:
475,309,193191,1,2,2:3:0:0:
475,309,193517,6,0,P|430:366|373:361,1,102.5,14|2,2:1|2:2,0:0:0:0:
245,232,193843,1,10,2:1:0:0:
323,342,194006,1,2,2:2:0:0:
337,241,194169,2,0,L|355:134,1,102.5,10|2,2:1|2:2,0:0:0:0:
233,328,194495,2,0,L|126:310,1,102.5,10|0,2:1|0:0,0:0:0:0:
23,96,194821,6,0,L|31:154,3,51.25,10|0|2|2,2:1|0:0|2:2|2:2,0:0:0:0:
86,246,195147,2,0,L|94:188,3,51.25,10|0|2|0,2:1|0:0|2:2|0:0,0:0:0:0:
147,93,195473,2,0,L|155:151,3,51.25,10|0|2|0,2:1|0:0|2:2|0:0,0:0:0:0:
210,243,195799,2,0,L|218:185,3,51.25,10|0|2|0,2:1|0:0|2:2|0:0,0:0:0:0:
269,86,196126,5,10,2:1:0:0:
269,86,196207,1,0,0:0:0:0:
269,86,196289,2,0,L|329:70,1,51.25,2|0,2:2|0:0,0:0:0:0:
318,166,196452,1,10,2:1:0:0:
318,166,196533,1,0,0:0:0:0:
318,166,196615,2,0,L|378:182,1,51.25,2|0,2:2|0:0,0:0:0:0:
397,54,196778,1,10,2:1:0:0:
397,54,196859,1,0,0:0:0:0:
397,54,196941,2,0,L|457:38,1,51.25,2|0,2:2|0:0,0:0:0:0:
449,203,197104,1,10,2:1:0:0:
449,203,197185,1,0,0:0:0:0:
449,203,197267,2,0,L|509:219,1,51.25
512,106,197430,5,10,2:1:0:0:
512,106,197511,1,0,0:0:0:0:
512,106,197593,2,0,L|452:122,1,51.25,2|0,2:2|0:0,0:0:0:0:
380,261,197756,1,10,2:1:0:0:
380,261,197837,1,0,0:0:0:0:
380,261,197919,2,0,L|320:245,1,51.25,2|0,2:2|0:0,0:0:0:0:
448,331,198083,1,10,2:1:0:0:
448,331,198164,1,0,0:0:0:0:
448,331,198246,2,0,L|508:315,1,51.25,2|0,2:2|0:0,0:0:0:0:
367,179,198408,1,10,2:1:0:0:
367,179,198489,1,0,0:0:0:0:
367,179,198571,2,0,L|307:163,1,51.25,2|0,2:2|0:0,0:0:0:0:
251,338,198734,5,14,2:1:0:0:
251,338,199060,1,10,2:1:0:0:
210,329,199142,1,0,0:0:0:0:
169,323,199223,2,0,L|102:309,1,51.25
124,196,199387,1,10,2:1:0:0:
136,236,199469,1,0,0:0:0:0:
152,274,199550,2,0,L|173:339,1,51.25,2|0,2:2|0:0,0:0:0:0:
65,376,199712,1,10,2:1:0:0:
93,345,199794,1,0,0:0:0:0:
118,312,199875,2,0,L|163:260,1,51.25,2|0,2:2|0:0,0:0:0:0:
260,177,200039,5,10,2:1:0:0:
302,178,200120,1,0,0:0:0:0:
342,193,200202,1,0,0:0:0:0:
375,220,200283,1,0,0:0:0:0:
397,256,200365,1,10,2:1:0:0:
406,297,200446,1,0,0:0:0:0:
402,340,200528,2,0,L|323:328,1,51.25
260,263,200691,5,10,2:1:0:0:
302,262,200772,1,0,0:0:0:0:
342,247,200854,1,0,0:0:0:0:
375,220,200935,1,0,0:0:0:0:
397,184,201017,1,10,2:1:0:0:
406,142,201098,1,0,0:0:0:0:
402,100,201180,2,0,L|322:112,1,51.25,2|0,2:2|0:0,0:0:0:0:
195,36,201343,5,10,2:1:0:0:
195,36,201425,1,0,0:0:0:0:
195,36,201506,2,0,L|212:117,1,61.499998123169
314,118,201669,1,10,2:1:0:0:
314,118,201751,1,0,0:0:0:0:
314,118,201832,2,0,L|297:199,1,61.499998123169
150,216,201995,1,10,2:1:0:0:
150,216,202077,1,0,0:0:0:0:
150,216,202158,2,0,L|167:297,1,61.499998123169
362,289,202321,1,10,2:1:0:0:
362,289,202403,1,0,0:0:0:0:
362,289,202484,2,0,L|345:370,1,61.499998123169
117,377,202647,5,10,2:1:0:0:
66,354,202728,1,0,0:0:0:0:
29,313,202810,1,0,0:0:0:0:
12,261,202891,1,0,0:0:0:0:
17,207,202973,1,10,2:1:0:0:
44,159,203054,1,0,0:0:0:0:
88,126,203136,1,2,2:2:0:0:
141,113,203217,1,0,0:0:0:0:
198,117,203300,5,10,2:1:0:0:
193,171,203381,1,0,0:0:0:0:
164,218,203463,1,2,2:2:0:0:
122,254,203544,1,0,0:0:0:0:
69,271,203626,6,0,P|32:216|44:78,1,205,10|8,2:1|2:2,0:0:0:0:
86,90,205338,1,8,2:2:0:0:
132,97,205419,1,8,2:2:0:0:
177,104,205501,1,8,2:2:0:0:
222,111,205582,1,8,2:2:0:0:
318,26,205745,5,8,2:2:0:0:
374,18,205827,1,8,2:2:0:0:
424,41,205908,1,8,2:2:0:0:
459,85,205990,1,0,0:0:0:0:
460,140,206071,1,8,2:2:0:0:
428,187,206153,1,8,2:2:0:0:
373,200,206234,1,8,2:2:0:0:
322,175,206316,1,8,2:2:0:0:
266,178,206397,1,10,2:2:0:0:
221,212,206479,1,8,2:2:0:0:
209,267,206560,6,0,P|263:368|390:328,1,245.999992492676,14|10,2:1|2:2,0:0:0:0:
308,85,207050,1,2,2:2:0:0:
134,322,207213,1,10,2:1:0:0:
222,111,207376,1,10,2:1:0:0:
301,278,207539,1,10,2:2:0:0:
388,60,207702,1,2,2:2:0:0:
139,132,207865,6,0,L|16:109,1,122.999996246338,10|10,2:1|2:1,0:0:0:0:
216,376,208191,1,10,2:2:0:0:
235,199,208354,2,0,L|115:222,1,122.999996246338,2|10,2:2|2:1,0:0:0:0:
393,298,208680,1,10,2:1:0:0:
222,111,208843,1,14,2:2:0:0:
0,254,209006,6,0,B|47:231|47:231|249:296,1,245.999992492676,2|10,2:2|2:1,0:0:0:0:
388,60,209495,1,10,2:2:0:0:
115,222,209658,1,2,2:2:0:0:
347,146,209821,1,10,2:1:0:0:
157,58,209984,1,10,2:1:0:0:
310,235,210147,1,10,2:2:0:0:
69,19,210310,1,2,2:2:0:0:
205,227,210473,6,0,P|169:297|105:307,1,122.999996246338,10|10,2:1|2:1,0:0:0:0:
2,157,210800,1,10,2:2:0:0:
265,72,210963,2,0,L|394:59,1,122.999996246338,2|10,2:2|2:1,0:0:0:0:
122,227,211289,2,0,L|-7:240,1,122.999996246338,10|14,2:1|2:2,0:0:0:0:
67,106,211615,1,2,2:2:0:0:
174,356,211778,6,0,P|283:362|359:241,1,245.999992492676,14|10,2:1|2:2,0:0:0:0:
207,140,212267,1,0,0:0:0:0:
92,366,212430,1,10,2:1:0:0:
205,227,212593,1,10,2:1:0:0:
324,379,212756,1,10,2:2:0:0:
275,187,212919,1,2,2:2:0:0:
71,283,213082,5,10,2:1:0:0:
252,319,213245,1,10,2:1:0:0:
81,189,213408,1,10,2:2:0:0:
169,349,213571,1,0,0:0:0:0:
207,140,213734,1,10,2:1:0:0:
0,228,213897,1,10,2:1:0:0:
68,24,214060,1,10,2:2:0:0:
71,283,214223,1,2,2:2:0:0:
284,99,214387,6,0,L|424:71,1,122.999996246338,14|8,2:1|2:1,0:0:0:0:
372,343,214713,2,0,L|251:318,1,122.999996246338,10|0,2:2|0:0,0:0:0:0:
335,220,215039,1,10,2:1:0:0:
461,359,215202,1,8,2:1:0:0:
251,318,215365,1,10,2:2:0:0:
436,280,215528,1,8,2:1:0:0:
185,261,215691,5,14,2:2:0:0:
175,238,215772,1,8,2:2:0:0:
164,215,215854,1,8,2:2:0:0:
487,110,216017,1,10,2:1:0:0:
238,175,216180,1,10,2:2:0:0:
228,152,216261,1,8,2:2:0:0:
217,129,216343,1,10,2:2:0:0:
487,110,216506,5,10,2:2:0:0:
439,96,216588,1,8,2:2:0:0:
391,82,216669,1,8,2:2:0:0:
343,68,216751,1,8,2:2:0:0:
295,54,216832,1,10,2:2:0:0:
247,40,216914,1,8,2:2:0:0:
199,27,216995,6,0,L|65:58,1,122.999996246338,14|2,2:1|2:2,0:0:0:0:
29,339,217321,1,10,2:2:0:0:
331,156,217484,1,2,2:2:0:0:
89,246,217647,1,10,2:1:0:0:
199,27,217810,1,10,2:1:0:0:
261,248,217973,2,0,L|295:388,1,122.999996246338,10|0,2:2|0:0,0:0:0:0:
391,82,218300,5,10,2:1:0:0:
195,325,218463,1,10,2:1:0:0:
426,171,218626,1,10,2:2:0:0:
199,27,218789,2,0,P|147:89|164:145,1,122.999996246338,2|10,2:2|2:1,0:0:0:0:
364,257,219115,1,10,2:1:0:0:
232,103,219278,1,14,2:2:0:0:
122,224,219441,1,2,2:2:0:0:
16,40,219604,5,14,2:1:0:0:
120,372,219767,1,10,2:1:0:0:
153,130,219930,1,10,2:2:0:0:
59,297,220093,1,2,2:2:0:0:
104,46,220256,1,10,2:1:0:0:
175,296,220419,1,10,2:1:0:0:
246,181,220582,2,0,P|309:155|337:91,1,122.999996246338,10|0,2:2|0:0,0:0:0:0:
195,53,220908,5,10,2:1:0:0:
21,197,221071,1,10,2:1:0:0:
239,376,221234,1,10,2:2:0:0:
153,130,221397,2,0,L|14:102,1,122.999996246338,2|10,2:2|2:1,0:0:0:0:
114,226,221723,1,10,2:1:0:0:
307,24,221887,1,14,2:2:0:0:
385,292,222050,1,2,2:2:0:0:
246,181,222213,6,0,P|291:130|360:129,1,122.999996246338,14|0,2:1|0:0,0:0:0:0:
425,146,222539,2,0,P|380:197|311:198,1,122.999996246338,10|0,2:2|0:0,0:0:0:0:
278,362,222865,1,10,2:1:0:0:
246,181,223028,1,10,2:1:0:0:
385,292,223191,1,10,2:2:0:0:
402,70,223354,1,2,2:2:0:0:
203,93,223517,6,0,P|156:137|153:206,1,122.999996246338,10|10,2:1|2:1,0:0:0:0:
266,25,223843,1,10,2:2:0:0:
420,213,224006,1,0,0:0:0:0:
190,273,224169,1,10,2:1:0:0:
309,103,224332,1,10,2:1:0:0:
384,291,224495,2,0,L|512:318,1,122.999996246338,10|2,2:2|2:2,0:0:0:0:
149,192,224821,6,0,L|21:219,1,122.999996246338,14|8,2:1|2:1,0:0:0:0:
107,330,225147,1,10,2:2:0:0:
270,217,225310,1,0,0:0:0:0:
123,106,225473,2,0,L|-5:79,1,122.999996246338,10|8,2:1|2:1,0:0:0:0:
192,359,225800,1,14,2:2:0:0:
234,130,225963,1,0,0:0:0:0:
387,308,226126,5,14,2:1:0:0:
64,192,226289,1,8,2:1:0:0:
387,76,226452,5,10,2:2:0:0:
64,192,226615,1,8,2:1:0:0:
299,379,226778,5,10,2:2:0:0:
146,152,226941,1,8,0:0:0:0:
164,197,227022,1,8,0:0:0:0:
193,236,227104,1,10,2:2:0:0:
235,259,227185,1,8,2:2:0:0:
282,271,227267,1,8,2:2:0:0:
330,271,227348,1,8,2:2:0:0:
377,256,227430,6,0,B|411:106|454:183|480:22,2,245.999992492676,14|10|10,2:1|2:2|2:1,0:0:0:0:
405,378,228245,1,10,2:1:0:0:
314,193,228408,1,10,2:2:0:0:
451,302,228571,1,0,0:0:0:0:
282,271,228734,5,10,2:1:0:0:
498,220,228897,1,10,2:1:0:0:
281,114,229060,1,10,2:2:0:0:
380,261,229223,1,0,0:0:0:0:
380,261,229305,1,0,0:0:0:0:
380,261,229387,1,10,2:1:0:0:
368,127,229550,1,10,2:1:0:0:
280,350,229713,1,14,2:2:0:0:
232,205,229876,1,0,0:0:0:0:
119,328,230039,5,14,2:1:0:0:
188,128,230202,1,10,2:1:0:0:
203,303,230365,1,10,2:2:0:0:
2,200,230528,1,0,0:0:0:0:
52,274,230691,1,10,2:1:0:0:
138,55,230854,1,10,2:1:0:0:
120,202,231017,1,10,2:2:0:0:
70,127,231180,1,2,2:2:0:0:
188,128,231343,6,0,L|325:101,1,122.999996246338,10|8,2:1|2:1,0:0:0:0:
469,271,231669,1,10,2:2:0:0:
304,233,231832,1,10,2:2:0:0:
313,210,231914,1,8,2:2:0:0:
322,187,231995,1,10,2:1:0:0:
455,118,232158,1,10,2:1:0:0:
365,298,232321,2,0,P|309:331|235:301,1,122.999996246338,14|2,2:2|2:2,0:0:0:0:
70,127,232647,6,0,L|128:370,1,245.999992492676,14|10,2:1|2:2,0:0:0:0:
199,229,233137,1,2,2:2:0:0:
37,356,233300,1,10,2:1:0:0:
124,191,233463,1,10,2:1:0:0:
242,340,233626,1,10,2:2:0:0:
150,111,233789,1,2,2:2:0:0:
45,216,233952,5,10,2:1:0:0:
328,247,234115,1,10,2:1:0:0:
124,191,234278,1,10,2:2:0:0:
242,340,234441,1,10,2:2:0:0:
242,340,234522,1,8,2:2:0:0:
242,340,234604,1,10,2:1:0:0:
286,133,234767,1,10,2:1:0:0:
180,263,234930,1,10,2:2:0:0:
423,161,235093,1,2,2:2:0:0:
215,14,235256,5,14,2:1:0:0:
328,247,235419,1,10,2:1:0:0:
382,50,235582,1,10,2:2:0:0:
501,215,235745,1,10,2:2:0:0:
501,215,235827,1,8,2:2:0:0:
501,215,235908,1,10,2:1:0:0:
286,133,236071,1,10,2:1:0:0:
466,13,236234,2,0,P|470:82|434:127,1,122.999996246338,10|2,2:2|2:2,0:0:0:0:
203,215,236560,5,14,2:2:0:0:
382,50,236723,1,8,2:2:0:0:
372,28,236805,1,8,2:2:0:0:
363,6,236887,1,10,2:1:0:0:
194,7,237050,5,6,2:3:0:0:
147,22,237131,1,4,2:3:0:0:
118,62,237213,1,10,2:2:0:0:
128,109,237294,1,8,2:2:0:0:
174,125,237376,1,10,2:2:0:0:
221,111,237457,1,8,2:2:0:0:
270,116,237539,1,8,2:2:0:0:
306,148,237620,1,8,2:2:0:0:
316,196,237702,1,10,2:2:0:0:
297,241,237783,1,8,2:2:0:0:
256,268,237865,6,0,L|-17:225,2,245.999992492676,14|10|10,2:1|2:2|2:1,0:0:0:0:
480,307,238680,1,10,2:1:0:0:
302,340,238843,1,10,2:2:0:0:
511,225,239006,1,0,0:0:0:0:
226,372,239169,5,10,2:1:0:0:
427,183,239332,1,10,2:1:0:0:
302,340,239495,1,10,2:2:0:0:
337,148,239658,1,8,2:2:0:0:
337,148,239740,1,8,2:2:0:0:
337,148,239821,1,10,2:1:0:0:
386,369,239984,1,10,2:1:0:0:
501,129,240147,1,14,2:2:0:0:
298,249,240310,1,0,0:0:0:0:
187,42,240473,6,0,L|335:18,1,122.999996246338,14|10,2:1|2:1,0:0:0:0:
395,268,240800,1,10,2:2:0:0:
223,128,240963,1,8,2:2:0:0:
223,128,241044,1,8,2:2:0:0:
223,128,241126,2,0,L|75:104,1,122.999996246338,10|10,2:1|2:1,0:0:0:0:
391,1,241452,1,10,2:2:0:0:
215,209,241615,1,0,0:0:0:0:
308,22,241778,5,10,2:1:0:0:
336,327,241941,1,10,2:1:0:0:
369,85,242104,1,10,2:2:0:0:
417,381,242267,1,0,0:0:0:0:
417,381,242348,1,0,0:0:0:0:
417,381,242430,1,10,2:1:0:0:
290,101,242593,1,10,2:1:0:0:
483,326,242756,1,14,2:2:0:0:
391,1,242919,1,8,2:2:0:0:
215,209,243082,6,0,P|94:185|51:80,1,245.999992492676,14|10,2:1|2:2,0:0:0:0:
243,32,243571,1,8,2:2:0:0:
199,313,243734,1,10,2:1:0:0:
115,157,243897,1,10,2:1:0:0:
130,365,244060,1,10,2:2:0:0:
192,119,244223,1,0,0:0:0:0:
279,325,244387,5,10,2:1:0:0:
35,190,244550,1,10,2:1:0:0:
272,83,244713,2,0,P|277:152|215:203,1,122.999996246338,10|8,2:2|2:2,0:0:0:0:
227,198,244957,1,8,2:2:0:0:
209,204,245039,1,10,2:1:0:0:
273,2,245202,1,10,2:1:0:0:
351,252,245365,2,0,L|528:286,1,122.999996246338,10|0,2:2|0:0,0:0:0:0:
358,102,245691,5,14,2:1:0:0:
180,348,245854,1,10,2:1:0:0:
154,102,246017,1,10,2:2:0:0:
332,348,246180,1,8,2:1:0:0:
416,32,246343,5,10,2:2:0:0:
60,127,246506,1,10,2:1:0:0:
416,352,246669,1,10,2:2:0:0:
60,257,246832,1,8,2:1:0:0:
256,0,246995,5,14,2:2:0:0:
468,192,247158,1,8,2:2:0:0:
438,238,247240,1,8,2:2:0:0:
394,271,247321,1,10,2:2:0:0:
340,287,247403,1,8,2:2:0:0:
285,288,247484,1,8,2:2:0:0:
230,274,247566,1,8,2:2:0:0:
192,233,247647,1,10,2:2:0:0:
192,177,247729,1,8,2:2:0:0:
228,136,247810,1,10,2:2:0:0:
283,135,247892,1,8,2:2:0:0:
309,183,247973,6,0,B|235:202|268:213|188:236,1,122.999996246338,10|0,2:1|0:0,0:0:0:0:
