osu file format v14

[General]
AudioFilename: audio.mp3
AudioLeadIn: 0
PreviewTime: 514
Countdown: 0
SampleSet: Soft
StackLeniency: 0.7
Mode: 0
LetterboxInBreaks: 0
WidescreenStoryboard: 0

[Editor]
Bookmarks: 14056,40722,65722,67389,94056,107389,120722,134056,147389,159056,160722,187389,207389,240722,260722,267389,294056,305023,307389,320722
DistanceSpacing: 1
BeatDivisor: 8
GridSize: 32
TimelineZoom: 1

[Metadata]
Title:All Alone With You
TitleUnicode:All Alone With You
Artist:EGOIST
ArtistUnicode:EGOIST
Creator:bor
Version:Eternity
Source:PSYCHO-PASS サイコパス
Tags:chelly ending full ryo supercell
BeatmapID:1217579
BeatmapSetID:574929

[Difficulty]
HPDrainRate:4
CircleSize:7
OverallDifficulty:7
ApproachRate:7
SliderMultiplier:1
SliderTickRate:1

[Events]
//Background and Video events
0,0,"L7W623C.jpg",0,0
//Break Periods
2,94251,105789
//Storyboard Layer 0 (Background)
//Storyboard Layer 1 (Fail)
//Storyboard Layer 2 (Pass)
//Storyboard Layer 3 (Foreground)
//Storyboard Sound Samples

[TimingPoints]
718,833.333333333333,4,2,14,50,1,0
926,-100,4,2,13,47,0,0
1134,-100,4,2,2,44,0,0
1342,-100,4,2,6,40,0,0
1759,-100,4,2,28,30,0,0
2176,-100,4,2,17,27,0,0
2592,-100,4,2,28,18,0,0
3009,-100,4,2,21,18,0,0
3426,-100,4,2,20,28,0,0
4051,-100,4,2,30,17,0,0
4259,-100,4,2,29,17,0,0
4467,-100,4,2,19,23,0,0
4676,-100,4,2,21,28,0,0
5301,-100,4,2,21,5,0,0
5717,-100,4,2,17,26,0,0
5926,-100,4,2,28,28,0,0
6134,-100,4,2,16,34,0,0
6342,-100,4,2,2,34,0,0
7384,-100,4,2,30,20,0,0
7801,-100,4,2,29,5,0,0
8009,-100,4,2,29,21,0,0
9051,-100,4,2,30,16,0,0
9259,-100,4,2,5,17,0,0
9467,-100,4,2,11,21,0,0
9676,-100,4,2,29,25,0,0
10717,-100,4,2,30,21,0,0
10926,-100,4,2,7,18,0,0
11134,-100,4,2,8,16,0,0
11342,-100,4,2,29,21,0,0
11759,-100,4,2,19,16,0,0
12176,-100,4,2,21,30,0,0
14051,-100,4,2,1,30,0,0
24884,-100,4,2,1,5,0,0
26759,-83.3333333333333,4,2,1,35,0,0
54051,-83.3333333333333,4,2,1,45,0,0
57384,-83.3333333333333,4,2,1,40,0,0
63634,-83.3333333333333,4,2,2,35,0,0
63842,-83.3333333333333,4,2,2,40,0,0
64050,-83.3333333333333,4,2,2,45,0,0
64258,-83.3333333333333,4,2,2,50,0,0
64467,-83.3333333333333,4,2,2,55,0,0
64883,-83.3333333333333,4,2,2,65,0,0
65300,-83.3333333333333,4,2,2,75,0,0
65508,-83.3333333333333,4,2,2,95,0,0
65717,-83.3333333333333,4,2,1,5,0,0
67384,-66.6666666666667,4,2,1,55,0,1
73426,-133.333333333333,4,2,1,55,0,1
73947,-133.333333333333,4,2,1,5,0,1
74051,-66.6666666666667,4,2,1,55,0,1
80092,-133.333333333333,4,2,1,55,0,1
80613,-133.333333333333,4,2,1,5,0,1
80717,-66.6666666666667,4,2,1,55,0,1
86759,-133.333333333333,4,2,1,55,0,1
87280,-133.333333333333,4,2,1,5,0,1
87384,-66.6666666666667,4,2,1,55,0,1
93426,-100,4,2,1,55,0,1
94051,-83.3333333333333,4,2,2,35,0,0
106551,-83.3333333333333,4,2,1,35,0,0
156967,-83.3333333333333,4,2,2,35,0,0
157176,-83.3333333333333,4,2,2,40,0,0
157384,-83.3333333333333,4,2,2,45,0,0
157592,-83.3333333333333,4,2,2,50,0,0
157801,-83.3333333333333,4,2,2,55,0,0
158217,-83.3333333333333,4,2,2,65,0,0
158634,-83.3333333333333,4,2,2,75,0,0
158842,-83.3333333333333,4,2,2,95,0,0
159051,-83.3333333333333,4,2,2,5,0,0
159467,-133.333333333333,4,2,1,35,0,0
159780,-133.333333333333,4,2,1,5,0,0
159884,-83.3333333333333,4,2,1,35,0,0
160717,-66.6666666666667,4,2,1,55,0,1
166759,-133.333333333333,4,2,0,55,0,1
167280,-133.333333333333,4,2,1,5,0,1
167384,-66.6666666666667,4,2,1,55,0,1
173426,-133.333333333333,4,2,1,55,0,1
173947,-133.333333333333,4,2,1,5,0,1
174051,-66.6666666666667,4,2,1,55,0,1
180092,-133.333333333333,4,2,1,55,0,1
180613,-133.333333333333,4,2,1,5,0,1
180717,-66.6666666666667,4,2,1,55,0,1
186551,-66.6666666666667,4,2,1,35,0,0
187384,-76.9230769230769,4,2,1,35,0,1
207384,-76.9230769230769,4,2,1,35,0,0
209467,-76.9230769230769,4,2,0,18,0,0
209884,-76.9230769230769,4,2,1,30,0,0
213426,-133.333333333333,4,2,0,17,0,0
213947,-133.333333333333,4,2,1,5,0,0
214051,-76.9230769230769,4,2,1,35,0,0
220092,-133.333333333333,4,2,0,18,0,0
220613,-133.333333333333,4,2,1,5,0,0
220717,-76.9230769230769,4,2,1,35,0,0
226759,-133.333333333333,4,2,0,17,0,0
227106,-76.9230769230769,4,2,1,35,0,0
227280,-133.333333333333,4,2,1,5,0,0
227384,-76.9230769230769,4,2,1,35,0,0
240717,-133.333333333333,4,2,2,35,0,0
240822,-133.333333333333,4,2,1,35,0,0
260613,-133.333333333333,4,2,1,5,0,0
260717,-76.9230769230769,4,2,2,35,0,1
260822,-76.9230769230769,4,2,1,35,0,0
262384,-76.9230769230769,4,2,2,35,0,1
262488,-76.9230769230769,4,2,1,35,0,0
264051,-76.9230769230769,4,2,2,35,0,1
264155,-76.9230769230769,4,2,1,35,0,0
267384,-66.6666666666667,4,2,1,60,0,1
273426,-133.333333333333,4,2,1,60,0,1
273947,-133.333333333333,4,2,1,5,0,1
274051,-66.6666666666667,4,2,1,60,0,1
286759,-133.333333333333,4,2,0,60,0,1
287106,-133.333333333333,4,2,1,60,0,1
287280,-133.333333333333,4,2,1,5,0,1
287384,-66.6666666666667,4,2,1,60,0,1
294051,-76.9230769230769,4,2,1,45,0,0
300092,-133.333333333333,4,2,0,45,0,0
300613,-133.333333333333,4,2,0,5,0,0
300717,-76.9230769230769,4,2,1,45,0,0
313426,-133.333333333333,4,2,0,45,0,0
313947,-133.333333333333,4,2,1,5,0,0
314051,-66.6666666666667,4,2,1,45,0,0
320717,-200,4,2,1,45,0,0
333947,-200,4,2,1,25,0,0
334155,-200,4,2,1,45,0,0
347384,-200,4,2,1,5,0,0

[Colours]
Combo1 : 129,148,211
Combo2 : 244,162,236

[HitObjects]
244,28,718,5,2,0:0:0:0:
200,41,926,1,2,0:0:0:0:
179,82,1134,1,2,0:0:0:0:
193,125,1342,2,0,P|197:151|180:186,2,50,2|2|2,0:0|0:0|0:0,0:0:0:0:
122,127,2592,1,2,0:0:0:0:
75,101,3009,2,0,P|68:126|81:163,1,50,2|2,0:0|0:0,0:0:0:0:
129,349,4051,5,2,0:0:0:0:
159,314,4259,1,2,0:0:0:0:
154,268,4467,1,2,0:0:0:0:
114,215,4676,2,0,P|139:199|184:194,1,75,2|0,0:0|0:0,0:0:0:0:
323,251,5717,1,2,0:0:0:0:
273,268,5926,1,2,0:0:0:0:
224,249,6133,1,2,0:0:0:0:
183,193,6342,1,2,0:0:0:0:
297,15,7384,6,0,L|303:77,1,50,2|0,0:0|0:0,0:0:0:0:
308,11,8009,1,2,0:0:0:0:
287,122,9051,1,2,0:0:0:0:
265,83,9259,1,2,0:0:0:0:
274,39,9467,1,2,0:0:0:0:
308,11,9676,1,2,0:0:0:0:
387,159,10717,5,2,0:0:0:0:
359,193,10926,1,2,0:0:0:0:
315,202,11134,1,2,0:0:0:0:
276,180,11342,1,2,0:0:0:0:
193,175,11759,1,2,0:0:0:0:
132,118,12176,1,2,0:0:0:0:
5,252,13426,2,0,L|12:228,2,25
33,297,14051,6,0,L|95:310,1,50,2|0,0:0|0:0,0:0:0:0:
94,306,14676,2,0,L|156:319,1,50,2|0,0:0|0:0,0:0:0:0:
155,315,15301,1,0,0:0:0:0:
189,353,15509,2,0,P|220:368|250:364,1,50
346,352,16342,2,0,P|378:363|396:387,1,50,2|0,0:0|0:0,0:0:0:0:
341,357,17176,1,0,0:0:0:0:
355,306,17384,6,0,L|341:243,1,50,2|0,0:0|0:0,0:0:0:0:
346,245,18009,2,0,L|333:183,1,50,2|0,0:0|0:0,0:0:0:0:
194,140,18842,2,0,P|219:154|241:177,2,50,0|0|2,0:0|0:0|0:0,0:0:0:0:
103,34,20092,2,0,L|110:73,2,25
143,6,20717,6,0,P|171:10|203:27,1,50,2|0,0:0|0:0,0:0:0:0:
227,51,21342,2,0,P|251:58|284:57,1,50,2|0,0:0|0:0,0:0:0:0:
382,119,22176,2,0,P|358:112|325:113,1,50
275,157,23009,1,2,0:0:0:0:
200,149,23426,1,0,0:0:0:0:
220,224,23842,6,0,L|213:258,1,25,2|0,0:0|0:0,0:0:0:0:
265,214,24259,2,0,L|341:230,1,75,2|0,0:0|0:0,0:0:0:0:
469,165,26759,2,0,L|422:160,2,29.9999990844727
512,221,27384,6,0,L|444:226,1,59.9999981689454,2|0,0:0|0:0,0:0:0:0:
414,256,28009,2,0,P|374:255|347:248,1,59.9999981689454,2|0,0:0|0:0,0:0:0:0:
306,138,28842,2,0,P|319:164|326:199,1,59.9999981689454,2|0,0:0|0:0,0:0:0:0:
303,295,29676,2,0,P|272:296|237:307,1,59.9999981689454
94,258,30509,1,0,0:0:0:0:
110,188,30717,6,0,L|104:261,1,59.9999981689454,2|0,0:0|0:0,0:0:0:0:
153,275,31342,2,0,L|158:215,1,59.9999981689454,2|0,0:0|0:0,0:0:0:0:
111,369,32176,2,0,P|112:322|102:289,1,59.9999981689454,2|0,0:0|0:0,0:0:0:0:
0,319,33009,2,0,L|68:325,1,59.9999981689454
102,366,33634,1,0,0:0:0:0:
160,372,33842,1,0,0:0:0:0:
250,334,34051,6,0,P|277:347|316:350,1,59.9999981689454,2|0,0:0|0:0,0:0:0:0:
356,354,34676,2,0,P|385:353|420:337,1,59.9999981689454,2|0,0:0|0:0,0:0:0:0:
472,276,35509,2,0,P|463:247|439:217,1,59.9999981689454,2|0,0:0|0:0,0:0:0:0:
395,190,36342,1,0,0:0:0:0:
386,131,36759,1,0,0:0:0:0:
425,87,37176,1,0,0:0:0:0:
496,98,37384,6,0,L|423:77,1,59.9999981689454,2|0,0:0|0:0,0:0:0:0:
425,87,38009,2,0,L|352:66,1,59.9999981689454,2|0,0:0|0:0,0:0:0:0:
354,76,38634,2,0,B|329:89|308:96|295:44|254:56|221:80|221:129|261:144,1,179.999994506836,2|0,0:0|0:0,0:0:0:0:
87,39,40509,1,0,0:0:0:0:
23,57,40717,6,0,L|90:47,1,59.9999981689454,2|0,0:0|0:0,0:0:0:0:
132,69,41342,1,0,0:0:0:0:
114,119,41551,2,0,P|136:149|170:152,1,59.9999981689454,2|0,0:0|0:0,0:0:0:0:
164,152,42072,1,0,0:0:0:0:
171,150,42176,1,0,0:0:0:0:
234,104,42384,2,0,P|250:100|275:108,1,29.9999990844727,2|0,0:0|0:0,0:0:0:0:
192,62,42801,1,0,0:0:0:0:
192,62,42905,1,0,0:0:0:0:
192,62,43009,1,0,0:0:0:0:
228,107,43217,2,0,L|219:201,1,89.9999972534181,2|0,0:0|0:0,0:0:0:0:
165,229,44051,5,2,0:0:0:0:
178,298,44259,2,0,L|182:238,2,59.9999981689454,2|0|2,0:0|0:0|0:0,0:0:0:0:
326,332,45509,2,0,P|289:343|262:340,1,59.9999981689454,2|0,0:0|0:0,0:0:0:0:
482,276,46342,2,0,P|474:309|451:333,1,59.9999981689454,2|0,0:0|0:0,0:0:0:0:
416,357,46967,1,0,0:0:0:0:
416,357,47072,1,0,0:0:0:0:
416,357,47176,1,0,0:0:0:0:
326,332,47384,6,0,L|336:262,1,59.9999981689454,2|0,0:0|0:0,0:0:0:0:
309,225,48009,1,0,0:0:0:0:
267,192,48217,2,0,L|199:205,1,59.9999981689454,2|0,0:0|0:0,0:0:0:0:
173,250,48842,1,0,0:0:0:0:
173,250,48947,1,0,0:0:0:0:
173,250,49051,1,2,0:0:0:0:
55,189,49467,1,0,0:0:0:0:
15,125,49676,2,0,P|40:147|55:169,1,59.9999981689454
108,167,50301,1,0,0:0:0:0:
149,133,50509,2,0,L|146:99,1,29.9999990844727,0|2,0:0|0:0,0:0:0:0:
146,103,50926,5,0,0:0:0:0:
178,60,51134,2,0,L|243:68,2,59.9999981689454,2|0|0,0:0|0:0|0:0,0:0:0:0:
123,11,52176,1,0,0:0:0:0:
123,11,52280,1,0,0:0:0:0:
123,11,52384,1,0,0:0:0:0:
255,82,52801,1,2,0:0:0:0:
247,8,53009,2,0,L|236:67,2,59.9999981689454,2|0|0,0:0|0:0|0:0,0:0:0:0:
318,38,54051,6,0,P|293:62|327:95,1,89.9999972534181,2|0,0:0|0:0,0:0:0:0:
346,86,54884,2,0,L|344:127,1,29.9999990844727
464,142,55509,1,0,0:0:0:0:
464,142,55613,1,0,0:0:0:0:
464,142,55717,2,0,P|489:166|455:199,1,89.9999972534181
436,190,56550,2,0,L|438:231,1,29.9999990844727
411,257,56967,1,2,0:0:0:0:
512,313,57384,6,0,P|472:315|425:334,1,89.9999972534181,2|0,0:0|0:0,0:0:0:0:
392,368,58217,2,0,P|373:366|358:359,1,29.9999990844727
339,322,58634,1,0,0:0:0:0:
256,363,58842,1,0,0:0:0:0:
256,363,58947,1,0,0:0:0:0:
256,363,59051,2,0,L|262:303,1,59.9999981689454
230,258,59676,1,0,0:0:0:0:
233,189,59884,2,0,P|213:213|213:246,1,59.9999981689454,0|2,0:0|0:0,0:0:0:0:
175,293,60509,1,0,0:0:0:0:
61,304,60717,6,0,L|152:308,1,89.9999972534181,2|0,0:0|0:0,0:0:0:0:
191,249,61551,2,0,P|189:233|182:216,1,29.9999990844727
146,188,61967,1,0,0:0:0:0:
17,209,62384,2,0,P|49:210|70:229,1,59.9999981689454
27,263,63009,2,0,P|30:281|35:298,1,29.9999990844727
181,272,63634,1,4,2:1:0:0:
256,192,63738,12,0,65717,0:0:0:0:
184,267,67384,6,0,P|192:225|194:181,1,75.0000028610231,4|2,0:1|3:0,0:0:0:0:
185,103,68009,1,0,0:0:0:0:
102,73,68217,2,0,L|189:89,1,75.0000028610231,8|2,0:0|3:0,0:0:0:0:
275,37,68842,1,0,0:0:0:0:
275,37,68947,1,0,0:0:0:0:
275,37,69051,2,0,L|259:79,1,37.5000014305115,4|0,0:0|0:0,0:0:0:0:
350,133,69467,2,0,L|334:45,1,75.0000028610231,4|8,0:0|0:0,0:0:0:0:
410,192,70301,1,2,3:0:0:0:
377,253,70509,1,0,0:0:0:0:
377,253,70613,1,0,0:0:0:0:
377,253,70717,6,0,P|354:292|350:323,1,75.0000028610231,4|2,3:0|3:0,0:0:0:0:
392,367,71342,1,0,0:0:0:0:
480,333,71551,2,0,L|400:347,1,75.0000028610231,8|2,0:0|3:0,0:0:0:0:
335,384,72176,2,0,P|322:384|298:377,1,37.5000014305115,4|2,0:0|3:0,0:0:0:0:
143,382,72592,2,0,P|169:365|215:353,1,75.0000028610231,8|0,0:0|0:0,0:0:0:0:
300,324,73217,1,8,0:0:0:0:
197,284,73426,6,0,P|196:262|199:235,1,46.8750017881394,4|0,0:1|0:0,0:0:0:0:
188,246,74051,6,0,L|109:257,1,75.0000028610231,4|2,0:1|3:0,0:0:0:0:
31,296,74676,1,4,0:0:0:0:
48,377,74884,2,0,P|55:343|42:300,1,75.0000028610231,8|2,0:0|3:0,0:0:0:0:
12,211,75509,1,0,0:0:0:0:
12,211,75613,1,0,0:0:0:0:
12,211,75717,2,0,L|2:249,1,37.5000014305115,4|0,0:0|0:0,0:0:0:0:
71,132,76134,2,0,L|82:212,1,75.0000028610231,4|8,0:0|0:0,0:0:0:0:
128,72,76967,1,2,3:0:0:0:
128,17,77176,1,0,0:0:0:0:
128,17,77280,1,0,0:0:0:0:
128,17,77384,6,0,P|89:21|49:42,1,75.0000028610231,4|2,0:0|3:0,0:0:0:0:
88,103,78009,1,4,0:0:0:0:
0,90,78217,2,0,L|73:113,1,75.0000028610231,8|2,0:0|3:0,0:0:0:0:
150,101,78842,1,12,0:0:0:0:
259,53,79051,2,0,P|234:45|219:45,1,37.5000014305115,4|0,0:0|0:0,0:0:0:0:
150,101,79467,5,8,3:0:0:0:
127,104,79606,1,4,3:0:0:0:
112,121,79745,1,4,3:0:0:0:
93,133,79884,5,8,0:0:0:0:
143,227,80092,6,0,P|146:208|158:179,1,46.8750017881394,4|0,0:1|0:0,0:0:0:0:
165,196,80717,6,0,L|247:214,1,75.0000028610231,4|2,0:1|3:0,0:0:0:0:
314,212,81342,1,4,0:0:0:0:
336,127,81551,2,0,P|324:168|335:210,1,75.0000028610231,8|2,0:0|3:0,0:0:0:0:
383,244,82176,1,0,0:0:0:0:
465,214,82384,2,0,P|489:219|504:224,1,37.5000014305115,4|0,0:0|0:0,0:0:0:0:
406,329,82801,2,0,L|402:249,1,75.0000028610231,4|8,0:0|0:0,0:0:0:0:
461,108,83634,1,2,3:0:0:0:
409,69,83842,1,0,0:0:0:0:
404,72,83947,1,0,0:0:0:0:
399,75,84051,6,0,P|356:66|321:69,1,75.0000028610231,4|2,0:0|3:0,0:0:0:0:
249,96,84676,1,4,0:0:0:0:
227,28,84884,2,0,P|209:59|242:88,1,75.0000028610231,8|2,0:0|3:0,0:0:0:0:
266,153,85509,1,8,3:0:0:0:
266,153,85613,1,8,0:0:0:0:
266,153,85717,1,8,0:0:0:0:
135,161,85926,2,0,P|170:164|209:182,1,75.0000028610231,8|0,0:0|0:0,0:0:0:0:
235,253,86551,1,8,0:0:0:0:
119,184,86759,6,0,P|111:207|111:232,1,46.8750017881394,4|0,0:1|0:0,0:0:0:0:
117,224,87384,6,0,P|117:277|104:306,1,75.0000028610231,4|2,0:1|3:0,0:0:0:0:
110,352,88009,1,4,0:0:0:0:
12,335,88217,2,0,L|94:341,1,75.0000028610231,8|2,0:0|3:0,0:0:0:0:
166,318,88842,1,4,0:0:0:0:
225,231,89051,2,0,L|229:274,1,37.5000014305115,6|0,0:0|0:0,0:0:0:0:
281,299,89467,2,0,L|277:261,1,37.5000014305115,6|0,0:3|0:0,0:0:0:0:
313,353,89884,2,0,P|359:346|399:333,1,75.0000028610231,8|2,0:0|3:0,0:0:0:0:
448,289,90509,1,0,0:0:0:0:
448,289,90613,1,0,0:0:0:0:
448,289,90717,6,0,P|413:278|368:278,1,75.0000028610231,4|2,0:0|3:0,0:0:0:0:
305,283,91342,1,4,0:0:0:0:
346,172,91551,1,8,0:0:0:0:
283,196,91759,1,4,0:0:0:0:
247,167,91967,2,0,P|235:185|230:202,1,37.5000014305115,2|0,3:0|0:0,0:0:0:0:
244,159,92384,1,2,3:0:0:0:
187,259,92592,1,8,0:0:0:0:
215,298,92801,2,0,L|261:305,1,37.5000014305115,4|0,0:0|0:0,0:0:0:0:
257,301,93113,1,2,3:0:0:0:
262,298,93217,1,2,3:0:0:0:
339,296,93426,6,0,P|323:318|318:347,1,50,4|0,0:0|0:0,0:0:0:0:
351,375,94051,5,4,0:1:0:0:
467,317,106759,6,0,L|437:327,2,29.9999990844727
486,265,107384,6,0,L|414:263,1,59.9999981689454,2|0,0:0|0:0,0:0:0:0:
377,277,108009,2,0,P|348:273|316:253,1,59.9999981689454,2|0,0:0|0:0,0:0:0:0:
307,129,108842,2,0,L|296:194,1,59.9999981689454
250,211,109467,1,0,0:0:0:0:
266,260,109676,2,0,P|237:277|206:280,1,59.9999981689454,2|0,0:0|0:0,0:0:0:0:
169,250,110301,1,0,0:0:0:0:
121,255,110509,1,0,0:0:0:0:
60,310,110717,6,0,L|68:244,1,59.9999981689454,2|0,0:0|0:0,0:0:0:0:
47,206,111342,2,0,P|22:192|-2:217,1,59.9999981689454,2|0,0:0|0:0,0:0:0:0:
0,77,112176,2,0,P|0:108|11:143,1,59.9999981689454,2|0,0:0|0:0,0:0:0:0:
52,100,112801,1,0,0:0:0:0:
101,127,113009,2,0,L|161:124,1,59.9999981689454
208,163,113634,2,0,L|202:182,2,14.9999995422363
271,106,114051,6,0,L|272:178,1,59.9999981689454,2|0,0:0|0:0,0:0:0:0:
313,204,114676,2,0,P|357:210|378:203,1,59.9999981689454,2|0,0:0|0:0,0:0:0:0:
424,315,115509,2,0,P|429:285|422:256,1,59.9999981689454,2|0,0:0|0:0,0:0:0:0:
272,325,116342,2,0,L|330:314,2,59.9999981689454,2|2|0,0:0|0:0|0:0,0:0:0:0:
213,284,117384,6,0,P|189:265|159:323,1,119.999996337891,2|0,0:0|0:0,0:0:0:0:
24,79,120092,2,0,L|14:108,2,29.9999990844727
68,25,120717,6,0,L|81:96,1,59.9999981689454,2|0,0:0|0:0,0:0:0:0:
122,109,121342,2,0,P|123:138|92:158,1,59.9999981689454,2|0,0:0|0:0,0:0:0:0:
26,265,122176,2,0,L|34:202,1,59.9999981689454,2|0,0:0|0:0,0:0:0:0:
104,288,123009,2,0,P|136:276|171:277,1,59.9999981689454
324,257,123842,1,0,0:0:0:0:
295,187,124051,6,0,L|302:251,1,59.9999981689454,2|0,0:0|0:0,0:0:0:0:
252,274,124676,2,0,L|246:214,1,59.9999981689454,2|0,0:0|0:0,0:0:0:0:
284,362,125509,1,2,0:0:0:0:
351,333,125926,2,0,P|379:337|411:343,1,59.9999981689454
512,248,126759,2,0,L|483:256,2,29.9999990844727
494,304,127384,6,0,P|470:301|441:280,1,59.9999981689454,2|0,0:0|0:0,0:0:0:0:
399,255,128009,2,0,P|359:257|337:266,1,59.9999981689454
210,346,128842,2,0,P|231:338|266:310,1,59.9999981689454
281,224,129676,1,0,0:0:0:0:
255,142,130092,1,0,0:0:0:0:
305,13,130717,6,0,P|300:40|305:77,1,59.9999981689454,2|0,0:0|0:0,0:0:0:0:
345,117,131342,2,0,L|411:109,1,59.9999981689454,2|0,0:0|0:0,0:0:0:0:
461,132,131967,2,0,P|465:159|461:196,2,59.9999981689454
416,158,133009,1,0,0:0:0:0:
387,203,133217,2,0,L|379:266,1,59.9999981689454
419,313,133842,1,0,0:0:0:0:
442,378,134051,6,0,P|419:358|407:331,1,59.9999981689454,2|0,0:0|0:0,0:0:0:0:
356,309,134676,1,0,0:0:0:0:
353,384,134884,2,0,L|339:325,1,59.9999981689454,2|0,0:0|0:0,0:0:0:0:
283,273,135509,1,0,0:0:0:0:
283,273,135613,1,0,0:0:0:0:
283,273,135717,2,0,L|280:311,1,29.9999990844727
219,233,136134,2,0,L|222:271,1,29.9999990844727
163,208,136551,2,0,P|184:182|215:172,1,59.9999981689454
274,163,137176,1,0,0:0:0:0:
234,110,137384,5,2,0:0:0:0:
234,110,137592,2,0,L|298:99,1,59.9999981689454,2|2,0:0|0:0,0:0:0:0:
231,31,138426,1,2,0:0:0:0:
109,30,138842,2,0,P|141:38|171:55,1,59.9999981689454,2|0,0:0|0:0,0:0:0:0:
0,146,139676,2,0,P|2:120|23:93,1,59.9999981689454,2|0,0:0|0:0,0:0:0:0:
78,90,140301,1,0,0:0:0:0:
78,90,140405,1,0,0:0:0:0:
78,90,140509,1,0,0:0:0:0:
133,154,140717,6,0,L|77:182,1,59.9999981689454,2|0,0:0|0:0,0:0:0:0:
48,227,141342,1,0,0:0:0:0:
0,287,141551,2,0,P|7:267|49:252,1,59.9999981689454
80,292,142176,1,0,0:0:0:0:
80,292,142280,1,0,0:0:0:0:
80,292,142384,2,0,L|123:300,1,29.9999990844727
167,272,142801,1,2,0:0:0:0:
226,290,143009,2,0,P|232:306|228:321,1,29.9999990844727,2|0,0:0|0:0,0:0:0:0:
260,351,143426,1,0,0:0:0:0:
307,357,143634,1,0,0:0:0:0:
346,332,143842,1,2,0:0:0:0:
346,332,144259,6,0,P|376:331|409:350,1,59.9999981689454,2|0,0:0|0:0,0:0:0:0:
455,323,144884,2,0,P|457:293|454:263,1,59.9999981689454
403,235,145509,1,0,0:0:0:0:
403,235,145613,1,0,0:0:0:0:
403,235,145717,1,0,0:0:0:0:
481,107,146134,1,0,0:0:0:0:
410,90,146342,2,0,P|430:83|474:90,2,59.9999981689454,2|0|0,0:0|0:0|0:0,0:0:0:0:
360,111,147384,6,0,P|318:85|301:38,1,89.9999972534181,2|0,0:0|0:0,0:0:0:0:
258,17,148217,2,0,P|230:21|199:40,1,59.9999981689454,2|0,0:0|0:0,0:0:0:0:
203,100,148842,1,0,0:0:0:0:
203,100,148947,1,0,0:0:0:0:
203,100,149051,2,0,P|163:116|110:111,1,89.9999972534181
81,82,149884,1,0,0:0:0:0:
24,194,150301,2,0,L|34:153,1,29.9999990844727
68,214,150717,6,0,L|130:217,1,59.9999981689454,2|0,0:0|0:0,0:0:0:0:
171,248,151342,1,0,0:0:0:0:
224,242,151551,2,0,P|257:247|287:266,1,59.9999981689454
282,315,152176,1,0,0:0:0:0:
282,315,152280,1,0,0:0:0:0:
282,315,152384,2,0,P|309:329|366:346,1,89.9999972534181
409,321,153217,1,0,0:0:0:0:
375,141,153634,2,0,L|366:179,1,29.9999990844727,2|2,0:0|0:0,0:0:0:0:
335,202,154051,6,0,P|304:206|273:214,1,59.9999981689454,2|0,0:0|0:0,0:0:0:0:
229,252,154676,1,0,0:0:0:0:
217,330,154884,2,0,L|214:269,1,59.9999981689454
108,384,155717,2,0,P|129:354|140:329,1,59.9999981689454
131,190,156551,1,0,0:0:0:0:
157,118,156967,1,4,0:1:0:0:
256,192,157072,12,0,159051,0:0:0:0:
56,56,159467,6,0,L|87:47,1,25.0000009536744,4|4,0:0|0:0,0:0:0:0:
90,37,159884,6,0,P|81:93|90:135,1,89.9999972534181,8|0,0:0|0:0,0:0:0:0:
144,177,160717,6,0,P|115:201|113:248,1,75.0000028610231,4|2,1:0|3:0,0:0:0:0:
173,309,161342,1,4,0:0:0:0:
104,358,161551,2,0,P|141:351|170:328,1,75.0000028610231,8|2,0:0|3:0,0:0:0:0:
234,290,162176,1,4,0:0:0:0:
224,217,162384,2,0,L|260:224,1,37.5000014305115,4|0,0:0|0:0,0:0:0:0:
337,184,162801,2,0,L|347:273,1,75.0000028610231,4|8,0:0|0:0,0:0:0:0:
258,97,163634,1,2,3:0:0:0:
294,54,163842,1,0,3:0:0:0:
294,54,163947,1,0,3:0:0:0:
294,54,164051,6,0,P|333:59|371:45,1,75.0000028610231,4|2,0:3|3:0,0:0:0:0:
416,88,164676,1,4,0:0:0:0:
453,0,164884,2,0,L|436:81,1,75.0000028610231,8|0,0:0|0:0,0:0:0:0:
476,140,165509,1,4,0:0:0:0:
476,140,165613,1,4,0:0:0:0:
476,140,165717,1,4,0:0:0:0:
369,191,165926,2,0,P|369:215|379:228,1,37.5000014305115,8|0,0:0|0:0,0:0:0:0:
429,248,166342,1,4,0:0:0:0:
334,150,166551,1,4,0:0:0:0:
267,211,166759,6,8,P|243:218|217:222,1,46.8750017881394,4|8,0:0|0:0,0:0:0:0:
222,214,167384,6,0,P|194:219|148:250,1,75.0000028610231,4|2,1:0|3:0,0:0:0:0:
105,306,168009,1,4,0:0:0:0:
69,218,168217,2,0,L|82:294,1,75.0000028610231,8|2,0:0|3:0,0:0:0:0:
34,336,168842,2,0,P|21:316|24:286,1,37.5000014305115,4|0,0:0|0:0,0:0:0:0:
115,382,169259,2,0,L|190:373,1,75.0000028610231,8|4,0:0|0:0,0:0:0:0:
224,294,169884,2,0,P|274:313|272:327,1,75.0000028610231,8|2,0:0|3:0,0:0:0:0:
296,382,170509,1,2,3:0:0:0:
296,382,170613,1,2,3:0:0:0:
296,382,170717,6,0,P|315:382|363:342,1,75.0000028610231,4|2,0:0|3:0,0:0:0:0:
359,300,171342,1,4,0:0:0:0:
451,290,171551,2,0,L|371:281,1,75.0000028610231,8|2,0:0|3:0,0:0:0:0:
321,261,172176,1,4,0:0:0:0:
239,179,172384,2,0,L|221:234,1,50.0000019073487,8|4,0:0|0:0,0:0:0:0:
235,246,172801,5,12,3:0:0:0:
216,259,172940,1,0,3:0:0:0:
214,281,173079,1,12,3:0:0:0:
197,296,173217,5,8,0:0:0:0:
90,365,173426,6,0,P|68:357|48:342,1,46.8750017881394,4|0,1:0|0:0,0:0:0:0:
60,341,174051,6,0,P|43:311|34:260,1,75.0000028610231,4|2,0:0|3:0,0:0:0:0:
88,190,174676,1,4,0:0:0:0:
17,125,174884,2,0,P|50:139|79:168,1,75.0000028610231,8|2,0:0|3:0,0:0:0:0:
132,216,175509,1,4,0:0:0:0:
190,174,175717,2,0,L|181:211,1,37.5000014305115,2|0,3:0|0:0,0:0:0:0:
249,130,176134,2,0,L|265:203,1,75.0000028610231,4|8,0:0|0:0,0:0:0:0:
195,49,176967,1,2,3:0:0:0:
273,23,177176,1,2,3:0:0:0:
273,23,177280,1,2,3:0:0:0:
273,23,177384,6,0,P|293:44|306:95,1,75.0000028610231,4|2,0:0|3:0,0:0:0:0:
267,152,178009,1,4,0:0:0:0:
180,180,178217,2,0,L|254:172,1,75.0000028610231,8|2,0:0|3:0,0:0:0:0:
352,211,178842,2,0,B|382:202|397:187,1,37.5000014305115,4|0,0:0|0:0,0:0:0:0:
444,79,179259,2,0,P|441:122|446:168,1,75.0000028610231,8|4,0:0|0:0,0:0:0:0:
501,239,179884,1,8,0:0:0:0:
501,296,180092,6,0,L|489:260,1,37.5000014305115,4|8,1:0|0:0,0:0:0:0:
437,281,180717,6,0,P|382:290|354:286,1,75.0000028610231,4|2,1:0|3:0,0:0:0:0:
288,257,181342,1,4,0:0:0:0:
359,193,181551,2,0,P|336:222|303:239,1,75.0000028610231,8|2,0:0|3:0,0:0:0:0:
232,216,182176,1,4,0:0:0:0:
182,253,182384,2,0,L|181:293,1,37.5000014305115,2|0,3:0|0:0,0:0:0:0:
101,357,182801,2,0,L|117:273,1,75.0000028610231,4|8,0:0|0:0,0:0:0:0:
81,235,183426,2,0,P|87:215|106:191,1,37.5000014305115,4|2,0:0|3:0,0:0:0:0:
148,173,183842,1,2,3:0:0:0:
148,173,183947,1,2,3:0:0:0:
148,173,184051,6,0,P|130:144|94:117,1,75.0000028610231,4|2,0:0|3:0,0:0:0:0:
3,111,184676,1,4,0:0:0:0:
42,16,184884,2,0,L|36:66,1,37.5000014305115,8|0,0:0|0:0,0:0:0:0:
112,16,185301,1,8,0:0:0:0:
141,59,185509,2,0,P|163:61|181:59,1,37.5000014305115,4|0,0:0|0:0,0:0:0:0:
265,1,185926,2,0,P|247:24|242:37,1,37.5000014305115,8|8,0:0|3:0,0:0:0:0:
275,88,186342,1,4,0:0:0:0:
275,88,186447,1,8,0:0:0:0:
275,88,186551,1,8,0:0:0:0:
312,56,186759,1,4,0:0:0:0:
361,49,186968,1,8,3:0:0:0:
405,69,187176,1,8,0:0:0:0:
430,159,187384,6,0,P|404:162|367:178,1,64.9999970245363,4|2,1:0|3:0,0:0:0:0:
342,225,188009,1,4,0:0:0:0:
263,225,188217,2,0,L|331:244,1,64.9999970245363,8|2,0:0|3:0,0:0:0:0:
363,291,188842,1,2,3:0:0:0:
363,291,188947,1,2,3:0:0:0:
363,291,189051,2,0,L|366:335,1,32.4999985122681,4|0,0:0|0:0,0:0:0:0:
257,313,189467,2,0,L|249:390,1,64.9999970245363,4|8,0:0|0:0,0:0:0:0:
217,231,190301,1,2,3:0:0:0:
173,197,190509,1,2,3:0:0:0:
173,197,190613,1,2,3:0:0:0:
173,197,190717,6,0,P|206:172|239:165,1,64.9999970245363,4|2,0:0|3:0,0:0:0:0:
292,172,191342,1,4,0:0:0:0:
374,166,191551,2,0,P|338:185|306:189,1,64.9999970245363,8|2,0:0|3:0,0:0:0:0:
280,122,192176,2,0,P|286:103|298:85,1,32.4999985122681,4|0,0:0|0:0,0:0:0:0:
278,0,192592,2,0,P|266:39|243:57,1,64.9999970245363,8|0,0:0|0:0,0:0:0:0:
150,25,193217,1,8,0:0:0:0:
42,159,193634,2,0,P|43:176|44:198,1,32.4999985122681,2|8,3:0|0:0,0:0:0:0:
12,239,194051,6,0,P|44:241|85:238,1,64.9999970245363,4|2,1:0|3:0,0:0:0:0:
158,235,194676,1,4,0:0:0:0:
175,304,194884,2,0,P|189:276|176:248,1,64.9999970245363,8|2,0:0|3:0,0:0:0:0:
140,190,195509,1,4,0:0:0:0:
196,150,195717,2,0,L|238:162,1,32.4999985122681,4|0,0:0|0:0,0:0:0:0:
344,155,196134,2,0,P|309:148|281:136,1,64.9999970245363,4|8,0:0|0:0,0:0:0:0:
405,209,196967,1,2,3:0:0:0:
495,158,197384,6,0,L|475:86,1,64.9999970245363,4|2,0:0|3:0,0:0:0:0:
410,77,198009,1,4,0:0:0:0:
477,13,198217,2,0,P|459:16|442:27,1,32.4999985122681,8|0,0:0|0:0,0:0:0:0:
350,27,198634,2,0,L|348:91,1,64.9999970245363,2|4,3:0|0:0,0:0:0:0:
357,22,199259,1,8,0:0:0:0:
295,65,199467,2,0,P|268:55|259:46,1,32.4999985122681,2|0,3:0|0:0,0:0:0:0:
347,91,199884,1,8,0:0:0:0:
266,125,200092,1,8,0:0:0:0:
248,168,200301,1,2,3:0:0:0:
290,228,200509,1,2,3:0:0:0:
290,228,200613,1,2,3:0:0:0:
290,228,200717,6,0,P|256:226|221:239,1,64.9999970245363,4|2,1:0|3:0,0:0:0:0:
168,282,201342,1,4,0:0:0:0:
198,356,201551,2,0,L|191:291,1,64.9999970245363,8|2,0:0|3:0,0:0:0:0:
148,237,202176,2,0,P|132:253|123:276,1,32.4999985122681,4|0,0:0|0:0,0:0:0:0:
86,324,202592,2,0,L|74:255,1,64.9999970245363,8|0,0:0|0:0,0:0:0:0:
36,223,203217,2,0,L|24:154,1,64.9999970245363,8|2,0:0|3:0,0:0:0:0:
52,108,203842,1,2,3:0:0:0:
52,108,203947,1,2,3:0:0:0:
52,108,204051,6,0,P|85:113|124:114,1,64.9999970245363,4|2,0:0|3:0,0:0:0:0:
188,90,204676,1,4,0:0:0:0:
275,35,204884,1,8,0:0:0:0:
228,18,205092,1,4,0:0:0:0:
294,105,205301,2,0,P|263:114|261:114,1,32.4999985122681,4|0,1:0|0:0,0:0:0:0:
292,198,205717,2,0,L|225:162,1,64.9999970245363,8|4,0:0|0:0,0:0:0:0:
164,202,206342,1,4,0:0:0:0:
164,202,206447,1,8,0:0:0:0:
164,202,206551,1,8,0:0:0:0:
127,234,206759,1,4,0:0:0:0:
78,241,206968,1,4,0:0:0:0:
24,217,207176,1,8,0:0:0:0:
21,137,207384,6,0,P|11:161|7:201,1,64.9999970245363,4|2,0:0|3:0,0:0:0:0:
26,267,208009,1,4,0:0:0:0:
96,304,208217,2,0,P|60:295|29:282,1,64.9999970245363,8|2,0:0|3:0,0:0:0:0:
209,282,209051,2,0,P|233:309|252:336,1,64.9999970245363,2|4,3:0|0:0,0:0:0:0:
275,157,209884,2,0,L|268:233,1,64.9999970245363,8|2,0:0|3:0,0:0:0:0:
332,279,210509,1,2,3:0:0:0:
373,250,210717,6,0,P|402:253|437:274,1,64.9999970245363,4|4,0:0|0:0,0:0:0:0:
465,328,211342,1,4,0:0:0:0:
373,375,211551,2,0,P|382:361|415:353,2,48.7499977684022,8|2|2,0:0|3:0|3:0,0:0:0:0:
368,377,212280,1,2,3:0:0:0:
363,379,212384,1,2,3:0:0:0:
292,358,212592,2,0,P|317:330|319:300,1,64.9999970245363,8|4,0:0|0:0,0:0:0:0:
272,213,213217,1,8,0:0:0:0:
189,256,213426,6,0,L|137:245,1,46.8750017881394,4|0,0:0|0:0,0:0:0:0:
146,260,214051,5,2,0:0:0:0:
132,274,214190,1,0,0:0:0:0:
117,286,214329,1,0,0:0:0:0:
100,296,214467,5,2,0:0:0:0:
81,290,214606,1,0,0:0:0:0:
61,286,214745,1,0,0:0:0:0:
52,268,214884,6,0,L|27:270,2,21.6666656748454,2|0|0,0:0|0:0|0:0,0:0:0:0:
103,219,215301,2,0,L|128:215,2,21.6666656748454,2|0|0,0:0|0:0|0:0,0:0:0:0:
25,172,215717,6,0,L|34:135,1,32.4999985122681,4|0,0:0|0:0,0:0:0:0:
71,99,216134,2,0,L|62:62,1,32.4999985122681,4|0,0:0|0:0,0:0:0:0:
81,108,216551,2,0,P|115:104|150:111,1,64.9999970245363,8|2,0:0|3:0,0:0:0:0:
190,135,217176,1,2,3:0:0:0:
252,77,217384,6,0,P|256:120|283:127,1,64.9999970245363,4|2,0:0|3:0,0:0:0:0:
323,137,218009,1,4,0:0:0:0:
386,65,218217,1,8,0:0:0:0:
416,107,218426,1,8,0:0:0:0:
472,152,218634,2,0,P|448:148|436:148,1,32.4999985122681,4|0,0:0|0:0,0:0:0:0:
410,188,219051,1,4,0:0:0:0:
323,137,219259,1,8,0:0:0:0:
301,89,219467,2,0,L|305:126,1,32.4999985122681,4|0,0:0|0:0,0:0:0:0:
246,190,219884,1,8,0:0:0:0:
327,260,220092,6,0,P|355:264|379:262,1,46.8750017881394,4|0,2:0|0:0,0:0:0:0:
369,257,220717,6,0,L|445:250,1,64.9999970245363,4|2,0:1|3:0,0:0:0:0:
428,311,221342,1,4,0:0:0:0:
353,333,221551,2,0,L|429:326,1,64.9999970245363,8|2,0:0|3:0,0:0:0:0:
344,349,222176,1,4,0:0:0:0:
287,371,222384,1,4,0:0:0:0:
312,271,222592,1,8,0:0:0:0:
253,228,222801,2,0,L|264:263,1,32.4999985122681,4|4,0:0|0:0,0:0:0:0:
192,153,223217,2,0,L|183:220,1,64.9999970245363,8|2,0:0|3:0,0:0:0:0:
125,254,223842,1,2,3:0:0:0:
125,254,223947,1,2,3:0:0:0:
125,254,224051,6,0,P|106:211|108:184,1,64.9999970245363,4|4,0:1|0:0,0:0:0:0:
132,146,224676,1,4,0:0:0:0:
4,153,224884,1,8,0:0:0:0:
42,185,225092,2,0,L|38:222,1,32.4999985122681,4|2,0:0|3:0,0:0:0:0:
10,262,225509,1,4,0:0:0:0:
43,320,225717,1,4,0:0:0:0:
137,278,225926,2,0,L|202:300,1,64.9999970245363,8|4,0:0|0:0,0:0:0:0:
284,295,226551,1,8,0:0:0:0:
303,241,226759,6,0,P|302:259|298:278,1,37.5000014305115,4|8,0:0|0:0,0:0:0:0:
234,346,227384,6,0,P|255:343|305:359,1,64.9999970245363,4|2,0:1|3:0,0:0:0:0:
370,382,228009,1,4,0:0:0:0:
417,306,228217,2,0,P|411:337|392:364,1,64.9999970245363,8|2,0:0|3:0,0:0:0:0:
363,315,228842,2,0,L|371:282,1,32.4999985122681,4|0,0:0|0:0,0:0:0:0:
328,177,229259,2,0,P|330:213|348:239,1,64.9999970245363,8|4,0:0|0:0,0:0:0:0:
288,138,229884,1,8,0:0:0:0:
249,168,230092,2,0,L|184:171,1,64.9999970245363,4|2,0:0|3:0,0:0:0:0:
101,140,230717,6,0,P|119:169|122:205,1,64.9999970245363,4|2,1:0|3:0,0:0:0:0:
93,239,231342,1,4,0:0:0:0:
175,311,231551,1,8,0:0:0:0:
96,344,231759,1,8,0:0:0:0:
55,316,231967,2,0,P|33:316|15:319,1,32.4999985122681,4|0,0:0|0:0,0:0:0:0:
63,308,232384,1,2,3:1:0:0:
137,213,232592,2,0,L|136:181,1,32.4999985122681,8|0,0:0|0:0,0:0:0:0:
99,148,233009,1,4,0:0:0:0:
145,218,233217,1,8,0:0:0:0:
165,122,233426,1,8,0:0:0:0:
209,100,233634,2,0,P|230:109|247:122,1,32.4999985122681,4|0,0:0|0:0,0:0:0:0:
281,165,234051,6,0,P|329:161|357:154,1,64.9999970245363,4|2,1:0|3:0,0:0:0:0:
389,219,234676,1,4,0:0:0:0:
305,247,234884,2,0,P|333:231|365:230,1,64.9999970245363,8|2,0:0|3:0,0:0:0:0:
346,282,235509,2,0,P|332:292|317:300,1,32.4999985122681,4|0,0:0|0:0,0:0:0:0:
234,357,235926,2,0,L|240:286,1,64.9999970245363,8|4,0:0|0:0,0:0:0:0:
201,183,236551,1,8,0:0:0:0:
247,116,236759,1,8,0:0:0:0:
311,126,236967,2,0,P|328:122|343:120,1,32.4999985122681,2|0,3:0|0:0,0:0:0:0:
303,131,237384,5,4,0:0:0:0:
305,34,237592,1,8,0:0:0:0:
352,6,237801,2,0,L|358:40,1,32.4999985122681,4|0,0:0|0:0,0:0:0:0:
460,37,238217,2,0,P|417:66|403:78,1,64.9999970245363,8|4,0:0|0:0,0:0:0:0:
396,174,238842,1,8,0:0:0:0:
437,204,239051,1,2,3:0:0:0:
297,178,239259,1,8,0:0:0:0:
343,147,239467,1,4,0:0:0:0:
301,72,239676,1,4,0:0:0:0:
301,72,239780,1,8,0:0:0:0:
301,72,239884,1,8,0:0:0:0:
253,81,240092,1,8,0:0:0:0:
217,115,240301,1,8,3:0:0:0:
205,162,240509,1,4,0:0:0:0:
240,233,240717,6,0,B|210:229|192:247|189:251|186:255|158:269|134:257,1,112.500004291535,4|0,0:1|0:0,0:0:0:0:
56,220,242384,2,0,P|40:253|46:290,1,75.0000028610231
211,363,244051,6,0,B|237:373|275:371|302:340|308:325,1,112.500004291535,2|0,0:0|0:0,0:0:0:0:
366,254,245717,2,0,B|361:244|381:229|408:243|397:284,1,75.0000028610231
242,170,247384,6,0,B|276:180|265:155|294:144|323:155|310:180|350:170,1,112.500004291535,2|0,0:0|0:0,0:0:0:0:
431,135,249051,2,0,P|402:115|391:72,1,75.0000028610231
276,23,250717,6,0,P|245:31|165:16,1,112.500004291535,2|0,0:0|0:0,0:0:0:0:
66,84,252384,2,0,P|90:66|74:27,1,75.0000028610231
9,168,254051,6,0,B|41:162|59:175|65:179|68:181|89:196|123:188,1,112.500004291535,2|0,0:0|0:0,0:0:0:0:
185,237,255717,2,0,P|226:226|264:215,1,75.0000028610231
301,349,257384,6,0,L|186:323,1,112.500004291535,2|8,0:0|0:0,0:0:0:0:
119,347,259051,1,4,0:0:0:0:
80,320,259259,1,4,0:0:0:0:
61,277,259467,1,4,0:0:0:0:
69,231,259676,1,8,3:0:0:0:
190,198,259884,1,8,0:0:0:0:
146,184,260092,2,0,P|139:159|139:135,1,46.8750017881394,4|0,0:1|0:0,0:0:0:0:
144,143,260717,5,4,0:1:0:0:
144,143,262384,1,4,0:1:0:0:
237,3,264051,1,4,0:1:0:0:
328,18,264467,5,8,0:0:0:0:
326,37,264606,1,8,0:0:0:0:
319,55,264745,1,8,0:0:0:0:
300,61,264884,5,8,3:0:0:0:
290,78,265023,1,8,0:0:0:0:
297,96,265162,1,8,0:0:0:0:
312,108,265301,5,4,0:0:0:0:
311,127,265440,1,4,0:0:0:0:
297,141,265579,1,8,0:0:0:0:
278,135,265717,5,8,0:0:0:0:
263,121,265856,1,4,0:0:0:0:
245,113,265995,1,4,0:0:0:0:
230,126,266134,5,4,0:0:0:0:
211,132,266273,1,4,0:0:0:0:
191,133,266412,1,4,0:0:0:0:
181,150,266551,5,2,0:1:0:0:
352,344,267384,6,0,P|348:306|335:258,1,75.0000028610231,4|2,1:0|3:0,0:0:0:0:
271,213,268009,1,4,0:0:0:0:
177,233,268217,2,0,L|251:228,1,75.0000028610231,8|2,0:0|3:0,0:0:0:0:
303,172,268842,1,0,0:0:0:0:
381,181,269051,2,0,P|407:195|421:211,1,37.5000014305115,4|0,0:0|0:0,0:0:0:0:
499,123,269467,2,0,P|493:156|462:196,1,75.0000028610231,4|8,0:0|0:0,0:0:0:0:
493,21,270301,1,2,3:0:0:0:
448,48,270509,1,0,0:0:0:0:
375,20,270717,6,0,P|352:24|305:47,1,75.0000028610231,4|2,1:0|3:0,0:0:0:0:
261,104,271342,1,4,0:0:0:0:
197,40,271551,2,0,P|229:55|259:84,1,75.0000028610231,8|2,0:0|3:0,0:0:0:0:
219,144,272176,1,4,0:0:0:0:
219,144,272280,1,4,0:0:0:0:
219,144,272384,1,4,0:0:0:0:
306,178,272592,2,0,L|218:160,1,75.0000028610231,8|4,0:0|0:0,0:0:0:0:
152,220,273217,1,8,0:0:0:0:
104,311,273426,6,0,L|98:259,1,46.8750017881394,4|0,0:1|0:0,0:0:0:0:
106,267,274051,6,0,P|100:233|79:194,1,75.0000028610231,4|2,1:0|3:0,0:0:0:0:
36,157,274676,1,4,0:0:0:0:
120,111,274884,2,0,L|43:136,1,75.0000028610231,8|2,0:0|3:0,0:0:0:0:
4,199,275509,2,0,P|3:224|10:240,1,37.5000014305115,4|0,0:0|0:0,0:0:0:0:
45,351,275926,2,0,P|52:313|48:271,1,75.0000028610231,8|4,0:0|0:0,0:0:0:0:
123,318,276551,2,0,P|161:320|156:281,1,75.0000028610231,8|2,0:0|3:0,0:0:0:0:
135,220,277176,1,2,3:0:0:0:
135,220,277280,1,2,3:0:0:0:
135,220,277384,6,0,L|213:233,1,75.0000028610231,4|2,0:0|3:0,0:0:0:0:
295,215,278009,1,4,0:0:0:0:
334,136,278217,2,0,P|335:180|316:205,1,75.0000028610231,8|2,0:0|3:0,0:0:0:0:
300,291,278842,1,4,0:0:0:0:
401,292,279051,1,8,0:0:0:0:
401,292,279329,5,8,0:0:0:0:
420,280,279467,1,8,3:0:0:0:
438,293,279606,1,4,0:0:0:0:
447,313,279745,1,4,0:0:0:0:
462,329,279884,5,8,0:0:0:0:
512,269,280092,1,4,0:1:0:0:
426,54,280717,6,0,P|433:93|432:137,1,75.0000028610231,4|2,0:1|3:0,0:0:0:0:
374,193,281342,1,4,0:0:0:0:
283,159,281551,2,0,L|363:174,1,75.0000028610231,8|2,0:0|3:0,0:0:0:0:
431,213,282176,1,4,0:0:0:0:
488,183,282384,2,0,L|486:230,1,37.5000014305115,4|0,0:0|0:0,0:0:0:0:
406,295,282801,2,0,P|439:278|476:273,1,75.0000028610231,4|8,0:0|0:0,0:0:0:0:
332,256,283634,1,2,3:0:0:0:
303,318,283842,1,2,3:0:0:0:
303,318,283947,1,2,3:0:0:0:
303,318,284051,6,0,P|266:329|224:318,1,75.0000028610231,4|2,0:1|3:0,0:0:0:0:
187,277,284676,1,4,0:0:0:0:
145,358,284884,2,0,L|163:285,1,75.0000028610231,8|2,0:0|3:0,0:0:0:0:
207,231,285509,2,0,P|209:213|196:191,1,37.5000014305115,4|0,0:0|0:0,0:0:0:0:
331,218,285926,2,0,L|257:192,1,75.0000028610231,8|4,0:0|0:0,0:0:0:0:
134,203,286551,1,8,0:0:0:0:
165,145,286759,6,0,P|169:123|178:98,1,37.5000014305115,4|8,0:1|0:0,0:0:0:0:
223,109,287384,6,0,P|259:111|303:104,1,75.0000028610231,4|2,0:1|3:0,0:0:0:0:
356,65,288009,1,4,0:0:0:0:
427,121,288217,2,0,P|391:107|360:87,1,75.0000028610231,8|2,0:0|3:0,0:0:0:0:
332,24,288842,1,2,3:0:0:0:
256,0,289051,2,0,L|263:38,1,37.5000014305115,4|0,0:0|0:0,0:0:0:0:
196,33,289467,2,0,L|189:71,1,37.5000014305115,4|0,0:0|0:0,0:0:0:0:
267,135,289884,2,0,P|217:133|183:128,1,75.0000028610231,8|2,0:0|3:0,0:0:0:0:
111,182,290509,1,4,0:0:0:0:
111,182,290613,1,4,0:0:0:0:
111,182,290717,5,4,0:0:0:0:
67,97,290926,1,8,0:0:0:0:
35,132,291134,2,0,L|-4:120,1,37.5000014305115,4|4,0:0|0:0,0:0:0:0:
57,198,291551,2,0,P|55:235|49:281,1,75.0000028610231,8|4,0:0|0:0,0:0:0:0:
203,367,292384,2,0,P|198:329|196:292,1,75.0000028610231,8|2,0:0|3:0,0:0:0:0:
265,211,293009,1,4,0:0:0:0:
265,211,293113,1,8,0:0:0:0:
265,211,293217,1,8,0:0:0:0:
302,179,293426,1,8,3:0:0:0:
351,172,293635,1,4,0:0:0:0:
405,196,293843,1,4,0:0:0:0:
408,276,294051,6,0,P|418:252|422:212,1,64.9999970245363,4|2,1:0|3:0,0:0:0:0:
404,148,294676,1,4,0:0:0:0:
479,113,294884,2,0,L|416:128,1,64.9999970245363,8|2,0:0|3:0,0:0:0:0:
356,95,295509,2,0,P|370:92|391:79,1,32.4999985122681,4|0,0:0|0:0,0:0:0:0:
449,22,295926,2,0,L|382:29,1,64.9999970245363,8|4,0:0|0:0,0:0:0:0:
277,0,296551,2,0,P|278:22|283:33,1,32.4999985122681,8|4,0:0|0:0,0:0:0:0:
249,78,296967,1,2,3:0:0:0:
265,159,297176,1,8,0:0:0:0:
265,159,297280,1,8,0:0:0:0:
265,159,297384,6,0,P|216:144|198:142,1,64.9999970245363,4|2,0:1|3:0,0:0:0:0:
145,162,298009,1,4,0:0:0:0:
142,85,298217,2,0,P|125:118|131:153,1,64.9999970245363,8|2,0:0|3:0,0:0:0:0:
90,193,298842,1,4,0:0:0:0:
90,193,298947,1,4,0:0:0:0:
90,193,299051,1,4,0:0:0:0:
9,220,299259,2,0,L|84:207,1,64.9999970245363,8|4,0:0|0:0,0:0:0:0:
125,255,299884,1,8,0:0:0:0:
164,199,300092,6,0,P|150:218|142:240,1,46.8750017881394,4|0,0:1|0:0,0:0:0:0:
149,238,300717,6,0,P|160:268|184:295,1,64.9999970245363,4|2,0:1|3:0,0:0:0:0:
237,339,301342,1,4,0:0:0:0:
165,356,301551,2,0,P|196:350|228:357,1,64.9999970245363,8|2,0:0|3:0,0:0:0:0:
281,384,302176,2,0,P|299:386|318:380,1,32.4999985122681,4|4,0:0|0:0,0:0:0:0:
357,306,302592,2,0,P|363:344|388:351,1,64.9999970245363,8|4,0:0|0:0,0:0:0:0:
432,329,303217,2,0,L|507:341,1,64.9999970245363,8|2,0:0|3:0,0:0:0:0:
462,246,303842,1,4,0:0:0:0:
462,246,303947,1,4,0:0:0:0:
462,246,304051,6,0,P|411:269|403:278,1,64.9999970245363,4|6,0:1|0:3,0:0:0:0:
387,268,304606,1,4,0:0:0:0:
369,277,304745,1,4,3:0:0:0:
349,279,304884,1,8,0:0:0:0:
247,248,305162,5,8,0:0:0:0:
238,230,305301,1,8,3:0:0:0:
248,213,305440,1,8,3:0:0:0:
240,194,305579,1,4,3:0:0:0:
248,176,305717,1,8,0:0:0:0:
321,162,305995,5,8,0:0:0:0:
310,145,306134,1,8,3:0:0:0:
319,128,306273,1,4,3:0:0:0:
308,111,306412,1,4,3:0:0:0:
310,91,306551,1,8,0:0:0:0:
336,22,306759,1,4,0:1:0:0:
178,197,307384,6,0,L|243:183,1,64.9999970245363,4|2,0:1|3:0,0:0:0:0:
305,207,308009,1,4,0:0:0:0:
366,264,308217,2,0,P|341:242|312:228,1,64.9999970245363,8|2,0:0|3:0,0:0:0:0:
294,280,308842,2,0,P|266:283|249:279,1,32.4999985122681,4|0,0:0|0:0,0:0:0:0:
167,326,309259,2,0,L|184:248,1,64.9999970245363,8|4,0:0|0:0,0:0:0:0:
66,180,309884,2,0,P|104:176|122:207,1,64.9999970245363,8|2,0:0|3:0,0:0:0:0:
92,244,310509,1,2,3:0:0:0:
92,244,310613,1,2,3:0:0:0:
92,244,310717,6,0,P|81:271|85:318,1,64.9999970245363,4|2,0:1|3:0,0:0:0:0:
118,345,311342,1,4,0:0:0:0:
0,300,311551,1,8,0:0:0:0:
74,197,311759,1,8,0:0:0:0:
33,165,311967,2,0,L|-7:171,1,32.4999985122681,2|0,3:0|0:0,0:0:0:0:
37,158,312384,1,4,0:0:0:0:
86,57,312592,2,0,L|83:133,1,64.9999970245363,8|4,0:0|0:0,0:0:0:0:
48,27,313217,1,8,0:0:0:0:
188,0,313426,6,0,P|181:25|186:50,1,46.8750017881394,4|0,0:1|0:0,0:0:0:0:
190,42,314051,6,0,P|192:74|178:123,1,75.0000028610231,4|2,0:0|3:0,0:0:0:0:
143,176,314676,1,4,0:0:0:0:
235,213,314884,2,0,L|158:194,1,75.0000028610231,8|2,0:0|3:0,0:0:0:0:
103,233,315509,2,0,P|123:241|135:257,1,37.5000014305115,4|0,0:0|0:0,0:0:0:0:
187,350,315926,2,0,P|195:304|223:280,1,75.0000028610231,8|4,0:0|0:0,0:0:0:0:
301,182,316551,2,0,L|300:226,1,37.5000014305115,8|0,0:0|0:0,0:0:0:0:
336,264,316967,1,2,3:0:0:0:
406,235,317176,1,8,0:0:0:0:
406,235,317280,1,8,0:0:0:0:
406,235,317384,5,4,0:0:0:0:
357,318,317592,1,8,0:0:0:0:
409,340,317801,2,0,L|451:337,1,37.5000014305115,4|0,0:0|0:0,0:0:0:0:
352,312,318217,1,8,0:0:0:0:
305,346,318426,1,8,0:0:0:0:
213,338,318634,1,8,3:0:0:0:
286,271,318842,1,8,0:0:0:0:
204,337,319051,1,8,0:0:0:0:
188,291,319259,1,8,3:0:0:0:
219,340,319467,1,4,0:0:0:0:
229,264,319676,2,0,P|231:242|227:225,1,37.5000014305115,8|4,3:0|0:0,0:0:0:0:
187,193,320092,1,4,0:0:0:0:
220,155,320301,1,4,0:0:0:0:
220,155,320405,1,4,0:0:0:0:
220,155,320509,1,4,0:0:0:0:
185,76,320717,6,0,B|212:148|204:210|126:229|114:232|102:233|19:241|-3:300|31:430|129:436|225:369|250:315|237:252|227:214|224:204|223:195|186:106|316:6|410:92|341:186|263:191,2,800,4|4|0,0:1|0:0|0:0,0:0:0:0:
