osu file format v14

[General]
AudioFilename: audio.mp3
AudioLeadIn: 0
PreviewTime: 54069
Countdown: 0
SampleSet: Soft
StackLeniency: 0.7
Mode: 0
LetterboxInBreaks: 0
WidescreenStoryboard: 0

[Editor]
Bookmarks: 28756,55423,68652
DistanceSpacing: 1.1
BeatDivisor: 4
GridSize: 4
TimelineZoom: 1.3

[Metadata]
Title:All Alone With You (TV Edit)
TitleUnicode:All Alone With You (TV Edit)
Artist:EGOIST
ArtistUnicode:EGOIST
Creator:Seto Kousuke
Version:Normal
Source:PSYCHO-PASS サイコパス
Tags:chelly ending ryo supercell Trynna
BeatmapID:1249004
BeatmapSetID:590084

[Difficulty]
HPDrainRate:3
CircleSize:3
OverallDifficulty:4
ApproachRate:5
SliderMultiplier:2
SliderTickRate:1

[Events]
//Background and Video events
0,0,"missher.jpg",0,0
Video,-700,"super+pass.avi"
//Break Periods
2,51873,54103
//Storyboard Layer 0 (Background)
//Storyboard Layer 1 (Fail)
//Storyboard Layer 2 (Pass)
//Storyboard Layer 3 (Foreground)
//Storyboard Sound Samples

[TimingPoints]
2090,833.333333333333,4,2,0,15,1,0
28756,-100,4,2,1,35,0,0
51673,-100,4,2,0,15,0,0
55423,-100,4,2,2,50,0,1
61464,-100,4,2,3,50,0,1
62089,-100,4,2,2,50,0,1
68131,-100,4,2,3,50,0,1
68756,-100,4,2,2,50,0,1
74798,-100,4,2,3,50,0,1
75423,-100,4,2,2,50,0,1
82089,-166.666666666667,4,2,2,50,0,0
82714,-166.666666666667,4,2,4,85,0,0
85214,-166.666666666667,4,2,5,85,0,0
87714,-166.666666666667,4,2,6,85,0,0
88444,-133.333333333333,4,2,2,5,0,0

[Colours]
Combo1 : 255,28,28
Combo2 : 255,83,0
Combo3 : 0,111,244
Combo4 : 155,78,0

[HitObjects]
92,108,2090,6,0,P|140:120|192:108,1,100,2|0,0:0|0:0,0:0:0:0:
236,80,2715,2,0,L|340:80,1,100,2|0,0:0|0:0,0:0:0:0:
388,92,3339,1,0,0:0:0:0:
388,92,3548,2,0,P|376:144|392:204,2,100,2|0|2,0:0|0:0|0:0,0:0:0:0:
440,304,5214,5,0,0:0:0:0:
440,304,5423,2,0,P|392:316|340:304,1,100,2|0,0:0|0:0,0:0:0:0:
292,284,6048,2,0,L|164:284,1,100,2|0,0:0|0:0,0:0:0:0:
117,202,6881,2,0,P|68:191|20:203,2,100,2|0|2,0:0|0:0|0:0,0:0:0:0:
192,284,8131,1,0,0:0:0:0:
192,284,8339,2,0,L|256:284,1,50,2|0,0:0|0:0,0:0:0:0:
292,284,8756,6,0,P|280:240|300:184,1,100,2|0,0:0|0:0,0:0:0:0:
332,148,9381,2,0,L|332:48,1,100,2|0,0:0|0:0,0:0:0:0:
444,48,10214,2,0,L|444:148,1,100,2|0,0:0|0:0,0:0:0:0:
492,248,11048,2,0,P|448:260|392:244,1,100,2|0,0:0|0:0,0:0:0:0:
292,208,11881,6,0,L|228:208,1,50,2|0,0:0|0:0,0:0:0:0:
188,208,12298,2,0,P|120:184|224:68,1,300,2|0,0:0|0:0,0:0:0:0:
264,92,13756,2,0,L|320:92,1,50,2|0,0:0|0:0,0:0:0:0:
360,64,14173,2,0,L|428:64,1,50,0|2,0:0|0:0,0:0:0:0:
472,156,14798,1,0,0:0:0:0:
472,156,15006,2,0,L|472:232,1,50,2|0,0:0|0:0,0:0:0:0:
468,260,15423,6,0,P|420:252|368:264,1,100,2|0,0:0|0:0,0:0:0:0:
328,296,16048,2,0,B|280:312|280:312|232:296,1,100,2|0,0:0|0:0,0:0:0:0:
132,252,16881,2,0,P|83:241|34:249,2,100,2|2|0,0:0|0:0|0:0,0:0:0:0:
176,288,17923,1,0,0:0:0:0:
244,144,18548,5,0,0:0:0:0:
244,144,18756,2,0,L|144:144,1,100,2|0,0:0|0:0,0:0:0:0:
88,140,19381,2,0,P|68:92|88:40,1,100,2|0,0:0|0:0,0:0:0:0:
188,20,20214,2,0,L|300:20,2,100
81,47,21464,1,0,0:0:0:0:
81,47,21673,2,0,L|80:131,1,50,2|0,0:0|0:0,0:0:0:0:
84,152,22089,6,0,P|136:164|184:152,1,100,2|0,0:0|0:0,0:0:0:0:
228,124,22714,2,0,B|276:112|276:112|332:128,1,100,2|0,0:0|0:0,0:0:0:0:
416,192,23548,2,0,P|432:236|420:296,2,100,2|0|0,0:0|0:0|0:0,0:0:0:0:
320,248,24798,1,0,0:0:0:0:
232,312,25214,1,0,0:0:0:0:
232,312,25423,6,0,L|132:312,1,100,2|2,0:0|0:0,0:0:0:0:
84,296,26048,2,0,P|68:252|84:196,1,100,2|2,0:0|0:0,0:0:0:0:
120,164,26673,2,0,L|120:32,1,100,2|2,0:0|0:0,0:0:0:0:
156,20,27298,2,0,L|212:20,2,50,0|0|2,0:0|0:0|0:0,0:0:0:0:
264,304,28756,6,0,B|264:239|264:239|296:175|296:175|296:111,1,200,0|2,0:0|0:0,0:0:0:0:
136,72,30215,1,0,0:0:0:0:
136,72,30423,2,0,P|84:80|16:68,2,100,2|0|2,0:0|0:0|0:0,0:0:0:0:
234,22,31673,1,0,0:0:0:0:
296,111,32089,6,0,L|296:219,1,100,2|0,0:0|0:0,0:0:0:0:
296,268,32714,2,0,P|344:256|396:272,1,100,0|0,0:0|0:0,0:0:0:0:
484,212,33548,2,0,L|484:112,1,100,0|2,0:0|0:0,0:0:0:0:
388,60,34381,2,0,P|338:67|290:58,1,100,0|0,0:0|0:0,0:0:0:0:
184,36,35214,1,0,0:0:0:0:
184,36,35423,6,0,P|200:84|180:152,1,100,2|0,0:0|0:0,0:0:0:0:
128,219,36256,2,0,P|111:266|120:315,1,100,2|0,0:0|0:0,0:0:0:0:
224,276,37089,2,0,L|352:276,1,100,2|0,0:0|0:0,0:0:0:0:
428,316,37923,2,0,P|436:267|420:220,1,100,2|0,0:0|0:0,0:0:0:0:
380,184,38548,1,0,0:0:0:0:
380,184,38756,6,0,L|244:184,1,100,2|0,0:0|0:0,0:0:0:0:
172,208,39589,2,0,L|36:208,1,100,2|0,0:0|0:0,0:0:0:0:
64,96,40423,2,0,L|164:96,1,100,2|0,0:0|0:0,0:0:0:0:
268,56,41256,2,0,L|380:56,1,100,2|0,0:0|0:0,0:0:0:0:
476,40,42089,6,0,B|500:124|468:196|468:196|432:268|468:330,2,300,2|0|2,0:0|0:0|0:0,0:0:0:0:
380,92,45006,1,0,0:0:0:0:
284,40,45423,6,0,B|260:124|292:196|292:196|328:268|288:336,2,300,2|0|2,0:0|0:0|0:0,0:0:0:0:
256,192,48756,12,2,51673,0:0:0:0:
80,80,55423,6,0,P|124:56|188:68,1,100,4|4,1:1|0:0,0:0:0:0:
260,128,56256,2,0,L|260:236,1,100,12|6,0:0|0:0,0:0:0:0:
256,284,56881,1,2,0:0:0:0:
232,332,57089,2,0,P|188:344|132:332,2,100,4|6|12,1:2|1:2|0:0,0:0:0:0:
184,232,58339,1,6,0:0:0:0:
76,232,58756,6,0,P|84:181|72:132,1,100,4|6,1:2|0:0,0:0:0:0:
40,88,59381,1,2,0:0:0:0:
40,88,59589,2,0,L|168:88,1,100,12|6,0:0|0:0,0:0:0:0:
196,88,60214,1,2,0:0:0:0:
244,116,60423,2,0,P|260:164|240:216,1,100,4|6,1:2|0:0,0:0:0:0:
208,252,61048,1,2,0:0:0:0:
164,284,61256,2,0,L|114:284,1,50,12|4,1:2|0:2,0:0:0:0:
264,348,62089,6,0,L|388:348,1,100,4|4,1:0|0:0,0:0:0:0:
452,284,62923,2,0,P|464:236|440:184,1,100,12|6,0:0|0:0,0:0:0:0:
404,156,63548,1,2,0:0:0:0:
404,156,63756,2,0,L|292:156,2,100,4|4|12,1:2|1:2|0:0,0:0:0:0:
468,64,65006,1,6,0:0:0:0:
364,32,65423,6,0,P|312:40|256:28,1,100,4|6,1:2|0:0,0:0:0:0:
212,24,66048,1,2,0:0:0:0:
212,24,66256,2,0,P|224:72|208:136,1,100,12|6,0:0|0:0,0:0:0:0:
188,168,66881,1,2,0:0:0:0:
188,168,67089,2,0,P|237:170|284:208,1,100,4|6,1:2|0:0,0:0:0:0:
304,248,67714,1,2,0:0:0:0:
316,300,67923,2,0,L|316:360,1,50,12|4,1:2|0:0,0:0:0:0:
152,352,68756,6,0,P|104:364|44:344,1,100,4|4,1:0|0:0,0:0:0:0:
108,256,69589,2,0,L|108:136,1,100,12|6,0:0|0:0,0:0:0:0:
108,100,70214,1,2,0:0:0:0:
108,100,70423,2,0,P|60:88|8:104,2,100,4|4|12,1:2|1:2|0:0,0:0:0:0:
192,168,71673,1,6,0:0:0:0:
276,96,72089,6,0,L|384:96,1,100,4|6,1:2|0:0,0:0:0:0:
432,100,72714,1,2,0:0:0:0:
472,136,72923,2,0,P|488:184|472:248,1,100,12|6,0:0|0:0,0:0:0:0:
456,280,73548,1,2,0:0:0:0:
456,280,73756,2,0,L|340:280,1,100,4|6,1:2|0:0,0:0:0:0:
304,260,74381,1,2,0:0:0:0:
252,244,74589,2,0,L|184:243,1,50,12|4,1:2|0:0,0:0:0:0:
136,332,75214,1,2,0:0:0:0:
136,332,75423,6,0,P|136:280|104:240,1,100,4|4,1:0|0:0,0:0:0:0:
72,212,76048,1,2,0:0:0:0:
72,212,76256,2,0,L|208:212,1,100,12|6,0:0|0:0,0:0:0:0:
224,196,76881,1,2,0:0:0:0:
268,164,77089,2,0,P|280:120|256:52,2,100,4|4|12,1:2|1:2|0:0,0:0:0:0:
168,120,78339,1,4,1:2:0:0:
120,220,78756,6,0,L|120:332,1,100,4|4,1:2|1:2,0:0:0:0:
224,352,79589,1,12,1:2:0:0:
224,352,79798,2,0,L|296:352,1,50,8|4,0:0|1:2,0:0:0:0:
356,280,80423,1,12,1:2:0:0:
356,280,80632,2,0,L|428:280,1,50,8|4,0:0|1:2,0:0:0:0:
460,184,81256,2,0,L|532:184,2,50,12|2|4,1:2|0:0|1:2,0:0:0:0:
400,96,82089,6,0,B|329:120|296:236|380:360|476:360|476:268|476:204|416:204|384:204|328:276|316:320|316:320|244:244|260:148|280:96|280:96|208:116|168:76|168:76|152:120|192:168,1,929.999971618653,4|0,1:0|0:0,0:0:0:0:
