osu file format v14

[General]
AudioFilename: audio.mp3
AudioLeadIn: 0
PreviewTime: 65931
Countdown: 0
SampleSet: None
StackLeniency: 0.4
Mode: 0
LetterboxInBreaks: 0
WidescreenStoryboard: 1

[Editor]
Bookmarks: 45931,46764,61556,138847
DistanceSpacing: 1.3
BeatDivisor: 4
GridSize: 16
TimelineZoom: 1.5

[Metadata]
Title:All Alone With You
TitleUnicode:All Alone With You
Artist:EGOIST
ArtistUnicode:EGOIST
Creator:Gabe-
Version:aaaa
Source:PSYCHO-PASS サイコパス
Tags:chelly ending full ryo supercell psycho pass end
BeatmapID:1624137
BeatmapSetID:656344

[Difficulty]
HPDrainRate:5
CircleSize:4
OverallDifficulty:8.5
ApproachRate:8.7
SliderMultiplier:3.39999990463257
SliderTickRate:1

[Events]
//Background and Video events
0,0,"Egoist all alone with you.jpg",0,0
//Break Periods
//Storyboard Layer 0 (Background)
//Storyboard Layer 1 (Fail)
//Storyboard Layer 2 (Pass)
//Storyboard Layer 3 (Foreground)
//Storyboard Sound Samples

[TimingPoints]
723,833.333333333333,4,1,1,100,1,0
723,-133.333333333333,4,1,1,30,0,0
13431,-200,4,1,1,5,0,0
14056,-133.333333333333,4,1,1,45,0,0
20097,-200,4,1,1,45,0,0
20722,-133.333333333333,4,1,1,45,0,0
27389,-125,4,1,1,50,0,0
40722,-117.647058823529,4,1,1,55,0,0
54056,-125,4,1,1,65,0,0
57388,-153.846153846153,4,1,1,55,0,0
60722,-200,4,1,1,60,0,0
63639,-200,4,1,1,45,0,0
63907,-100,4,1,1,35,0,0
67389,-100,4,1,1,100,0,1
84056,-100,4,1,1,100,0,1
84889,-90.9090909090909,4,1,1,100,0,1
94056,-133.333333333333,4,1,1,65,0,0
94264,-111.111111111111,4,1,1,65,0,0
106764,-111.111111111111,4,1,1,65,0,0
147389,-133.333333333333,4,1,1,45,0,0
150722,-133.333333333333,4,1,1,40,0,0
154056,-133.333333333333,4,1,1,45,0,0
156972,-133.333333333333,4,1,1,60,0,0
160722,-100,4,1,1,100,0,1
177389,-133.333333333333,4,1,1,100,0,1
177597,-76.9230769230769,4,1,1,100,0,1
178847,-58.8235294117647,4,1,1,100,0,1
179056,-100,4,1,1,100,0,1
190722,-133.333333333333,4,1,1,100,0,1
198222,-100,4,1,1,100,0,1
199057,-133.333333333333,4,1,1,100,0,1
199889,-100,4,1,1,100,0,1
200722,-133.333333333333,4,1,1,100,0,1
207389,-83.3333333333333,4,1,1,100,0,0
207597,-83.3333333333333,4,1,1,85,0,0
214056,-100,4,1,1,85,0,0
214889,-100,4,1,1,85,0,0
220722,-76.9230769230769,4,1,1,85,0,0
221556,-66.6666666666667,4,1,1,85,0,0
222389,-100,4,1,1,85,0,0
224056,-133.333333333333,4,1,1,85,0,0
224264,-100,4,1,1,85,0,0
239472,-100,4,1,1,82,0,0
239681,-100,4,1,1,79,0,0
239889,-100,4,1,1,76,0,0
240097,-100,4,1,1,73,0,0
240306,-100,4,1,1,70,0,0
240514,-100,4,1,1,67,0,0
240722,-100,4,1,1,75,0,0
254056,-100,4,1,1,30,0,0
259889,-100,4,1,1,80,0,0
260722,-133.333333333333,4,1,1,88,0,0
264056,-76.9230769230769,4,1,1,100,0,0
267389,-66.6666666666667,4,1,1,100,0,1
268222,-76.9230769230769,4,1,1,100,0,1
284056,-100,4,1,1,100,0,1
284889,-83.3333333333333,4,1,1,100,0,1
285722,-76.9230769230769,4,1,1,100,0,1
300722,-76.9230769230769,4,1,1,90,0,0
319886,-200,4,1,1,50,0,0
320097,-200,4,1,1,68,0,0
320306,-200,4,1,1,70,0,0
320722,-200,4,1,1,100,0,0
321556,-200,4,1,1,25,0,0
327389,-200,4,1,1,40,0,0
328222,-200,4,1,1,25,0,0
334056,-200,4,1,1,40,0,0
334889,-200,4,1,1,25,0,0
340722,-200,4,1,1,55,0,0
344889,-133.333333333333,4,1,1,5,0,0
345722,-133.333333333333,4,1,1,50,0,0
346556,-133.333333333333,4,1,1,5,0,0

[Colours]
Combo1 : 255,255,255
Combo2 : 77,77,77
Combo3 : 255,255,255
Combo4 : 255,255,255

[HitObjects]
128,152,67389,5,8,0:0:0:0:
200,48,67597,1,8,0:0:0:0:
240,184,67806,1,8,0:0:0:0:
96,64,68014,1,8,0:0:0:0:
192,224,68222,2,0,B|216:216|240:184|240:184|240:232,1,84.9999976158143,10|0,0:2|0:0,0:0:0:0:
328,80,68639,5,8,0:0:0:0:
376,200,68847,1,8,0:0:0:0:
240,184,69056,1,8,0:0:0:0:
308,288,69264,1,8,0:0:0:0:
348,56,69472,5,8,0:0:0:0:
401,190,69680,1,8,0:0:0:0:
240,184,69889,2,0,B|292:172|304:204|304:204|272:212,1,84.9999976158143,10|0,0:2|0:0,0:0:0:0:
368,296,70306,1,8,0:0:0:0:
428,180,70514,1,8,0:0:0:0:
480,320,70722,5,8,0:0:0:0:
304,216,70931,1,8,0:0:0:0:
472,112,71139,1,8,0:0:0:0:
368,296,71347,1,8,0:0:0:0:
344,80,71556,6,0,B|312:104|288:112|288:112|296:152,1,84.9999976158143,10|0,0:2|0:0,0:0:0:0:
272,304,71972,1,0,0:0:0:0:
176,160,72181,2,0,B|136:192|104:184|104:184|144:232,1,84.9999976158143,8|0,0:2|0:0,0:0:0:0:
188,290,72597,2,0,L|284:306,1,84.9999976158143,8|0,0:2|0:0,0:0:0:0:
392,240,73014,2,0,L|288:208,1,84.9999976158143,2|10,0:0|0:2,0:0:0:0:
176,160,73431,1,12,0:0:0:0:
296,64,74056,6,0,B|336:80|368:64|368:64|352:112,1,84.9999976158143,10|8,0:0|0:0,0:0:0:0:
432,184,74472,2,0,B|400:208|384:240|384:240|352:224,1,84.9999976158143,8|8,0:0|0:0,0:0:0:0:
296,64,74889,5,10,0:2:0:0:
336,176,75097,1,8,0:0:0:0:
388,21,75306,1,8,0:0:0:0:
432,184,75514,1,8,0:0:0:0:
296,64,75722,5,8,0:0:0:0:
368,240,75931,1,8,0:0:0:0:
464,52,76139,1,8,0:0:0:0:
232,112,76347,1,8,0:0:0:0:
432,184,76556,1,10,0:2:0:0:
336,0,76764,1,8,0:0:0:0:
227,201,76972,1,8,0:0:0:0:
312,125,77181,1,8,0:0:0:0:
344,256,77389,2,0,B|368:208|368:208|376:248,1,84.9999976158143,10|8,0:0|0:0,0:0:0:0:
296,120,77806,5,8,0:0:0:0:
400,160,78014,1,8,0:0:0:0:
400,160,78222,2,0,P|400:240|320:288,1,169.999995231629,10|0,0:2|0:0,0:0:0:0:
224,320,78847,1,8,0:0:0:0:
156,240,79056,2,0,B|228:228|228:228|252:212|252:212|324:200,1,169.999995231629,10|0,0:0|0:0,0:0:0:0:
433,191,79681,1,8,0:0:0:0:
281,63,79889,1,10,0:2:0:0:
284,292,80097,1,14,0:0:0:0:
132,103,80722,6,0,B|194:121|238:94|264:41|264:41|288:72|260:120|260:120|317:85|371:130|371:130,1,339.999990463257,10|10,0:0|0:2,0:0:0:0:
432,192,81764,2,0,P|416:248|392:272,1,84.9999976158143
304,188,82181,1,8,0:0:0:0:
398,266,82389,1,10,0:0:0:0:
264,304,82597,1,8,0:0:0:0:
380,152,82806,1,8,0:0:0:0:
400,272,83014,1,8,0:0:0:0:
248,144,83222,6,0,B|240:192|264:228|264:228|304:224|328:248|336:284,1,169.999995231629,10|0,0:2|0:0,0:0:0:0:
264,304,83847,1,8,0:0:0:0:
216,184,84056,2,0,P|240:88|286:180,1,254.999992847443,8|0,0:0|0:0,0:0:0:0:
456,256,84889,6,0,B|387:221|378:273|343:247|343:247|404:204|404:143|387:83,1,280.500000692368,10|0,0:2|0:0,0:0:0:0:
368,336,85722,2,0,L|224:352,1,93.5000002307892,10|8,0:0|0:2,0:0:0:0:
142,220,86139,2,0,L|286:204,1,93.5000002307892,10|8,0:0|0:2,0:0:0:0:
368,336,86556,1,10,0:2:0:0:
288,80,86764,1,12,0:0:0:0:
266,267,87389,6,0,P|294:230|307:183,1,93.5000002307892
288,80,87806,1,8,0:0:0:0:
224,168,88014,1,8,0:0:0:0:
368,16,88222,6,0,B|408:56|385:106|385:106|360:160|389:195,1,187.000000461578,10|8,0:2|0:0,0:0:0:0:
432,304,88847,1,8,0:0:0:0:
320,256,89056,2,0,P|266:256|231:273,1,93.5000002307892,8|8,0:0|0:0,0:0:0:0:
291,335,89472,1,8,0:0:0:0:
224,176,89681,1,8,0:0:0:0:
160,328,89889,1,10,0:2:0:0:
320,256,90097,2,0,L|392:320,1,93.5000002307892
144,240,90514,1,8,0:0:0:0:
248,56,90722,5,10,0:0:0:0:
316,247,90931,1,8,0:0:0:0:
88,152,91139,1,8,0:0:0:0:
336,136,91347,1,8,0:0:0:0:
144,48,91556,1,10,0:2:0:0:
316,247,91764,1,8,0:2:0:0:
264,16,91972,1,8,0:0:0:0:
144,240,92181,5,8,0:2:0:0:
408,144,92389,1,8,0:2:0:0:
280,16,92597,1,8,0:0:0:0:
240,328,92806,5,8,0:0:0:0:
300,16,93014,1,8,0:0:0:0:
92,176,93222,1,10,0:2:0:0:
392,232,93431,1,8,0:2:0:0:
208,120,94056,5,4,0:0:0:0:
