osu file format v14

[General]
AudioFilename: audio.mp3
AudioLeadIn: 0
PreviewTime: 65931
Countdown: 0
SampleSet: Normal
StackLeniency: 0.4
Mode: 0
LetterboxInBreaks: 0
WidescreenStoryboard: 1

[Editor]
Bookmarks: 45931,46764,61556,138847
DistanceSpacing: 1.3
BeatDivisor: 4
GridSize: 16
TimelineZoom: 1.5

[Metadata]
Title:All Alone With You
TitleUnicode:All Alone With You
Artist:EGOIST
ArtistUnicode:EGOIST
Creator:Gabe-
Version:Psychopathy
Source:PSYCHO-PASS サイコパス
Tags:chelly ending full ryo supercell psycho pass end
BeatmapID:1542493
BeatmapSetID:656344

[Difficulty]
HPDrainRate:5
CircleSize:4
OverallDifficulty:8.5
ApproachRate:8.7
SliderMultiplier:3.39999990463257
SliderTickRate:1

[Events]
//Background and Video events
0,0,"Egoist all alone with you.jpg",0,0
//Break Periods
2,94256,106119
2,240922,253411
//Storyboard Layer 0 (Background)
//Storyboard Layer 1 (Fail)
//Storyboard Layer 2 (Pass)
//Storyboard Layer 3 (Foreground)
//Storyboard Sound Samples

[TimingPoints]
723,833.333333333333,4,1,1,100,1,0
723,-133.333333333333,4,1,1,30,0,0
13431,-200,4,1,1,5,0,0
14056,-133.333333333333,4,1,1,45,0,0
20097,-200,4,1,1,45,0,0
20722,-133.333333333333,4,1,1,45,0,0
27389,-125,4,1,1,50,0,0
40722,-117.647058823529,4,1,1,55,0,0
54056,-125,4,1,1,65,0,0
57388,-153.846153846153,4,1,1,55,0,0
60722,-200,4,1,1,60,0,0
63639,-200,4,1,1,45,0,0
63907,-100,4,1,1,35,0,0
67389,-100,4,1,1,100,0,1
84056,-100,4,1,1,100,0,1
84889,-90.9090909090909,4,1,1,100,0,1
94056,-133.333333333333,4,1,1,65,0,0
94264,-111.111111111111,4,1,1,65,0,0
106764,-111.111111111111,4,1,1,65,0,0
147389,-133.333333333333,4,1,1,45,0,0
150722,-133.333333333333,4,1,1,40,0,0
154056,-133.333333333333,4,1,1,45,0,0
156972,-133.333333333333,4,1,1,60,0,0
160722,-100,4,1,1,100,0,1
177389,-133.333333333333,4,1,1,100,0,1
177597,-76.9230769230769,4,1,1,100,0,1
178847,-58.8235294117647,4,1,1,100,0,1
179056,-100,4,1,1,100,0,1
190722,-133.333333333333,4,1,1,100,0,1
198222,-100,4,1,1,100,0,1
199057,-133.333333333333,4,1,1,100,0,1
199889,-100,4,1,1,100,0,1
200722,-133.333333333333,4,1,1,100,0,1
207389,-83.3333333333333,4,1,1,100,0,0
207597,-83.3333333333333,4,1,1,85,0,0
214056,-100,4,1,1,85,0,0
214889,-100,4,1,1,85,0,0
220722,-76.9230769230769,4,1,1,85,0,0
221556,-66.6666666666667,4,1,1,85,0,0
222389,-100,4,1,1,85,0,0
224056,-133.333333333333,4,1,1,85,0,0
224264,-100,4,1,1,85,0,0
239472,-100,4,1,1,82,0,0
239681,-100,4,1,1,79,0,0
239889,-100,4,1,1,76,0,0
240097,-100,4,1,1,73,0,0
240306,-100,4,1,1,70,0,0
240514,-100,4,1,1,67,0,0
240722,-100,4,1,1,75,0,0
254056,-100,4,1,1,30,0,0
259889,-100,4,1,1,80,0,0
260722,-133.333333333333,4,1,1,88,0,0
264056,-76.9230769230769,4,1,1,100,0,0
267389,-66.6666666666667,4,1,1,100,0,1
268222,-76.9230769230769,4,1,1,100,0,1
284056,-100,4,1,1,100,0,1
284889,-83.3333333333333,4,1,1,100,0,1
285722,-76.9230769230769,4,1,1,100,0,1
300722,-76.9230769230769,4,1,1,90,0,0
319886,-200,4,1,1,50,0,0
320097,-200,4,1,1,68,0,0
320306,-200,4,1,1,70,0,0
320722,-200,4,1,1,100,0,0
321556,-200,4,1,1,25,0,0
327389,-200,4,1,1,40,0,0
328222,-200,4,1,1,25,0,0
334056,-200,4,1,1,40,0,0
334889,-200,4,1,1,25,0,0
340722,-200,4,1,1,55,0,0
344889,-133.333333333333,4,1,1,5,0,0
345722,-133.333333333333,4,1,1,50,0,0
346556,-133.333333333333,4,1,1,5,0,0

[Colours]
Combo1 : 255,255,255
Combo2 : 77,77,77
Combo3 : 255,255,255
Combo4 : 255,255,255

[HitObjects]
240,296,723,6,0,P|280:280|304:248,1,63.7500006437302,2|0,0:0|0:0,0:0:0:0:
344,200,1139,1,0,0:0:0:0:
280,144,1347,2,0,P|344:116|400:136,1,127.50000128746
396,268,1972,2,0,P|364:284|316:284,1,63.7500006437302
208,252,2389,1,2,0:0:0:0:
300,200,2597,1,0,0:0:0:0:
264,328,2806,1,0,0:0:0:0:
192,240,3014,6,0,B|160:184|160:184|232:200,1,127.50000128746
184,104,3639,2,0,L|260:124,1,63.7500006437302
372,212,4056,1,2,0:0:0:0:
280,200,4264,1,0,0:0:0:0:
336,128,4472,1,0,0:0:0:0:
316,284,4681,6,0,B|316:324|324:372|252:372,1,127.50000128746
112,312,5306,2,0,L|96:240,1,63.7500006437302
184,272,5722,2,0,L|208:200,1,63.7500006437302,2|0,0:0|0:0,0:0:0:0:
108,144,6139,1,0,0:0:0:0:
220,64,6347,1,0,0:0:0:0:
248,48,7389,6,0,L|184:80,1,63.7500006437302,2|0,0:0|0:0,0:0:0:0:
200,160,7806,1,0,0:0:0:0:
128,128,8014,2,0,B|112:160|112:184|128:216|160:232|160:232|133:254|97:282|97:282|161:264|218:277|218:277|200:241,1,318.750003218651,0|2,0:0|0:0,0:0:0:0:
227,199,9264,1,0,0:0:0:0:
312,216,9472,1,0,0:0:0:0:
360,136,9681,2,0,B|352:104|336:88|304:80|272:88|256:120|264:144|272:168|288:192|288:192|312:216|312:216|264:192|224:200,1,318.750003218651,0|2,0:0|0:0,0:0:0:0:
231,280,10931,5,8,0:0:0:0:
192,128,11139,1,8,0:0:0:0:
367,232,11347,1,8,0:0:0:0:
227,199,11764,1,2,0:0:0:0:
412,92,12181,1,6,0:0:0:0:
399,112,13431,6,0,L|395:167,1,42.4999988079071
384,240,13847,1,0,0:0:0:0:
319,49,14056,6,0,L|308:205,1,127.50000128746
280,296,14681,2,0,B|304:266|304:266|312:153,1,127.50000128746
232,224,15306,1,0,0:0:0:0:
216,304,15514,2,0,L|287:293,1,63.7500006437302
224,136,15931,2,0,P|160:182|156:253,1,127.50000128746
216,72,16556,2,0,L|224:143,1,63.7500006437302
312,24,16972,2,0,L|303:95,1,63.7500006437302
392,72,17389,6,0,L|408:214,1,127.50000128746
338,287,18014,2,0,P|363:214|442:207,1,127.50000128746
416,280,18639,1,0,0:0:0:0:
352,368,18847,2,0,P|279:343|272:264,1,127.50000128746
255,173,19472,1,0,0:0:0:0:
255,173,19681,2,0,L|263:304,1,127.50000128746
104,320,20305,1,0,0:0:0:0:
184,304,20514,1,0,0:0:0:0:
56,216,20722,6,0,B|28:252|28:252|24:376,1,127.50000128746
184,304,21347,2,0,B|211:268|211:268|216:144,1,127.50000128746
216,80,21972,2,0,L|144:84,1,63.7500006437302
300,140,22389,2,0,L|372:144,1,63.7500006437302
312,40,22806,1,0,0:0:0:0:
296,220,23014,2,0,L|428:227,1,127.50000128746
423,227,23847,1,0,0:0:0:0:
423,227,24056,6,0,P|428:268|416:304,1,63.7500006437302
364,348,24472,1,0,0:0:0:0:
236,356,24681,2,0,P|244:272|328:240,1,127.50000128746
174,353,25306,2,0,P|214:361|242:353,1,63.7500006437302
116,232,25722,2,0,P|107:272|116:300,1,63.7500006437302
152,136,26139,1,0,0:0:0:0:
208,212,26347,1,0,0:0:0:0:
208,212,26764,6,0,P|192:252|192:284,2,63.7500006437302
312,100,27389,1,0,0:0:0:0:
296,188,27597,1,0,0:0:0:0:
232,132,27806,1,0,0:0:0:0:
380,152,28014,1,0,0:0:0:0:
288,20,28222,2,0,P|244:56|263:181,1,135.999996185303
296,188,28847,1,0,0:0:0:0:
447,148,29056,6,0,L|359:152,1,67.9999980926514
416,236,29472,1,0,0:0:0:0:
500,224,29681,1,0,0:0:0:0:
336,252,29889,2,0,B|260:280|252:216|180:272,1,135.999996185303
236,336,30514,1,0,0:0:0:0:
92,184,30722,6,0,P|104:119|160:84,1,135.999996185303
296,144,31347,2,0,B|271:170|271:170|156:164,1,135.999996185303
240,76,31972,1,0,0:0:0:0:
296,144,32181,2,0,P|288:220|240:248,2,135.999996185303
173,244,33222,1,0,0:0:0:0:
173,244,33431,2,0,L|253:248,1,67.9999980926514
220,168,33847,1,0,0:0:0:0:
128,320,34056,6,0,L|281:327,1,135.999996185303
392,260,34681,1,0,0:0:0:0:
392,260,34889,2,0,L|388:340,1,67.9999980926514
304,180,35306,2,0,L|308:260,1,67.9999980926514
421,132,35722,6,0,B|393:168|393:168|291:181,1,135.999996185303
328,32,36347,2,0,P|344:64|336:108,1,67.9999980926514
200,112,36764,2,0,P|184:80|192:36,1,67.9999980926514
264,72,37181,1,0,0:0:0:0:
144,168,37389,6,0,P|108:96|126:-2,1,135.999996185303
108,287,38014,2,0,B|140:263|140:263|144:163,1,135.999996185303
56,216,38639,1,0,0:0:0:0:
232,216,38847,1,0,0:0:0:0:
143,167,39056,1,0,0:0:0:0:
152,264,39264,1,0,0:0:0:0:
224,120,39472,1,0,0:0:0:0:
232,312,39681,1,0,0:0:0:0:
248,336,40513,5,0,0:0:0:0:
248,336,40722,6,0,L|328:344,1,72.2499993515015
444,264,41139,2,0,P|432:219|402:191,1,72.2499993515015
276,248,41556,2,0,L|356:256,1,72.2499993515015
256,160,41972,1,0,0:0:0:0:
352,104,42181,1,0,0:0:0:0:
352,104,42285,1,0,0:0:0:0:
352,104,42389,6,0,L|344:184,1,72.2499993515015
280,56,42806,2,0,P|314:27|364:25,1,72.2499993515015
204,96,43222,2,0,P|196:52|219:8,1,72.2499993515015
272,144,43639,1,0,0:0:0:0:
280,56,43847,1,0,0:0:0:0:
324,208,44056,6,0,B|300:232|256:232|232:216|232:216|164:216,1,144.499998703003
84,216,44681,1,0,0:0:0:0:
128,288,44889,1,0,0:0:0:0:
214,279,45097,2,0,P|206:241|172:206,1,72.2499993515015
16,168,45514,2,0,P|3:204|16:251,1,72.2499993515015
144,72,45931,6,0,P|111:50|62:50,1,72.2499993515015
185,215,46347,2,0,P|222:206|257:172,1,72.2499993515015
272,32,46764,1,0,0:0:0:0:
384,160,46972,1,0,0:0:0:0:
416,72,47181,1,0,0:0:0:0:
320,88,47389,6,0,P|296:136|304:184,1,72.2499993515015
448,224,47806,2,0,P|472:176|464:128,1,72.2499993515015
304,237,48222,2,0,L|472:221,1,144.499998703003
440,320,48847,2,0,L|397:324,1,36.1249996757507
296,320,49056,2,0,P|224:280|224:200,1,144.499998703003
272,168,49681,1,0,0:0:0:0:
336,64,49889,6,0,B|336:120|336:120|352:160|352:160|352:224,1,144.499998703003
272,168,50514,1,0,0:0:0:0:
416,104,50722,2,0,L|520:112,1,72.2499993515015
263,69,51139,2,0,L|367:61,1,72.2499993515015
176,104,51556,1,0,0:0:0:0:
192,16,51764,1,0,0:0:0:0:
248,160,51972,1,0,0:0:0:0:
104,48,52181,2,0,L|96:104,1,36.1249996757507
72,184,52389,6,0,P|96:232|144:248,1,72.2499993515015
184,272,52806,2,0,P|213:227|203:177,1,72.2499993515015
328,272,53222,2,0,P|298:227|308:177,1,72.2499993515015
256,144,53639,1,0,0:0:0:0:
256,320,53847,1,0,0:0:0:0:
395,266,54056,2,0,L|291:274,1,67.9999980926514
256,144,54472,2,0,L|360:136,1,67.9999980926514
471,177,54889,6,0,P|455:241|367:257,1,135.999996185303
392,184,55514,1,0,0:0:0:0:
368,336,55722,2,0,B|328:344|328:344|280:336,1,67.9999980926514
144,336,56139,2,0,B|184:344|184:344|232:336,1,67.9999980926514
229,210,56556,6,0,B|205:250|205:250|213:378,1,135.999996185303
120,248,57181,1,0,0:0:0:0:
288,160,57389,2,0,P|304:192|296:240,1,55.2499959211352
152,152,57806,2,0,P|171:122|217:105,1,55.2499959211352
294,84,58222,2,0,L|159:118,1,110.49999184227
72,144,58847,2,0,P|64:184|72:224,2,55.2499959211352
159,185,59472,2,0,P|159:213|152:240,1,55.2499959211352
128,328,59889,6,0,P|192:344|256:320,1,110.49999184227
304,288,60514,1,0,0:0:0:0:
376,112,60722,2,0,L|280:112,1,84.9999976158143
128,168,61556,2,0,L|224:168,1,84.9999976158143
384,200,62389,2,0,L|288:200,1,84.9999976158143
120,248,63222,1,0,0:0:0:0:
170,98,63639,6,0,B|218:159|176:184|120:192|117:253|117:253|225:194|222:247|222:247|266:235|266:235|303:260|356:249,1,424.999988079071,0|4,0:0|0:0,0:0:0:0:
128,152,67389,5,8,0:0:0:0:
200,48,67597,1,8,0:0:0:0:
240,184,67806,1,8,0:0:0:0:
96,64,68014,1,8,0:0:0:0:
192,224,68222,2,0,B|216:216|240:184|240:184|240:232,1,84.9999976158143,10|0,0:2|0:0,0:0:0:0:
328,80,68639,5,8,0:0:0:0:
376,200,68847,1,8,0:0:0:0:
240,184,69056,1,8,0:0:0:0:
308,288,69264,1,8,0:0:0:0:
348,56,69472,5,8,0:0:0:0:
401,190,69680,1,8,0:0:0:0:
240,184,69889,2,0,B|292:172|304:204|304:204|272:212,1,84.9999976158143,10|0,0:2|0:0,0:0:0:0:
368,296,70306,1,8,0:0:0:0:
428,180,70514,1,8,0:0:0:0:
480,320,70722,5,8,0:0:0:0:
304,216,70931,1,8,0:0:0:0:
472,112,71139,1,8,0:0:0:0:
368,296,71347,1,8,0:0:0:0:
344,80,71556,6,0,B|312:104|288:112|288:112|296:152,1,84.9999976158143,10|0,0:2|0:0,0:0:0:0:
272,304,71972,1,0,0:0:0:0:
176,160,72181,2,0,B|136:192|104:184|104:184|144:232,1,84.9999976158143,8|0,0:2|0:0,0:0:0:0:
188,290,72597,2,0,L|284:306,1,84.9999976158143,8|0,0:2|0:0,0:0:0:0:
392,240,73014,2,0,L|288:208,1,84.9999976158143,2|10,0:0|0:2,0:0:0:0:
176,160,73431,1,12,0:0:0:0:
296,64,74056,6,0,B|336:80|368:64|368:64|352:112,1,84.9999976158143,10|8,0:0|0:0,0:0:0:0:
432,184,74472,2,0,B|400:208|384:240|384:240|352:224,1,84.9999976158143,8|8,0:0|0:0,0:0:0:0:
296,64,74889,5,10,0:2:0:0:
336,176,75097,1,8,0:0:0:0:
388,21,75306,1,8,0:0:0:0:
432,184,75514,1,8,0:0:0:0:
296,64,75722,5,8,0:0:0:0:
368,240,75931,1,8,0:0:0:0:
464,52,76139,1,8,0:0:0:0:
232,112,76347,1,8,0:0:0:0:
432,184,76556,1,10,0:2:0:0:
336,0,76764,1,8,0:0:0:0:
227,201,76972,1,8,0:0:0:0:
312,125,77181,1,8,0:0:0:0:
344,256,77389,2,0,B|368:208|368:208|376:248,1,84.9999976158143,10|8,0:0|0:0,0:0:0:0:
296,120,77806,5,8,0:0:0:0:
400,160,78014,1,8,0:0:0:0:
400,160,78222,2,0,P|400:240|320:288,1,169.999995231629,10|0,0:2|0:0,0:0:0:0:
224,320,78847,1,8,0:0:0:0:
156,240,79056,2,0,B|228:228|228:228|252:212|252:212|324:200,1,169.999995231629,10|0,0:0|0:0,0:0:0:0:
433,191,79681,1,8,0:0:0:0:
281,63,79889,1,10,0:2:0:0:
284,292,80097,1,14,0:0:0:0:
132,103,80722,6,0,B|194:121|238:94|264:41|264:41|288:72|260:120|260:120|317:85|371:130|371:130,1,339.999990463257,10|10,0:0|0:2,0:0:0:0:
432,192,81764,2,0,P|416:248|392:272,1,84.9999976158143
304,188,82181,1,8,0:0:0:0:
398,266,82389,1,10,0:0:0:0:
264,304,82597,1,8,0:0:0:0:
380,152,82806,1,8,0:0:0:0:
400,272,83014,1,8,0:0:0:0:
248,144,83222,6,0,B|240:192|264:228|264:228|304:224|328:248|336:284,1,169.999995231629,10|0,0:2|0:0,0:0:0:0:
264,304,83847,1,8,0:0:0:0:
216,184,84056,2,0,P|240:88|286:180,1,254.999992847443,8|0,0:0|0:0,0:0:0:0:
456,256,84889,6,0,B|387:221|378:273|343:247|343:247|404:204|404:143|387:83,1,280.500000692368,10|0,0:2|0:0,0:0:0:0:
368,336,85722,2,0,L|224:352,1,93.5000002307892,10|8,0:0|0:2,0:0:0:0:
142,220,86139,2,0,L|286:204,1,93.5000002307892,10|8,0:0|0:2,0:0:0:0:
368,336,86556,1,10,0:2:0:0:
288,80,86764,1,12,0:0:0:0:
266,267,87389,6,0,P|294:230|307:183,1,93.5000002307892
288,80,87806,1,8,0:0:0:0:
224,168,88014,1,8,0:0:0:0:
368,16,88222,6,0,B|408:56|385:106|385:106|360:160|389:195,1,187.000000461578,10|8,0:2|0:0,0:0:0:0:
432,304,88847,1,8,0:0:0:0:
320,256,89056,2,0,P|266:256|231:273,1,93.5000002307892,8|8,0:0|0:0,0:0:0:0:
291,335,89472,1,8,0:0:0:0:
224,176,89681,1,8,0:0:0:0:
160,328,89889,1,10,0:2:0:0:
320,256,90097,2,0,L|392:320,1,93.5000002307892
144,240,90514,1,8,0:0:0:0:
248,56,90722,5,10,0:0:0:0:
316,247,90931,1,8,0:0:0:0:
88,152,91139,1,8,0:0:0:0:
336,136,91347,1,8,0:0:0:0:
144,48,91556,1,10,0:2:0:0:
316,247,91764,1,8,0:2:0:0:
264,16,91972,1,8,0:0:0:0:
144,240,92181,5,8,0:2:0:0:
408,144,92389,1,8,0:2:0:0:
280,16,92597,1,8,0:0:0:0:
240,328,92806,5,8,0:0:0:0:
300,16,93014,1,8,0:0:0:0:
92,176,93222,1,10,0:2:0:0:
392,232,93431,1,8,0:2:0:0:
208,120,94056,5,4,0:0:0:0:
112,120,106764,6,0,L|228:112,1,76.4999955196382
64,48,107181,1,0,0:0:0:0:
232,48,107389,2,0,P|264:112|224:184,1,152.999991039276,10|0,0:0|0:0,0:0:0:0:
172,236,108014,2,0,B|216:260|216:260|348:240,1,152.999991039276
404,156,108639,2,0,P|360:144|316:168,1,76.4999955196382
444,224,109056,6,0,P|476:191|477:141,1,76.4999955196382
464,52,109472,1,0,0:0:0:0:
372,68,109681,2,0,L|364:244,1,152.999991039276
356,312,110306,1,0,0:0:0:0:
288,260,110514,1,0,0:0:0:0:
432,312,110722,6,0,P|420:356|377:382,1,76.4999955196382
280,344,111139,1,0,0:0:0:0:
280,344,111347,2,0,B|200:376|208:296|120:340,1,152.999991039276
40,312,111972,1,0,0:0:0:0:
60,212,112181,2,0,P|104:223|130:266,1,76.4999955196382
196,200,112597,2,0,P|208:244|184:288,1,76.4999955196382
204,108,113014,1,0,0:0:0:0:
204,108,113222,6,0,P|248:119|274:162,1,76.4999955196382
300,220,113639,1,0,0:0:0:0:
352,152,113847,1,0,0:0:0:0:
204,108,114056,6,0,L|200:208,1,76.4999955196382
96,224,114472,2,0,L|100:124,1,76.4999955196382
140,73,114889,2,0,P|184:84|210:127,1,76.4999955196382
60,76,115306,2,0,P|71:31|114:5,1,76.4999955196382
201,35,115722,2,0,P|168:67|118:68,1,76.4999955196382
284,76,116139,2,0,L|292:-36,1,76.4999955196382
216,128,116556,2,0,L|221:204,1,76.4999955196382
272,272,116972,1,0,0:0:0:0:
304,192,117181,1,0,0:0:0:0:
236,344,117389,6,0,P|276:356|332:331,1,76.4999955196382
400,208,117806,2,0,P|369:236|362:297,1,76.4999955196382
472,344,118222,2,0,P|462:303|413:266,1,76.4999955196382
359,268,118639,1,0,0:0:0:0:
384,344,118847,1,0,0:0:0:0:
400,208,119056,6,0,P|359:196|304:220,1,76.4999955196382
204,260,119472,2,0,L|292:268,1,76.4999955196382
308,120,119889,1,0,0:0:0:0:
326,203,120097,1,0,0:0:0:0:
228,96,120306,1,0,0:0:0:0:
246,179,120514,1,0,0:0:0:0:
376,44,120722,6,0,P|423:102|351:190,1,152.999991039276
196,132,121347,6,0,B|234:105|234:105|346:117,1,152.999991039276
412,204,121972,1,0,0:0:0:0:
324,200,122181,1,0,0:0:0:0:
420,64,122389,6,0,P|450:92|457:153,1,76.4999955196382
340,68,122806,2,0,P|349:27|398:-9,1,76.4999955196382
380,136,123222,2,0,L|292:156,1,76.4999955196382
184,64,123639,2,0,L|272:84,1,76.4999955196382
216,160,124056,2,0,B|132:140|132:140|44:188,1,152.999991039276
104,356,124681,2,0,P|152:308|116:188,1,152.999991039276
64,184,125306,1,0,0:0:0:0:
60,272,125514,1,0,0:0:0:0:
204,252,125722,6,0,L|196:332,1,76.4999955196382
280,208,126139,2,0,L|272:128,1,76.4999955196382
280,292,126556,2,0,P|320:300|360:284,1,76.4999955196382
408,224,126972,1,0,0:0:0:0:
348,126,127181,1,0,0:0:0:0:
348,126,127285,1,0,0:0:0:0:
348,126,127389,6,0,L|240:134,1,76.4999955196382
244,212,127806,2,0,L|352:204,1,76.4999955196382
188,148,128222,2,0,P|159:182|152:224,1,76.4999955196382
200,284,128639,1,0,0:0:0:0:
340,268,128847,1,0,0:0:0:0:
340,268,128952,1,0,0:0:0:0:
340,268,129056,6,0,L|332:348,1,76.4999955196382
200,284,129472,2,0,P|209:247|232:216,1,76.4999955196382
196,364,129889,2,0,P|159:354|134:326,1,76.4999955196382
124,244,130306,1,0,0:0:0:0:
229,145,130514,1,0,0:0:0:0:
229,145,130618,1,0,0:0:0:0:
229,145,130722,6,0,L|237:225,1,76.4999955196382
320,276,131139,2,0,L|328:196,1,76.4999955196382
408,140,131556,2,0,L|416:220,1,76.4999955196382
488,88,131972,1,0,0:0:0:0:
400,56,132181,1,0,0:0:0:0:
400,56,132285,1,0,0:0:0:0:
400,56,132389,6,0,L|312:64,1,76.4999955196382
232,136,132806,2,0,L|320:144,1,76.4999955196382
144,68,133222,2,0,P|88:76|64:112,1,76.4999955196382
152,224,133639,1,0,0:0:0:0:
128,144,133847,1,0,0:0:0:0:
104,304,134056,6,0,L|184:312,1,76.4999955196382
280,320,134472,2,0,P|324:331|351:356,1,76.4999955196382
232,232,134889,2,0,P|220:188|228:152,1,76.4999955196382
360,136,135306,1,0,0:0:0:0:
320,208,135514,1,0,0:0:0:0:
328,64,135722,6,0,P|376:56|424:80,1,76.4999955196382
448,144,136139,2,0,P|430:189|386:219,1,76.4999955196382
320,208,136556,2,0,P|289:170|285:116,1,76.4999955196382
328,64,136972,1,0,0:0:0:0:
360,136,137181,1,0,0:0:0:0:
240,72,137389,6,0,B|200:128|144:128|144:128|136:200,1,152.999991039276
128,248,138014,2,0,P|172:272|232:256,1,76.4999955196382
356,216,138431,2,0,P|312:192|252:208,1,76.4999955196382
276,384,138847,2,0,B|292:352|292:352|284:280,1,76.4999955196382
196,125,139264,2,0,B|180:157|180:157|188:229,1,76.4999955196382
332,212,139681,1,0,0:0:0:0:
208,276,139889,1,0,0:0:0:0:
196,125,140097,5,0,0:0:0:0:
246,200,140306,1,0,0:0:0:0:
292,117,140514,1,0,0:0:0:0:
208,276,140722,6,0,B|240:300|284:280|284:280|328:268|382:301,1,152.999991039276,2|0,0:0|0:0,0:0:0:0:
492,300,141347,2,0,P|498:254|482:210,1,76.4999955196382
397,130,141764,2,0,P|391:176|407:220,1,76.4999955196382
502,141,142181,1,0,0:0:0:0:
476,28,142389,2,0,L|392:36,1,76.4999955196382,2|0,0:0|0:0,0:0:0:0:
312,48,142806,1,0,0:0:0:0:
200,76,143014,6,0,P|158:146|188:212,1,152.999991039276
244,152,143639,1,0,0:0:0:0:
39,172,143847,2,0,B|73:200|73:200|203:208,1,152.999991039276,2|0,0:0|0:0,0:0:0:0:
264,236,144472,2,0,L|260:316,1,76.4999955196382
116,324,144889,2,0,P|152:296|196:296,1,76.4999955196382
260,312,145306,1,0,0:0:0:0:
204,368,145514,1,0,0:0:0:0:
192,220,145722,6,0,B|264:196|264:196|354:219,1,152.999991039276,2|0,0:0|0:0,0:0:0:0:
492,264,146347,1,0,0:0:0:0:
344,336,146556,1,0,0:0:0:0:
344,160,146764,5,0,0:0:0:0:
416,300,146972,1,0,0:0:0:0:
464,160,147181,1,0,0:0:0:0:
256,160,147389,5,2,0:0:0:0:
318,349,147806,1,0,0:0:0:0:
379,141,148222,1,0,0:0:0:0:
187,242,148639,1,0,0:0:0:0:
400,279,149056,1,2,0:0:0:0:
222,154,149472,1,0,0:0:0:0:
267,365,149889,1,0,0:0:0:0:
222,154,150306,2,0,B|275:136|324:145|324:145|281:99,1,127.50000128746,0|2,0:0|0:0,0:0:0:0:
88,109,151139,5,0,0:0:0:0:
280,9,151556,1,0,0:0:0:0:
230,219,151972,1,0,0:0:0:0:
13,222,152389,1,2,0:0:0:0:
198,335,152806,1,0,0:0:0:0:
83,151,153222,1,0,0:0:0:0:
288,219,153639,1,0,0:0:0:0:
92,312,154056,5,2,0:0:0:0:
185,271,154472,1,0,0:0:0:0:
264,335,154889,1,0,0:0:0:0:
365,347,155306,1,0,0:0:0:0:
432,270,155722,1,2,0:0:0:0:
382,180,156139,1,0,0:0:0:0:
281,198,156556,1,0,0:0:0:0:
277,299,156972,1,0,0:0:0:0:
256,192,157077,12,14,159056,0:0:0:0:
384,96,160722,5,10,0:0:0:0:
304,176,160931,1,8,0:0:0:0:
304,48,161139,1,8,0:0:0:0:
384,176,161347,1,8,0:0:0:0:
224,176,161556,1,10,0:2:0:0:
384,96,161764,1,8,0:0:0:0:
352,256,161972,1,8,0:0:0:0:
240,96,162181,1,8,0:0:0:0:
304,176,162389,5,10,0:0:0:0:
112,128,162597,1,8,0:0:0:0:
208,224,162806,1,8,0:0:0:0:
192,32,163014,1,8,0:0:0:0:
288,96,163222,2,0,P|312:136|296:198,1,84.9999976158143,10|8,0:2|0:0,0:0:0:0:
256,288,163639,1,8,0:0:0:0:
141,174,163847,1,8,0:0:0:0:
114,324,164056,5,10,0:0:0:0:
256,288,164264,1,8,0:0:0:0:
112,224,164472,1,8,0:0:0:0:
256,192,164681,1,8,0:0:0:0:
192,336,164889,1,10,0:2:0:0:
176,144,165097,1,8,0:0:0:0:
288,304,165306,1,8,0:0:0:0:
96,320,165514,1,8,0:2:0:0:
272,160,165722,5,10,0:0:0:0:
232,376,165931,1,8,0:2:0:0:
128,160,166139,1,8,0:0:0:0:
304,320,166347,1,8,0:0:0:0:
248,80,166556,1,10,0:2:0:0:
144,312,166764,1,12,0:0:0:0:
304,320,167389,6,0,B|352:304|371:284|392:240|399:172|399:172|400:304|430:320,1,339.999990463257,2|10,2:0|0:2,0:0:0:0:
448,344,168431,1,8,0:0:0:0:
352,272,168639,1,8,0:0:0:0:
488,272,168847,1,8,0:0:0:0:
352,176,169056,1,10,0:0:0:0:
368,352,169264,1,8,0:2:0:0:
248,264,169472,1,8,0:0:0:0:
464,304,169681,1,8,0:0:0:0:
428,128,169889,6,0,B|365:173|346:228|346:228|328:192|274:182|274:182|336:224|328:301,1,339.999990463257,10|2,0:2|0:0,0:0:0:0:
254,321,170931,2,0,P|286:361|336:369,1,84.9999976158143,8|8,0:0|0:0,0:0:0:0:
414,322,171347,2,0,B|430:290|430:290|431:239,1,84.9999976158143,8|10,0:0|0:2,0:0:0:0:
428,128,171764,1,8,0:0:0:0:
340,60,171972,1,8,0:0:0:0:
304,172,172181,1,0,0:0:0:0:
304,172,172389,6,0,B|308:219|308:219|299:260|299:260|303:304,1,127.499996423721,8|8,0:0|0:0,0:0:0:0:
309,329,172806,1,0,0:0:0:0:
181,186,173014,1,8,0:0:0:0:
422,150,173222,1,10,0:2:0:0:
238,262,173431,1,8,0:0:0:0:
256,80,174056,5,10,0:0:0:0:
128,208,174264,1,8,0:0:0:0:
169,26,174472,1,8,0:0:0:0:
224,192,174681,1,8,0:0:0:0:
96,64,174889,1,10,0:2:0:0:
128,208,175097,1,8,0:0:0:0:
256,80,175306,1,8,0:0:0:0:
64,144,175514,1,8,0:0:0:0:
248,0,175722,5,10,0:0:0:0:
224,192,175931,1,8,0:0:0:0:
96,64,176139,1,8,0:0:0:0:
324,158,176347,5,8,0:0:0:0:
128,224,176556,1,10,0:2:0:0:
160,0,176764,1,8,0:0:0:0:
336,168,176972,1,8,0:0:0:0:
168,112,177181,1,8,0:0:0:0:
320,16,177389,6,0,P|400:72|431:162,1,191.250001931191,14|8,0:0|0:0,0:0:0:0:
476,244,178222,2,0,B|420:264|372:226|372:226|328:192|264:232,1,220.999983684541,10|8,0:2|0:0,0:0:0:0:
163,241,178847,6,0,P|163:329|211:233,1,288.999997406006,8|8,0:0|0:0,0:0:0:0:
149,146,179472,1,8,0:0:0:0:
281,298,179681,1,8,0:0:0:0:
224,32,179889,1,12,0:2:0:0:
149,146,180722,6,0,L|153:242,1,84.9999976158143,10|0,0:0|0:0,0:0:0:0:
300,272,181139,2,0,L|296:187,1,84.9999976158143
80,256,181556,5,10,0:2:0:0:
176,368,181764,1,8,0:0:0:0:
224,232,181972,1,8,0:0:0:0:
96,344,182181,1,8,0:0:0:0:
144,200,182389,5,10,0:0:0:0:
240,320,182597,1,8,0:0:0:0:
64,168,182806,1,8,0:0:0:0:
160,288,183014,1,8,0:0:0:0:
192,88,183222,5,10,0:2:0:0:
224,232,183431,1,8,0:0:0:0:
144,16,183639,1,8,0:0:0:0:
160,288,183847,1,8,0:0:0:0:
232,8,184056,1,10,0:0:0:0:
64,168,184264,1,8,0:0:0:0:
304,184,184472,1,8,0:0:0:0:
80,72,184681,1,8,0:0:0:0:
224,232,184889,5,10,0:2:0:0:
144,16,185097,1,8,0:2:0:0:
355,70,185306,1,8,0:0:0:0:
160,168,185514,1,8,0:2:0:0:
360,284,185722,1,10,0:2:0:0:
250,81,185931,1,8,0:0:0:0:
272,320,186139,1,8,0:0:0:0:
248,48,186347,1,8,0:2:0:0:
248,48,186452,5,8,0:2:0:0:
248,48,186556,1,8,0:2:0:0:
272,340,186764,1,8,0:0:0:0:
135,92,186972,1,8,0:0:0:0:
430,221,187181,1,8,0:0:0:0:
152,316,187389,6,0,L|161:208,1,84.9999976158143,14|8,0:2|0:0,0:0:0:0:
344,216,187806,2,0,L|334:323,1,84.9999976158143,0|8,0:2|0:0,0:0:0:0:
304,136,188222,2,0,P|352:132|408:156,1,84.9999976158143,10|8,0:2|0:0,0:0:0:0:
242,237,188639,2,0,P|194:241|138:217,1,84.9999976158143,0|8,0:2|0:0,0:0:0:0:
156,116,189056,5,14,0:2:0:0:
242,237,189264,1,8,0:0:0:0:
256,120,189472,1,8,0:0:0:0:
112,184,189681,2,0,P|77:148|73:116,1,84.9999976158143,8|10,0:0|0:2,0:0:0:0:
134,33,190097,2,0,B|185:21|185:21|254:36,1,84.9999976158143
256,120,190514,1,8,0:0:0:0:
162,108,190722,2,0,B|156:138|173:156|173:156|179:169|179:169|165:200|165:200|179:223|179:223|168:253|168:253|180:279|154:286|160:318|175:359,1,255.000002574921,14|10,0:2|0:2,0:0:0:0:
170,347,191764,1,8,0:0:0:0:
320,280,191972,5,8,0:0:0:0:
216,184,192181,1,8,0:0:0:0:
275,319,192389,2,0,B|304:322|319:277|319:277|320:346|360:362|360:362|384:378|352:314|370:284|414:293,1,255.000002574921,14|10,0:2|0:2,0:0:0:0:
269,180,193431,2,8,B|220:156|220:156|243:239,1,127.50000128746
384,129,194056,2,8,B|360:81|344:49|296:33|256:33|256:33|320:113|320:113,1,255.000002574921,14|14,0:2|0:2,0:0:0:0:
301,119,195097,1,8,0:0:0:0:
216,32,195306,1,8,0:0:0:0:
208,152,195514,5,8,0:0:0:0:
296,40,195722,1,10,0:2:0:0:
160,88,195931,1,8,0:0:0:0:
312,144,196139,1,8,0:0:0:0:
192,176,196347,1,8,0:0:0:0:
296,40,196556,2,8,B|221:-15|168:31|168:31|116:69|54:34,1,255.000002574921,10|10,0:0|0:2,0:0:0:0:
72,152,197597,1,8,0:0:0:0:
97,275,197806,2,8,P|129:235|137:195,1,63.7500006437302
228,90,198222,6,8,B|180:90|164:114|86:118|86:118|176:152|216:208,1,297.49999165535,10|8,0:2|0:0,0:0:0:0:
211,201,199056,2,8,P|311:232|199:257,1,297.49999165535,0|8,0:2|0:0,0:0:0:0:
211,201,199889,2,8,B|363:134|334:296|506:205,1,297.49999165535,10|8,0:2|0:0,0:0:0:0:
472,240,200722,2,8,L|489:46,1,191.250001931191,14|8,0:0|0:0,0:0:0:0:
376,32,201556,1,10,0:2:0:0:
312,112,201764,1,8,0:0:0:0:
197,85,201972,2,8,L|131:85,1,63.7500006437302
265,1,202389,2,8,P|297:57|249:177,1,191.250001931191,10|8,0:2|0:0,0:0:0:0:
228,268,203222,5,10,0:2:0:0:
367,322,203431,2,8,B|389:286|389:286|349:266|305:286,1,127.50000128746
160,320,204056,5,14,0:2:0:0:
208,160,204264,1,8,0:0:0:0:
306,285,204472,1,8,0:0:0:0:
288,136,204681,1,8,0:0:0:0:
144,216,204889,5,14,0:2:0:0:
306,285,205097,1,8,0:0:0:0:
164,92,205306,1,8,0:0:0:0:
224,320,205514,1,8,0:0:0:0:
240,72,205722,1,14,0:2:0:0:
348,356,205931,1,8,0:0:0:0:
164,92,206139,1,8,0:0:0:0:
420,316,206347,1,8,0:0:0:0:
420,316,206452,5,10,0:0:0:0:
420,316,206556,1,14,0:2:0:0:
121,320,206764,1,8,0:0:0:0:
446,203,206972,1,8,0:0:0:0:
180,16,207181,1,8,0:0:0:0:
349,280,207389,6,0,B|400:201|270:200|299:134|299:134|354:159|394:149|420:120|425:70|403:37|360:24|321:44|317:83,1,407.999976104737,14|10,0:2|0:2,0:0:0:0:
458,158,208431,2,8,P|475:118|470:60,1,101.999994026184,8|8,0:1|0:1,0:0:0:0:
385,25,208847,1,8,0:2:0:0:
299,60,209056,2,8,B|252:92|252:92|285:132,1,101.999994026184,8|8,0:1|0:2,0:0:0:0:
308,219,209472,2,8,B|279:175|279:175|281:100,1,101.999994026184
345,60,209889,6,8,P|245:34|199:167,1,203.999988052369,8|8,0:2|0:0,0:0:0:0:
196,198,210514,1,8,0:0:0:0:
266,256,210722,2,8,B|286:314|286:314|129:289,1,203.999988052369
112,208,211347,1,8,0:0:0:0:
138,68,211556,6,8,P|135:169|218:216,1,203.999988052369,8|8,0:2|0:0,0:0:0:0:
264,294,212181,2,8,L|303:200,1,101.999994026184,8|8,0:2|0:0,0:0:0:0:
254,119,212597,2,8,P|289:145|303:200,1,101.999994026184,8|8,0:2|0:0,0:2:0:0:
264,294,213014,1,8,0:0:0:0:
352,160,213222,1,8,0:2:0:0:
206,167,213431,6,8,P|247:177|334:49,1,203.999988052369,10|8,0:0|0:0,0:0:0:0:
201,57,214056,2,0,L|282:76,1,56.6666650772095
395,57,214334,2,0,L|314:76,1,56.6666650772095
206,167,214611,2,0,L|287:186,1,56.6666650772095
464,180,214889,6,8,B|440:136|464:100|464:100|488:60|464:20,1,169.999995231629,8|8,0:2|0:0,0:0:0:0:
395,57,215514,1,8,0:2:0:0:
316,122,215722,1,8,0:0:0:0:
296,20,215931,1,8,0:2:0:0:
289,180,216139,2,8,B|253:103|345:101|291:12,1,169.999995231629,8|8,0:0|0:2,0:0:0:0:
137,63,216764,2,8,L|247:66,1,84.9999976158143
289,180,217181,1,8,0:0:0:0:
288,320,217389,6,8,B|304:288|336:256|336:256|272:272|208:240,1,169.999995231629
96,272,218014,2,8,P|133:331|181:347,1,84.9999976158143,8|8,0:0|0:2,0:0:0:0:
264,344,218431,1,8,0:0:0:0:
111,157,218639,1,8,0:0:0:0:
312,265,218847,6,8,L|219:263,1,84.9999976158143,8|8,0:2|0:0,0:0:0:0:
96,272,219264,1,8,0:2:0:0:
270,197,219472,1,8,0:0:0:0:
235,355,219681,1,8,0:0:0:0:
48,264,219889,1,8,0:2:0:0:
295,156,220097,1,12,0:0:0:0:
248,80,220722,6,8,B|213:106|213:106|190:148|200:192|200:192|192:224|192:224|224:224|224:224|262:260|326:244|326:244|350:220,1,331.499975526811,10|8,0:2|0:0,0:0:0:0:
228,49,221556,6,8,P|392:57|354:255,1,382.500003862381,8|8,0:2|0:0,0:0:0:0:
244,356,222389,6,8,P|193:340|165:301,1,84.9999976158143,8|8,0:0|0:2,0:0:0:0:
74,155,222806,1,8,0:0:0:0:
201,183,223014,1,8,0:0:0:0:
45,298,223222,6,8,P|159:300|196:171,1,254.999992847443,8|8,0:2|0:0,0:0:0:0:
74,155,224056,2,8,B|98:163|117:154|117:154|141:163|141:163|164:154|164:154|183:163|183:163|202:154|202:154|221:163|221:163|240:154|240:154|259:163|259:163|277:154|277:154|300:163|300:163|324:163,1,255.000002574921,8|8,0:0|0:2,0:0:0:0:
479,154,225097,2,0,L|390:165,1,84.9999976158143
324,236,225514,2,0,L|408:246,1,84.9999976158143
488,320,225931,2,0,L|399:331,1,84.9999976158143,8|0,0:2|0:0,0:0:0:0:
312,152,226347,5,8,0:0:0:0:
332,328,226556,1,8,0:2:0:0:
485,226,226764,1,8,0:0:0:0:
324,236,226972,2,8,B|235:272|260:371,1,127.499996423721
339,371,227389,6,8,B|208:392|224:296|73:366,1,254.999992847443,8|0,0:0|0:0,0:0:0:0:
35,220,228222,2,8,L|136:222,1,84.9999976158143,8|0,0:2|0:0,0:2:0:0:
368,144,228639,2,0,P|330:125|288:128,1,84.9999976158143
240,312,229056,2,0,P|275:289|292:250,1,84.9999976158143,0|8,0:0|0:2,0:3:0:0:
168,120,229472,2,0,P|170:161|194:196,1,84.9999976158143
226,28,229889,1,8,0:2:0:0:
343,165,230097,1,0,0:0:0:0:
367,46,230306,1,0,0:0:0:0:
216,147,230514,1,0,0:0:0:0:
396,32,230722,6,8,B|383:94|383:94|429:131|429:131|410:172|410:172|438:217|438:217|401:268|397:295|397:295|401:345,1,339.999990463257,14|12,0:2|0:2,0:0:0:0:
490,314,231764,1,8,0:0:0:0:
320,230,231972,2,8,L|233:229,1,84.9999976158143,8|8,0:0|0:2,0:0:0:0:
473,200,232389,1,8,0:0:0:0:
378,96,232597,1,8,0:2:0:0:
320,230,232806,1,8,0:0:0:0:
460,288,233014,1,8,0:0:0:0:
316,142,233222,5,8,0:2:0:0:
364,308,233431,1,8,0:0:0:0:
473,200,233639,1,8,0:0:0:0:
280,304,233847,1,8,0:0:0:0:
378,96,234056,6,8,P|507:202|441:344,1,339.999990463257,14|8,0:0|0:2,0:0:0:0:
308,228,235097,2,8,L|394:226,1,84.9999976158143
480,220,235514,1,8,0:2:0:0:
285,129,235722,2,8,B|232:161|232:161|225:275,1,169.999995231629,10|8,0:0|0:0,0:0:0:0:
160,340,236347,2,8,B|216:388|274:355|274:355|348:312|404:375,1,254.999992847443
472,280,237181,1,8,0:0:0:0:
345,203,237389,6,8,L|257:201,1,84.9999976158143,10|10,0:0|0:2,0:0:0:0:
117,124,237806,1,8,0:0:0:0:
225,275,238014,1,8,0:0:0:0:
230,58,238222,5,10,0:2:0:0:
118,232,238431,1,8,0:0:0:0:
280,183,238639,1,8,0:0:0:0:
112,95,238847,5,10,0:2:0:0:
176,271,239056,1,10,0:0:0:0:
288,111,239264,1,8,0:0:0:0:
160,192,239472,5,8,0:0:0:0:
232,256,239681,1,8,0:0:0:0:
328,232,239889,1,10,0:0:0:0:
400,296,240097,1,8,0:0:0:0:
342,369,240306,1,8,0:0:0:0:
254,337,240514,1,8,0:0:0:0:
166,368,240722,1,12,0:0:0:0:
129,96,254056,5,14,0:0:0:0:
239,244,254889,5,8,0:0:0:0:
220,44,255722,5,10,0:0:0:0:
86,191,256556,5,8,0:0:0:0:
303,150,257389,5,10,0:0:0:0:
155,315,258222,5,10,0:0:0:0:
252,43,259056,5,10,0:2:0:0:
81,225,259681,1,0,0:0:0:0:
344,306,259889,5,10,0:2:0:0:
252,24,260097,1,14,0:0:0:0:
76,247,260722,6,0,B|142:207|200:224|268:262|268:262|345:249|370:201|379:157|351:113|308:86|271:97|239:117|220:153|248:169,1,510.000005149842
256,192,264056,12,14,266556,0:0:0:0:
240,251,267389,5,10,0:0:0:0:
353,76,267597,1,8,0:0:0:0:
405,220,267806,1,10,0:0:0:0:
234,122,268014,1,8,0:0:0:0:
254,291,268222,1,10,0:2:0:0:
328,180,268431,1,8,0:0:0:0:
383,335,268639,1,10,0:0:0:0:
237,300,268847,1,8,0:0:0:0:
446,228,269056,5,10,0:0:0:0:
301,101,269264,1,8,0:0:0:0:
382,363,269472,1,10,0:0:0:0:
428,137,269681,1,8,0:0:0:0:
237,219,269889,1,8,0:2:0:0:
473,319,270097,1,8,0:0:0:0:
328,101,270306,1,10,0:0:0:0:
240,304,270514,6,0,B|313:310|313:310|368:288,1,110.49999184227,0|10,0:0|0:0,0:0:0:0:
454,180,270931,1,0,0:0:0:0:
347,296,271139,1,10,0:0:0:0:
360,104,271347,2,0,P|322:59|260:44,1,110.49999184227,8|10,0:0|0:2,0:0:0:0:
125,56,271764,6,0,B|144:17|200:-13|200:-13|176:64|202:113,1,220.999983684541,10|10,0:0|0:2,0:0:0:0:
296,224,272389,1,10,0:0:0:0:
296,104,272597,1,8,0:2:0:0:
202,322,272806,1,0,0:0:0:0:
394,305,273014,1,0,0:0:0:0:
205,172,273222,1,8,0:2:0:0:
328,352,273431,1,12,0:2:0:0:
121,258,273639,2,0,L|233:242,1,110.49999184227
264,272,274056,5,2,0:0:0:0:
248,160,274264,1,0,0:0:0:0:
350,224,274472,2,0,P|361:279|342:331,1,110.49999184227,10|8,0:0|0:0,0:0:0:0:
230,242,274889,2,0,B|186:198|186:198|186:31,1,220.999983684541,10|10,0:2|0:0,0:0:0:0:
378,126,275514,2,0,L|266:127,1,110.49999184227,8|10,0:0|0:0,0:0:0:0:
107,118,275931,1,8,0:2:0:0:
224,200,276139,1,8,0:0:0:0:
224,80,276347,1,8,0:0:0:0:
128,216,276556,1,8,0:2:0:0:
264,168,276764,6,0,B|269:230|269:230|226:200,1,110.49999184227
176,144,277181,1,0,0:0:0:0:
141,7,277389,2,0,B|36:51|44:192,2,220.999983684541,0|0|10,0:0|0:0|0:2,0:0:0:0:
288,64,278431,2,0,B|216:64|176:104|176:104|208:144|184:200,1,220.999983684541,8|8,0:0|0:2,0:0:0:0:
192,272,279056,1,0,0:0:0:0:
360,176,279264,1,8,0:2:0:0:
176,104,279472,1,0,0:0:0:0:
328,320,279681,1,0,0:0:0:0:
320,88,279889,5,8,0:2:0:0:
160,320,280097,1,6,0:0:0:0:
256,136,280306,1,0,0:0:0:0:
248,368,280514,1,0,0:0:0:0:
85,93,280722,6,0,B|130:102|157:93|184:66|193:48|282:30|282:30|216:64|152:96|176:184|184:232,1,441.999967369081,2|8,0:0|0:2,0:0:0:0:
197,315,281764,1,8,0:0:0:0:
299,155,281972,1,10,0:0:0:0:
362,337,282181,1,8,0:0:0:0:
188,222,282389,5,10,0:0:0:0:
276,344,282597,1,8,0:0:0:0:
314,205,282806,1,8,0:0:0:0:
312,352,283014,1,8,0:0:0:0:
172,245,283222,1,10,0:2:0:0:
367,279,283431,1,8,0:0:0:0:
226,116,283639,1,8,0:0:0:0:
144,336,283847,1,8,0:0:0:0:
381,320,284056,6,0,P|430:275|364:289,1,169.999995231629,8|8,0:0|0:0,0:0:0:0:
274,314,284681,1,8,0:0:0:0:
274,314,284889,6,0,B|260:277|288:233|288:233|311:227|322:194|322:194|326:146|294:119|258:123,1,203.999988052369,10|8,0:2|0:0,0:0:0:0:
218,202,285514,1,8,0:0:0:0:
301,136,285722,2,0,B|224:127|224:127|196:76|139:69|78:95|78:95|79:121|98:143,1,276.249979605676,10|0,0:0|0:0,0:0:0:0:
88,151,286347,1,8,0:0:0:0:
392,228,286556,1,10,0:2:0:0:
128,320,286764,1,14,0:0:0:0:
384,128,287389,5,10,0:0:0:0:
320,224,287597,1,8,0:0:0:0:
256,128,287806,1,8,0:0:0:0:
192,224,288014,1,8,0:0:0:0:
64,64,288222,1,10,0:2:0:0:
128,320,288431,1,8,0:0:0:0:
128,144,288639,1,8,0:0:0:0:
256,320,288847,1,8,0:0:0:0:
256,128,289056,5,10,0:0:0:0:
80,224,289264,1,8,0:0:0:0:
192,48,289472,1,8,0:0:0:0:
336,288,289681,1,8,0:0:0:0:
256,128,289889,1,10,0:2:0:0:
320,368,290097,1,8,0:0:0:0:
352,128,290306,1,8,0:0:0:0:
80,224,290514,1,8,0:0:0:0:
384,208,290722,5,10,0:0:0:0:
80,96,290931,1,8,0:2:0:0:
215,321,291139,1,8,0:0:0:0:
320,0,291347,1,8,0:0:0:0:
416,304,291556,1,10,0:2:0:0:
160,176,291764,1,8,0:0:0:0:
480,224,291972,1,8,0:0:0:0:
128,320,292181,1,8,0:2:0:0:
224,0,292389,5,10,0:2:0:0:
384,208,292597,1,0,0:2:0:0:
64,192,292806,1,8,0:0:0:0:
416,48,293014,1,8,0:2:0:0:
416,48,293118,1,8,0:2:0:0:
416,48,293222,5,10,0:2:0:0:
288,368,293431,1,8,0:2:0:0:
128,0,293639,1,10,0:2:0:0:
480,224,293847,1,8,0:0:0:0:
82,271,294056,2,0,B|48:220|56:180|86:143|86:143|156:152|186:210|171:291|171:291|232:245|280:220|328:212|366:250|366:250|423:315|378:381|269:385|243:309|293:258|296:200|296:200|334:83|323:-22|230:2|147:54|107:110|194:191|267:208|378:186|372:95|420:37|416:-4|416:-4|460:23|458:66|458:66|408:112|413:183|462:225|488:225,1,1767.99986947633,14|14,3:2|3:2,3:0:0:0:
256,192,297493,12,14,300722,0:2:0:0:
130,347,300931,6,0,L|245:350,1,110.49999184227
328,344,301347,1,0,0:0:0:0:
416,346,301556,2,0,P|432:280|415:234,1,110.49999184227,8|0,0:2|0:0,0:0:0:0:
252,247,301972,1,0,0:0:0:0:
366,173,302181,1,0,0:0:0:0:
376,320,302389,1,0,0:0:0:0:
272,160,302597,1,8,0:2:0:0:
248,320,302806,1,0,0:0:0:0:
264,152,303014,1,0,0:0:0:0:
440,232,303222,6,0,B|497:212|497:212|420:184|430:107|430:107|392:128|372:192|372:192|372:145|360:92|334:59|276:59|276:59,1,441.999967369081,10|10,0:2|0:0,0:0:0:0:
264,152,304264,5,0,0:0:0:0:
122,45,304472,2,0,B|83:91|83:91|74:149,1,110.49999184227
109,234,304889,1,10,0:2:0:0:
185,170,305097,2,0,P|205:241|194:296,1,110.49999184227
171,356,305514,2,0,P|234:384|286:382,1,110.49999184227,0|10,0:0|0:2,0:0:0:0:
200,276,305931,2,0,P|306:293|324:187,1,220.999983684541
282,115,306556,1,10,0:2:0:0:
251,209,306764,1,0,0:0:0:0:
179,120,306972,6,0,B|113:185|113:185|101:322,1,220.999983684541
169,373,307597,2,0,P|220:365|252:312,1,110.49999184227
207,216,308014,2,0,B|279:214|279:214|335:256,1,110.49999184227,0|8,0:0|0:2,0:0:0:0:
361,335,308431,1,0,0:0:0:0:
280,140,308639,1,0,0:0:0:0:
168,296,308847,1,8,0:0:0:0:
136,304,308952,1,8,0:0:0:0:
101,299,309056,6,0,L|101:181,1,110.49999184227,0|8,0:0|0:2,0:0:0:0:
192,136,309472,1,0,0:0:0:0:
288,216,309681,1,0,0:0:0:0:
305,107,309889,2,0,P|263:73|276:103,1,110.49999184227,8|0,0:2|0:0,0:0:0:0:
88,134,310306,2,0,P|140:151|193:134,1,110.49999184227
317,57,310722,6,0,B|277:49|261:25|253:-7|253:-7|125:9,1,220.999983684541,0|0,0:0|0:0,0:0:0:0:
73,65,311347,1,0,0:0:0:0:
69,153,311556,2,0,B|68:224|68:224|93:281,1,110.49999184227,10|0,0:2|0:0,0:0:0:0:
178,202,311972,2,0,B|179:131|179:131|154:74,1,110.49999184227,8|0,0:0|0:0,0:0:0:0:
83,260,312389,6,0,B|96:314|96:314|155:348|155:348,1,110.49999184227,0|10,0:0|0:2,0:0:0:0:
252,336,312806,1,0,0:0:0:0:
178,202,313014,1,0,0:0:0:0:
318,252,313222,2,0,P|335:192|329:146,1,110.49999184227,10|0,0:2|0:0,0:0:0:0:
248,104,313639,1,0,0:0:0:0:
411,115,313847,1,0,0:0:0:0:
431,119,313952,1,0,0:0:0:0:
450,123,314056,6,0,B|450:180|450:180|478:286|450:228|421:286|421:286|488:324|459:363|459:363|334:295|354:420|277:372|277:372,1,441.999967369081,14|10,0:2|0:2,0:0:0:0:
179,281,315097,2,0,P|235:265|283:279,1,110.49999184227
209,375,315514,2,0,P|153:391|105:377,1,110.49999184227
69,281,315931,2,0,L|183:281,1,110.49999184227,10|0,0:2|0:0,0:0:0:0:
348,246,316347,1,0,0:0:0:0:
348,246,316556,2,0,P|324:177|276:143,1,110.49999184227,8|0,0:2|0:0,0:0:0:0:
224,48,316972,2,0,P|298:25|349:46,1,110.49999184227
240,272,317389,5,8,0:2:0:0:
288,96,317597,1,8,0:0:0:0:
326,312,317806,1,8,0:0:0:0:
200,128,318014,1,8,0:0:0:0:
396,243,318222,1,8,0:2:0:0:
216,40,318431,1,8,0:0:0:0:
248,368,318639,1,8,0:0:0:0:
288,96,318847,1,12,0:3:0:0:
326,312,319056,5,14,0:3:0:0:
200,128,319264,1,12,0:3:0:0:
248,368,319472,1,12,0:3:0:0:
368,64,319681,1,12,0:3:0:0:
176,312,319889,1,14,0:3:0:0:
296,8,320097,1,12,0:3:0:0:
360,336,320306,1,12,0:3:0:0:
360,336,320410,1,8,0:0:0:0:
365,340,320514,1,8,0:0:0:0:
136,141,320722,6,0,B|210:133|274:65|274:65|219:146|224:165|212:191|232:208|232:208|240:192|256:168|283:164|310:164|328:173|352:200|352:224|360:256|342:264|337:282|320:296|310:300|301:300|283:300|265:300|246:300|240:248|176:224|129:282|129:282|129:237|111:164|44:155|-14:182|-41:237|-23:291|3:327|44:336|102:314|102:314|129:372|129:372|174:336|219:363,1,1274.99996423721,14|8,0:0|0:0,0:0:0:0:
44,109,327389,6,0,B|75:128|138:133|175:88|175:88|271:91|323:133|336:209|295:243|239:239|222:218|207:179|234:142|234:142|344:116|350:41|350:41|396:124|391:188|352:264|352:264|319:278|301:292|281:339|281:339|258:276|207:308|158:272|149:199|149:199|114:228|82:225|52:206|52:206,1,1274.99996423721,2|8,0:0|0:0,0:0:0:0:
71,215,334056,6,0,B|99:255|151:260|202:248|231:199|223:151|223:151|295:159|263:251|263:251|323:199|323:199|431:175|439:239|415:287|375:303|323:291|291:251|315:147|371:127|371:127|435:131|465:163|481:207|481:207|488:226|502:344|363:379|295:323|295:323|286:342|291:375,1,1274.99996423721
138,160,340722,5,4,0:0:0:0:
256,192,340827,12,4,347389,0:0:0:0:
