osu file format v14

[General]
AudioFilename: audio.mp3
AudioLeadIn: 0
PreviewTime: 64287
Countdown: 1
SampleSet: Soft
StackLeniency: 0.4
Mode: 0
LetterboxInBreaks: 0
EpilepsyWarning: 1
WidescreenStoryboard: 1

[Editor]
DistanceSpacing: 2
BeatDivisor: 4
GridSize: 4
TimelineZoom: 0.9

[Metadata]
Title:All Alone With You
TitleUnicode:All Alone With You
Artist:EGOIST
ArtistUnicode:EGOIST
Creator:BlaumacherXY
Version:Alone
Source:
Tags:
BeatmapID:1012648
BeatmapSetID:473318

[Difficulty]
HPDrainRate:6
CircleSize:4
OverallDifficulty:8
ApproachRate:9
SliderMultiplier:3.5
SliderTickRate:2

[Events]
//Background and Video events
0,0,"Anime_Megapolis_anime_Psycho-Pass_104322_.jpg",0,0
//Break Periods
2,98445,106395
//Storyboard Layer 0 (Background)
//Storyboard Layer 1 (Fail)
//Storyboard Layer 2 (Pass)
//Storyboard Layer 3 (Foreground)
//Storyboard Sound Samples

[TimingPoints]
954,833.333333333333,4,2,1,35,1,0
10953,-133.333333333333,4,2,1,35,0,0
13245,-100,4,2,1,35,0,0
14808,-125,4,2,1,35,0,0
15433,-100,4,2,1,35,0,0
15849,-142.857142857143,4,2,1,35,0,0
18870,-133.333333333333,4,2,1,35,0,0
41683,-100,4,2,1,35,0,0
64183,-66.6666666666667,4,2,1,35,0,0
67620,-66.6666666666667,4,1,1,80,0,1
80953,-100,4,1,1,80,0,1
81787,-66.6666666666667,4,1,1,80,0,1
94287,-100,4,1,1,50,0,0
94808,-166.666666666667,4,2,1,35,0,0
100849,-100,4,2,1,40,0,0
137412,-83.3333333333333,4,2,1,40,0,0
160849,-83.3333333333333,4,2,1,80,0,1
204183,-83.3333333333333,4,1,1,80,0,1
210120,-58.8235294117647,4,1,1,80,0,1
210953,-58.8235294117647,4,1,1,80,0,0
212308,-66.6666666666667,4,1,1,80,0,0
224183,-76.9230769230769,4,1,1,80,0,0
240884,-200,4,1,1,40,0,0
259078,-79.9999999999999,4,1,1,40,0,0
260745,-100,4,1,1,40,0,0
267620,-66.6666666666667,4,1,1,80,0,1
294287,-133.333333333333,4,2,1,80,0,1
303662,-200,4,2,1,80,0,1
304287,-133.333333333333,4,2,1,80,0,1
320953,-100,4,2,1,80,0,0

[HitObjects]
46,231,954,5,2,0:0:0:0:
171,174,1162,1,0,0:0:0:0:
85,105,1370,1,0,0:0:0:0:
127,207,1578,2,8,L|167:295,1,87.5
164,287,1995,6,0,L|258:243,1,87.5
362,193,2412,1,2,0:0:0:0:
226,186,2620,1,0,0:0:0:0:
296,305,2828,1,0,0:0:0:0:
362,193,3037,1,8,0:0:0:0:
362,193,3245,6,0,B|312:193|312:193|341:150,1,87.5
340,124,3662,2,8,B|362:78|362:78|322:73,1,87.5
41,40,4287,5,0,0:0:0:0:
85,181,4495,1,0,0:0:0:0:
144,44,4703,1,0,0:0:0:0:
144,44,4808,1,0,0:0:0:0:
144,44,4912,2,8,B|202:83|202:83|36:228,1,262.5
205,304,5953,6,0,B|133:272|133:272|290:130,2,262.5
435,46,7620,5,0,0:0:0:0:
280,48,7828,1,0,0:0:0:0:
280,176,8037,1,0,0:0:0:0:
435,46,8245,1,8,0:0:0:0:
192,223,8870,1,0,0:0:0:0:
192,223,9287,5,0,0:0:0:0:
49,177,9495,1,0,0:0:0:0:
53,318,9703,1,0,0:0:0:0:
49,177,9912,2,8,B|70:120|70:120|101:169|105:177,1,87.5
160,256,10328,1,0,0:0:0:0:
48,338,10953,6,0,P|51:203|100:82,1,262.500010013581
203,41,11995,1,0,0:0:0:0:
207,45,12203,2,0,B|272:49|294:54|229:133|193:169|216:255|243:280,1,262.500010013581
254,294,13453,6,0,P|300:317|408:240,1,175
289,188,14078,1,0,0:0:0:0:
386,100,14287,1,0,0:0:0:0:
358,228,14495,2,0,P|335:271|294:280,1,87.5
156,264,14912,2,8,P|104:248|56:176,1,140
136,332,15537,2,0,P|72:316|40:280,1,87.5
48,185,15953,6,0,P|102:242|169:243,1,122.499996261597
48,185,16578,1,0,0:0:0:0:
200,240,16787,2,8,P|284:236|332:204,1,122.499996261597
398,83,17412,5,0,0:0:0:0:
292,148,17620,1,0,0:0:0:0:
472,188,17828,1,0,0:0:0:0:
308,288,18037,1,0,0:0:0:0:
312,292,18245,1,8,0:0:0:0:
464,44,18662,1,0,0:0:0:0:
404,64,19078,6,0,L|328:79,1,65.6250025033952
212,104,19495,1,0,0:0:0:0:
84,132,19703,2,8,L|157:117,2,65.6250025033952
89,271,20328,6,0,L|135:265,1,32.8125012516976
197,88,20537,2,0,L|136:99,1,32.8125012516976
101,108,20953,5,2,0:0:0:0:
347,198,21370,1,0,0:0:0:0:
221,247,21578,1,2,0:0:0:0:
455,96,21995,1,0,0:0:0:0:
263,275,22412,1,2,0:0:0:0:
58,111,22828,1,0,0:0:0:0:
330,291,23245,1,2,0:0:0:0:
41,49,23662,1,0,0:0:0:0:
158,96,23870,1,0,0:0:0:0:
59,181,24078,1,0,0:0:0:0:
32,95,24287,2,8,B|78:71|150:79|172:108,1,131.25000500679
220,128,24912,6,0,P|272:160|284:184,1,65.6250025033952
376,288,25328,1,0,0:0:0:0:
188,308,25537,1,0,0:0:0:0:
260,144,25745,1,0,0:0:0:0:
385,200,25953,5,8,0:0:0:0:
208,112,26162,1,0,0:0:0:0:
412,100,26370,1,0,0:0:0:0:
256,240,26578,1,0,0:0:0:0:
272,48,26787,1,0,0:0:0:0:
328,236,26995,5,0,0:0:0:0:
212,80,27203,1,0,0:0:0:0:
384,200,27412,1,0,0:0:0:0:
184,143,27620,1,8,0:0:0:0:
444,76,28037,5,0,0:0:0:0:
350,267,28245,1,2,0:0:0:0:
60,208,28662,5,0,0:0:0:0:
308,260,28870,1,0,0:0:0:0:
72,288,29078,2,0,L|136:304,1,65.6250025033952
344,356,29495,1,0,0:0:0:0:
392,224,29703,1,0,0:0:0:0:
250,258,29912,1,0,0:0:0:0:
250,258,30016,1,0,0:0:0:0:
250,258,30120,1,2,0:0:0:0:
250,258,30537,6,0,L|141:176,1,131.25000500679
296,43,31162,1,0,0:0:0:0:
197,95,31370,1,0,0:0:0:0:
299,139,31578,2,8,L|372:180,2,65.6250025033952
304,117,32412,2,0,B|349:146|377:166|377:166|377:166,1,65.6250025033952
312,324,32828,2,0,L|248:288,1,65.6250025033952
272,196,33245,2,8,L|344:232,1,65.6250025033952
468,300,33662,1,0,0:0:0:0:
416,144,33870,1,0,0:0:0:0:
304,272,34078,1,2,0:0:0:0:
468,52,34287,6,0,P|452:116|384:148,1,131.25000500679
316,48,34912,1,0,0:0:0:0:
398,147,35120,1,0,0:0:0:0:
268,168,35328,1,0,0:0:0:0:
144,64,35745,6,0,P|124:112|184:180,1,131.25000500679
428,168,36578,2,0,P|456:116|416:64,1,131.25000500679
152,64,37412,6,0,L|240:64,1,65.6250025033952
480,64,38037,1,0,0:0:0:0:
376,144,38245,1,0,0:0:0:0:
380,16,38453,1,0,0:0:0:0:
476,160,38662,1,0,0:0:0:0:
476,160,38870,2,0,L|396:28,1,131.25000500679
324,44,39495,2,0,L|360:108,1,65.6250025033952
332,208,39912,2,0,L|295:138,1,65.6250025033952
294,138,40224,1,0,0:0:0:0:
285,121,40328,1,0,0:0:0:0:
280,106,40433,1,0,0:0:0:0:
273,91,40537,1,0,0:0:0:0:
192,52,40745,6,0,L|152:76,1,32.8125012516976
208,116,40953,2,0,L|164:136,1,32.8125012516976
224,176,41162,2,0,L|172:192,1,32.8125012516976
236,232,41370,2,0,L|192:248,1,32.8125012516976
256,284,41578,2,0,L|204:304,1,32.8125012516976
240,360,41787,2,0,P|296:336|304:228,1,175
307,232,42620,1,2,0:0:0:0:
307,232,43453,1,0,0:0:0:0:
112,100,44078,5,0,0:0:0:0:
176,36,44287,1,0,0:0:0:0:
260,140,44495,1,8,0:0:0:0:
300,276,44703,2,0,B|232:212|212:240|172:160,1,175
315,351,45328,1,8,0:0:0:0:
358,260,45537,2,0,B|386:181|438:180|466:116|460:97,1,175
205,337,46162,2,0,B|130:292|154:249|96:201,1,175
27,111,46787,5,0,0:0:0:0:
108,40,46995,1,0,0:0:0:0:
164,116,47203,1,0,0:0:0:0:
232,208,47412,1,2,0:0:0:0:
294,103,47620,2,0,L|396:81,2,87.5
79,134,48245,1,2,0:0:0:0:
220,152,48453,2,0,P|176:192|252:268,1,175
440,224,49078,1,2,0:0:0:0:
280,336,49287,1,0,0:0:0:0:
360,128,49495,1,0,0:0:0:0:
280,336,49703,1,0,0:0:0:0:
360,128,49912,1,2,0:0:0:0:
376,236,50120,6,0,P|436:278|361:342,1,175
144,336,50745,1,2,0:0:0:0:
328,348,50953,1,0,0:0:0:0:
176,260,51162,1,0,0:0:0:0:
348,232,51370,1,0,0:0:0:0:
225,148,51578,1,2,0:0:0:0:
348,232,51787,5,0,0:0:0:0:
352,120,52203,2,0,B|442:138|486:182|486:318|422:362|326:362|238:358|224:236|256:172,1,525
284,4,53870,1,0,0:0:0:0:
120,232,54287,1,2,0:0:0:0:
97,161,54703,2,0,B|40:190|20:227|65:312|97:303,1,175
246,374,55328,1,0,0:0:0:0:
124,240,55537,1,0,0:0:0:0:
301,232,55745,1,0,0:0:0:0:
186,114,55953,2,0,B|223:110|298:157|271:233|275:268,1,175
245,358,56787,5,0,0:0:0:0:
376,232,56995,1,0,0:0:0:0:
220,208,57203,2,0,B|144:196|88:124|112:48|168:16|248:28|312:76,1,350
108,176,58453,5,2,0:0:0:0:
204,315,58662,1,0,0:0:0:0:
378,233,58870,1,0,0:0:0:0:
278,99,59078,1,0,0:0:0:0:
242,266,59287,2,0,B|217:223|217:163|253:130|316:130|366:160|367:209|350:323,1,350
224,176,60328,1,0,0:0:0:0:
432,112,60537,1,0,0:0:0:0:
376,272,60745,1,0,0:0:0:0:
215,350,60953,6,0,B|223:287|289:301|289:321|289:341|354:350|363:287,1,175
371,280,61787,5,2,0:0:0:0:
251,157,61995,1,0,0:0:0:0:
430,45,62203,1,0,0:0:0:0:
281,48,62412,1,0,0:0:0:0:
281,48,62516,1,0,0:0:0:0:
281,48,62620,2,0,B|191:59|201:171|254:172|296:172|312:284|192:312,1,350
113,68,67620,6,0,B|113:143|245:226|312:222,1,262.500010013581
472,236,68245,1,0,0:0:0:0:
372,244,68453,1,2,0:0:0:0:
372,248,68558,1,2,0:0:0:0:
372,248,68662,1,2,0:0:0:0:
160,264,68870,5,0,0:0:0:0:
360,152,69078,1,0,0:0:0:0:
128,124,69287,1,0,0:0:0:0:
316,296,69495,1,0,0:0:0:0:
276,52,69703,1,0,0:0:0:0:
161,276,69912,1,0,0:0:0:0:
376,118,70120,1,2,0:0:0:0:
120,128,70328,1,0,0:0:0:0:
400,161,70537,6,0,B|402:262|318:269|331:249,1,131.25000500679
333,257,70953,1,0,0:0:0:0:
78,188,71162,1,0,0:0:0:0:
301,325,71370,1,0,0:0:0:0:
115,139,71578,1,0,0:0:0:0:
259,358,71787,1,2,0:0:0:0:
206,358,72203,5,4,0:0:0:0:
155,344,72620,5,4,0:0:0:0:
208,152,72828,1,0,0:0:0:0:
296,340,73037,1,0,0:0:0:0:
208,152,73245,1,0,0:0:0:0:
56,197,73453,6,0,P|113:248|296:232,1,262.500010013581
351,194,74287,2,0,P|408:142|431:91,1,131.25000500679
78,47,74703,1,0,0:0:0:0:
232,198,74912,1,0,0:0:0:0:
413,87,75120,1,2,0:0:0:0:
155,248,75537,5,0,0:0:0:0:
409,311,75745,1,0,0:0:0:0:
173,159,75953,1,0,0:0:0:0:
413,52,76162,1,0,0:0:0:0:
192,193,76370,1,0,0:0:0:0:
453,202,76578,1,0,0:0:0:0:
192,193,76787,2,2,L|472:200,1,262.500010013581
488,46,77620,6,0,B|475:117|421:157|492:243|364:263,1,262.500010013581
192,340,78245,1,0,0:0:0:0:
140,176,78453,1,0,0:0:0:0:
320,304,78662,1,0,0:0:0:0:
200,104,78870,1,0,0:0:0:0:
408,252,79078,1,0,0:0:0:0:
164,236,79287,1,0,0:0:0:0:
384,324,79495,1,0,0:0:0:0:
304,120,79703,1,0,0:0:0:0:
436,280,79912,1,0,0:0:0:0:
168,180,80120,1,0,0:0:0:0:
168,180,80224,1,0,0:0:0:0:
168,180,80328,1,2,0:0:0:0:
412,40,80953,2,0,B|457:95|354:213|345:101|469:320|475:202|432:252|336:353,1,350
76,344,82203,1,0,0:0:0:0:
268,252,82412,1,0,0:0:0:0:
91,135,82620,1,0,0:0:0:0:
433,267,83037,1,0,0:0:0:0:
144,68,83453,1,0,0:0:0:0:
78,72,84287,6,0,B|75:229|75:229|192:83|313:135|313:135|382:38,1,525.000020027161
396,15,85537,2,0,B|350:84|350:84|412:212|271:258|272:257,1,262.500010013581
200,160,86370,1,0,0:0:0:0:
76,64,86578,1,0,0:0:0:0:
96,240,86787,1,0,0:0:0:0:
196,312,86995,2,0,P|260:328|312:288,1,131.25000500679
227,188,87412,5,0,0:0:0:0:
408,128,87620,1,0,0:0:0:0:
408,128,87724,1,0,0:0:0:0:
340,128,87828,2,0,P|244:172|208:220,1,131.25000500679
60,232,88245,1,0,0:0:0:0:
160,152,88453,1,0,0:0:0:0:
60,232,88662,1,0,0:0:0:0:
65,109,88870,1,0,0:0:0:0:
64,236,89078,1,0,0:0:0:0:
160,152,89287,2,0,B|216:108|288:88|387:197,1,262.500010013581
168,258,90120,5,0,0:0:0:0:
316,244,90328,1,0,0:0:0:0:
382,122,90537,1,0,0:0:0:0:
124,124,90953,5,0,0:0:0:0:
268,148,91162,1,0,0:0:0:0:
344,256,91370,1,0,0:0:0:0:
255,36,91787,1,0,0:0:0:0:
116,264,92203,1,0,0:0:0:0:
382,122,92620,5,0,0:0:0:0:
124,124,92828,1,0,0:0:0:0:
344,256,93037,1,0,0:0:0:0:
255,36,93245,1,0,0:0:0:0:
176,254,93453,1,0,0:0:0:0:
392,120,93662,1,0,0:0:0:0:
124,124,93870,1,0,0:0:0:0:
344,256,94078,1,0,0:0:0:0:
255,36,94287,5,8,0:0:0:0:
108,192,94495,1,0,0:0:0:0:
388,124,94703,1,0,0:0:0:0:
152,40,94912,2,0,P|72:124|101:269,1,262.499991989136
360,316,96162,1,0,0:0:0:0:
256,84,96370,1,0,0:0:0:0:
52,312,96578,2,0,P|116:334|258:289,1,209.999993591309
304,136,97620,5,0,0:0:0:0:
116,264,97828,1,0,0:0:0:0:
380,264,98037,5,0,0:0:0:0:
196,128,98245,1,0,0:0:0:0:
326,85,106995,6,0,P|289:47|239:68,1,87.5
140,178,107412,2,0,P|164:229|206:232,1,87.5
358,189,107828,1,2,0:0:0:0:
441,14,108037,1,0,0:0:0:0:
270,52,108245,1,2,0:0:0:0:
259,66,108662,2,0,P|231:142|285:243,1,175
396,144,109287,2,0,B|443:217|355:326|355:326|364:320,1,175
232,292,109912,1,0,0:0:0:0:
400,336,110120,1,0,0:0:0:0:
348,231,110328,5,2,0:0:0:0:
176,194,110537,1,0,0:0:0:0:
328,108,110745,1,0,0:0:0:0:
351,281,110953,1,2,0:0:0:0:
140,228,111162,1,2,0:0:0:0:
144,224,111266,1,0,0:0:0:0:
152,220,111370,2,0,L|210:175,1,43.75
224,8,111578,2,0,L|142:85,1,87.5
32,176,111995,1,0,0:0:0:0:
152,352,112203,1,0,0:0:0:0:
236,136,112412,2,0,L|279:22,1,87.5
404,200,112828,1,0,0:0:0:0:
288,360,113037,2,0,L|230:263,1,87.5
132,100,113453,1,0,0:0:0:0:
496,39,114287,6,0,B|496:43|467:42|376:43|376:43|468:107|276:79|244:99|244:99|197:129,1,350
11,312,115537,1,0,0:0:0:0:
374,268,115953,1,0,0:0:0:0:
88,65,116370,1,0,0:0:0:0:
298,345,116787,1,0,0:0:0:0:
37,112,117203,1,0,0:0:0:0:
344,240,117620,5,2,0:0:0:0:
248,88,117828,1,0,0:0:0:0:
92,136,118037,1,2,0:0:0:0:
248,88,118245,1,0,0:0:0:0:
343,239,118453,1,2,0:0:0:0:
264,52,118662,1,0,0:0:0:0:
64,100,118870,5,2,0:0:0:0:
148,264,119078,1,0,0:0:0:0:
360,204,119287,1,0,0:0:0:0:
264,52,119495,1,0,0:0:0:0:
220,228,119703,1,2,0:0:0:0:
412,152,119912,1,0,0:0:0:0:
264,52,120120,1,0,0:0:0:0:
283,238,120328,5,0,0:0:0:0:
432,338,120537,1,2,0:0:0:0:
442,164,120745,1,0,0:0:0:0:
286,241,120953,2,0,B|390:199|482:137|174:71,1,350
196,74,122203,1,0,0:0:0:0:
452,312,122620,5,0,0:0:0:0:
334,217,122828,1,0,0:0:0:0:
460,321,123037,1,0,0:0:0:0:
233,122,123245,1,0,0:0:0:0:
410,282,123453,5,0,0:0:0:0:
369,248,124287,5,2,0:0:0:0:
71,65,124703,1,0,0:0:0:0:
244,56,124912,1,2,0:0:0:0:
440,343,125328,1,0,0:0:0:0:
35,175,125745,1,2,0:0:0:0:
388,236,126162,2,0,B|368:292|352:324|229:252,1,175
90,174,126787,1,2,0:0:0:0:
264,170,126995,1,0,0:0:0:0:
115,262,127203,1,0,0:0:0:0:
179,98,127412,1,0,0:0:0:0:
229,265,127620,1,2,0:0:0:0:
32,88,127828,1,0,0:0:0:0:
177,188,128037,6,0,P|220:252|245:250,1,87.5
168,94,128453,6,0,P|232:72|268:78,1,87.5
280,224,128870,6,0,B|312:147|286:114|277:108,1,87.5
350,250,129287,6,0,P|397:213|369:98,2,175
285,86,130328,1,0,0:0:0:0:
350,250,130537,1,0,0:0:0:0:
135,175,130745,1,0,0:0:0:0:
197,338,130953,1,2,0:0:0:0:
436,85,131370,1,0,0:0:0:0:
312,208,131578,2,0,L|440:83,1,175
292,228,132203,1,2,0:0:0:0:
96,212,132620,5,0,0:0:0:0:
357,214,132828,1,0,0:0:0:0:
1,94,133037,1,0,0:0:0:0:
305,94,133245,2,0,L|372:94,1,43.75
408,164,133453,2,8,B|357:163|358:163,1,43.75
372,243,133662,2,0,L|248:245,1,87.5
71,248,134078,5,0,0:0:0:0:
69,79,134287,6,0,B|52:193|240:245|299:120|473:167|472:328,1,525
106,314,135953,1,0,0:0:0:0:
371,117,136162,1,0,0:0:0:0:
339,165,136266,1,0,0:0:0:0:
282,176,136370,1,0,0:0:0:0:
18,180,136578,1,0,0:0:0:0:
326,309,136787,1,0,0:0:0:0:
375,298,136891,1,0,0:0:0:0:
407,267,136995,1,0,0:0:0:0:
429,222,137099,1,0,0:0:0:0:
430,177,137203,1,0,0:0:0:0:
474,37,137620,6,0,B|322:137|322:137|315:41|315:41|177:139,1,419.999987182618
49,233,138870,1,0,0:0:0:0:
199,123,139287,1,0,0:0:0:0:
200,123,139703,2,0,P|294:102|366:190,1,209.999993591309
412,384,140328,1,0,0:0:0:0:
244,256,140537,1,0,0:0:0:0:
452,272,140745,1,0,0:0:0:0:
244,256,140953,1,2,0:0:0:0:
449,186,141162,2,0,P|372:187|321:133,1,104.999996795654
216,75,141578,1,0,0:0:0:0:
277,288,141787,1,2,0:0:0:0:
352,216,142620,5,2,0:0:0:0:
352,216,142828,2,0,B|280:184|220:228|220:240|136:171,1,209.999993591309
148,180,143453,1,2,0:0:0:0:
332,56,143662,1,0,0:0:0:0:
336,264,143870,1,0,0:0:0:0:
160,152,144078,1,0,0:0:0:0:
364,96,144287,1,2,0:0:0:0:
476,272,144495,6,0,B|368:320|256:264|217:118,1,314.999990386963
71,227,145328,1,0,0:0:0:0:
208,56,145537,1,0,0:0:0:0:
404,128,145745,1,0,0:0:0:0:
296,301,145953,1,2,0:0:0:0:
468,52,146370,6,0,B|392:56|348:100|264:92|248:108,1,209.999993591309
60,156,146995,1,0,0:0:0:0:
264,101,147203,1,0,0:0:0:0:
264,101,147412,2,0,B|56:156|56:156|152:252,1,314.999990386963
126,226,148453,5,2,0:0:0:0:
356,128,148662,1,0,0:0:0:0:
116,88,148870,1,0,0:0:0:0:
296,256,149078,1,0,0:0:0:0:
256,28,149287,2,0,L|247:105,1,52.4999983978272
344,108,149495,2,0,L|354:37,1,52.4999983978272
448,80,149703,2,0,L|437:158,1,52.4999983978272
340,224,149912,2,0,L|348:160,1,52.4999983978272
248,224,150120,2,0,L|241:301,1,52.4999983978272
96,124,150537,5,0,0:0:0:0:
324,188,150745,1,0,0:0:0:0:
184,244,150953,1,2,0:0:0:0:
304,288,151370,5,0,0:0:0:0:
504,164,151578,1,0,0:0:0:0:
348,152,151787,1,2,0:0:0:0:
440,96,152203,5,0,0:0:0:0:
232,12,152412,1,0,0:0:0:0:
300,128,152620,1,2,0:0:0:0:
168,104,153037,5,0,0:0:0:0:
72,336,153245,1,0,0:0:0:0:
224,252,153453,1,2,0:0:0:0:
384,304,153870,5,0,0:0:0:0:
436,84,154078,1,0,0:0:0:0:
240,184,154287,1,0,0:0:0:0:
484,268,154495,1,0,0:0:0:0:
300,40,154703,1,0,0:0:0:0:
376,312,154912,1,0,0:0:0:0:
204,120,155120,2,0,B|200:64|296:48|296:148|300:252|376:276|468:280|465:153,1,419.999987182618
468,12,156162,1,0,0:0:0:0:
440,52,156266,1,0,0:0:0:0:
392,76,156370,1,0,0:0:0:0:
348,68,156474,1,0,0:0:0:0:
320,32,156578,1,0,0:0:0:0:
272,9,156683,1,0,0:0:0:0:
223,21,156787,1,0,0:0:0:0:
256,192,157203,12,0,159287,0:0:0:0:
16,276,159703,6,0,B|-28:200|-32:128|48:56|120:156|128:228|212:173,1,314.999990386963
163,190,160953,6,0,P|248:183|352:72,1,209.999993591309
364,56,161787,1,8,0:0:0:0:
161,365,162203,1,0,0:0:0:0:
197,189,162412,1,0,0:0:0:0:
27,243,162620,2,0,L|99:263,1,52.4999983978272
123,178,162828,2,0,L|35:155,1,52.4999983978272
124,93,163037,2,0,L|276:131,1,157.499995193482
402,146,163453,1,8,0:0:0:0:
226,117,163662,1,0,0:0:0:0:
319,268,163870,1,0,0:0:0:0:
388,104,164078,1,0,0:0:0:0:
388,104,164287,5,2,0:0:0:0:
144,172,164495,1,0,0:0:0:0:
319,268,164703,1,0,0:0:0:0:
319,268,164912,2,2,B|388:280|388:280|373:217,1,104.999996795654
276,98,165328,1,0,0:0:0:0:
276,98,165537,2,0,B|356:141|356:141|222:196,1,209.999993591309
12,272,166162,1,2,0:0:0:0:
376,280,166370,1,0,0:0:0:0:
176,176,166578,1,0,0:0:0:0:
178,180,166787,5,2,0:0:0:0:
438,115,166995,1,0,0:0:0:0:
283,256,167203,1,0,0:0:0:0:
283,256,167620,6,0,B|145:279|90:176|90:176,1,209.999993591309
288,260,168453,1,0,0:0:0:0:
24,160,168870,1,0,0:0:0:0:
197,41,169078,1,0,0:0:0:0:
200,302,169287,1,2,0:0:0:0:
200,302,169495,1,0,0:0:0:0:
104,264,169703,2,0,B|168:300|168:300|248:265,1,157.499995193482
302,74,170120,2,0,B|238:38|238:38|186:78,1,104.999996795654
54,196,170537,2,0,B|75:265|75:265|117:227|130:218,1,104.999996795654
132,208,170953,5,2,0:0:0:0:
398,143,171370,1,0,0:0:0:0:
203,65,171578,1,0,0:0:0:0:
248,252,171787,1,2,0:0:0:0:
200,28,172203,5,0,0:0:0:0:
232,316,172412,1,0,0:0:0:0:
440,100,172620,1,2,0:0:0:0:
232,316,172828,1,0,0:0:0:0:
200,28,173037,1,2,0:0:0:0:
232,316,173245,1,0,0:0:0:0:
440,100,173453,1,2,0:0:0:0:
160,308,173870,1,0,0:0:0:0:
83,111,174287,2,0,P|124:53|258:19,2,209.999993591309
83,111,175537,1,0,0:0:0:0:
232,257,175745,1,0,0:0:0:0:
239,47,175953,1,2,0:0:0:0:
38,338,176370,1,0,0:0:0:0:
434,198,176787,2,0,P|456:108|374:145,1,209.999993591309
288,207,177412,5,0,0:0:0:0:
252,225,177516,1,0,0:0:0:0:
212,228,177620,1,2,0:0:0:0:
56,216,177828,1,0,0:0:0:0:
88,340,178037,5,0,0:0:0:0:
260,320,178245,1,0,0:0:0:0:
368,196,178453,1,2,0:0:0:0:
208,216,178662,1,0,0:0:0:0:
72,120,178870,1,0,0:0:0:0:
280,112,179078,1,0,0:0:0:0:
284,116,179183,1,0,0:0:0:0:
284,116,179287,2,8,B|372:112|372:112|325:259,1,209.999993591309
200,344,179912,5,0,0:0:0:0:
361,207,180120,1,0,0:0:0:0:
201,71,180328,1,0,0:0:0:0:
229,279,180537,1,0,0:0:0:0:
85,127,180745,1,0,0:0:0:0:
80,202,180953,2,8,P|178:255|197:190,2,209.999993591309
372,108,182203,5,0,0:0:0:0:
164,260,182620,1,2,0:0:0:0:
372,108,183037,1,0,0:0:0:0:
164,260,183453,1,2,0:0:0:0:
164,260,183662,2,0,L|272:187,1,104.999996795654
372,108,184078,2,0,L|269:187,1,104.999996795654
164,260,184703,1,0,0:0:0:0:
168,72,185120,2,0,L|241:167,1,104.999996795654
360,300,185537,1,0,0:0:0:0:
360,300,185953,2,0,L|279:207,1,104.999996795654
168,72,186370,1,0,0:0:0:0:
291,220,186787,5,0,0:0:0:0:
480,32,187203,1,0,0:0:0:0:
272,64,187412,1,2,0:0:0:0:
444,168,187620,2,0,B|502:215|498:214|469:281|369:349,1,209.999993591309
272,200,188453,1,0,0:0:0:0:
440,350,188662,1,0,0:0:0:0:
236,360,188870,1,2,0:0:0:0:
100,40,189287,5,0,0:0:0:0:
92,288,189703,1,0,0:0:0:0:
456,176,190120,1,0,0:0:0:0:
292,120,190328,1,0,0:0:0:0:
356,296,190537,1,2,0:0:0:0:
72,328,190953,5,0,0:0:0:0:
416,332,191370,1,0,0:0:0:0:
128,152,191787,1,0,0:0:0:0:
336,136,191995,1,0,0:0:0:0:
232,304,192203,1,2,0:0:0:0:
456,48,192620,5,0,0:0:0:0:
460,324,193037,1,0,0:0:0:0:
460,324,193453,2,0,P|388:328|301:202,1,209.999993591309
304,196,194287,2,0,P|287:110|170:64,1,209.999993591309
96,228,195120,1,0,0:0:0:0:
304,230,195328,1,0,0:0:0:0:
120,124,195537,1,0,0:0:0:0:
268,124,195745,1,0,0:0:0:0:
194,321,195953,2,0,P|125:209|340:132,1,419.999987182618
430,217,197203,5,0,0:0:0:0:
48,40,197620,1,8,0:0:0:0:
448,172,198037,1,0,0:0:0:0:
36,88,198453,1,8,0:0:0:0:
452,128,198870,1,0,0:0:0:0:
32,132,199287,1,8,0:0:0:0:
448,84,199703,1,0,0:0:0:0:
36,176,200120,1,8,0:0:0:0:
436,44,200537,1,0,0:0:0:0:
52,216,200953,2,0,B|80:288|124:336|231:362|240:364,1,209.999993591309
460,216,201787,2,0,B|432:288|388:336|279:366|272:364,1,209.999993591309
52,79,202620,2,0,B|80:151|124:199|228:226|240:227,1,209.999993591309
460,80,203453,2,0,B|432:152|388:200|286:231|272:228,1,209.999993591309
92,64,204287,6,0,B|92:136|124:216|182:272,1,209.999993591309
420,64,205120,6,0,B|420:136|388:216|326:277,1,209.999993591309
88,64,205953,6,0,P|104:152|132:208,1,104.999996795654
136,216,206266,1,0,0:0:0:0:
172,268,206370,1,0,0:0:0:0:
216,304,206474,1,0,0:0:0:0:
268,328,206578,1,0,0:0:0:0:
312,340,206683,1,0,0:0:0:0:
360,340,206787,1,0,0:0:0:0:
56,168,207203,6,0,B|140:120|140:120|168:164|248:128,1,209.999993591309
424,72,208037,6,0,B|336:128|336:128|328:200|291:253,1,209.999993591309
76,240,208870,6,0,B|140:180|200:180|200:180|286:122,1,209.999993591309
464,136,209703,6,0,B|376:64|376:64|377:174,1,209.999993591309
124,156,210537,5,0,0:0:0:0:
344,231,210953,6,0,P|406:261|287:310,1,297.500005674362
220,102,211787,6,0,P|190:40|155:158,1,297.500005674362
219,104,212412,2,0,B|324:149|202:229|202:229,1,131.25000500679
73,246,212828,2,0,B|-1:168|116:113|116:113,1,131.25000500679
454,136,213453,1,0,0:0:0:0:
190,128,213662,1,0,0:0:0:0:
410,228,214287,5,0,0:0:0:0:
380,248,214391,1,0,0:0:0:0:
349,256,214495,1,0,0:0:0:0:
123,238,214703,1,0,0:0:0:0:
101,196,214808,1,0,0:0:0:0:
101,148,214912,1,0,0:0:0:0:
249,63,215120,1,0,0:0:0:0:
296,56,215224,1,0,0:0:0:0:
340,76,215328,1,0,0:0:0:0:
480,148,215537,1,0,0:0:0:0:
500,196,215641,1,0,0:0:0:0:
492,236,215745,1,0,0:0:0:0:
464,304,215953,5,0,0:0:0:0:
420,328,216058,1,0,0:0:0:0:
372,336,216162,1,0,0:0:0:0:
336,324,216266,1,0,0:0:0:0:
304,288,216370,1,0,0:0:0:0:
288,244,216474,1,0,0:0:0:0:
260,208,216578,1,0,0:0:0:0:
220,184,216683,1,0,0:0:0:0:
176,196,216787,1,0,0:0:0:0:
400,344,217620,5,0,0:0:0:0:
396,304,217724,1,0,0:0:0:0:
368,268,217828,1,0,0:0:0:0:
328,248,217933,1,0,0:0:0:0:
272,232,218037,1,0,0:0:0:0:
208,228,218141,1,0,0:0:0:0:
152,176,218245,1,0,0:0:0:0:
140,104,218349,1,0,0:0:0:0:
160,32,218453,2,0,B|177:-36|177:-36|329:93,1,262.500010013581
511,275,219078,1,0,0:0:0:0:
248,289,219287,1,0,0:0:0:0:
356,40,219495,1,0,0:0:0:0:
508,252,219703,1,0,0:0:0:0:
252,228,219912,2,0,P|180:200|176:94,1,131.25000500679
168,88,220328,1,0,0:0:0:0:
380,68,220953,5,0,0:0:0:0:
136,168,221162,2,0,P|192:204|228:220,1,65.6250025033952
268,176,221787,5,0,0:0:0:0:
56,68,221995,2,0,L|120:40,1,65.6250025033952
92,156,222620,6,0,P|86:242|259:279,1,262.500010013581
388,256,223453,5,0,0:0:0:0:
369,249,223558,1,0,0:0:0:0:
350,242,223662,1,0,0:0:0:0:
332,235,223766,1,0,0:0:0:0:
313,229,223870,1,0,0:0:0:0:
92,156,224287,6,0,B|180:84|184:84|319:207,1,227.499989585877
328,208,225120,1,0,0:0:0:0:
152,228,225328,2,0,L|315:211,1,113.749994792938
328,208,225745,1,0,0:0:0:0:
392,204,225953,1,0,0:0:0:0:
119,172,226370,1,0,0:0:0:0:
413,291,226787,1,0,0:0:0:0:
97,110,227203,1,0,0:0:0:0:
97,110,227620,6,0,L|183:25,1,113.749994792938
171,171,228037,2,0,L|271:64,1,113.749994792938
253,243,228453,2,0,P|338:141|338:141,1,113.749994792938
253,243,228870,1,0,0:0:0:0:
144,304,229078,1,0,0:0:0:0:
171,171,229287,1,0,0:0:0:0:
171,171,229703,5,0,0:0:0:0:
382,87,230120,1,0,0:0:0:0:
354,197,230328,1,0,0:0:0:0:
292,100,230537,2,0,L|240:-17,1,113.749994792938
248,0,230953,6,0,B|272:52|280:160|95:71,1,227.499989585877
124,88,231787,1,0,0:0:0:0:
20,284,231995,1,0,0:0:0:0:
252,224,232203,1,0,0:0:0:0:
304,204,232620,6,0,L|220:240,1,56.8749973964692
211,242,232828,1,0,0:0:0:0:
159,248,232933,1,0,0:0:0:0:
116,232,233037,2,0,B|44:192|12:168|8:92|32:48|44:32,1,227.499989585877
288,48,233662,1,0,0:0:0:0:
104,136,233870,1,0,0:0:0:0:
304,228,234078,2,0,P|376:268|412:288,1,113.749994792938
396,60,234495,1,0,0:0:0:0:
356,120,234703,2,0,B|316:180|200:168|180:48|108:28|24:204|104:232|152:316|240:264,1,454.999979171754
341,297,235953,5,0,0:0:0:0:
348,236,236058,1,0,0:0:0:0:
345,184,236162,1,0,0:0:0:0:
336,136,236266,2,0,P|320:80|296:40,1,56.8749973964692
232,8,236578,2,0,P|180:60|176:84,1,56.8749973964692
167,97,236787,1,0,0:0:0:0:
151,141,236891,1,0,0:0:0:0:
150,188,236995,1,0,0:0:0:0:
156,240,237099,2,0,P|160:296|160:316,1,56.8749973964692
234,302,237308,6,0,L|228:228,1,56.8749973964692
220,187,237516,1,0,0:0:0:0:
221,135,237620,1,0,0:0:0:0:
233,82,237724,1,0,0:0:0:0:
264,41,237828,1,0,0:0:0:0:
470,44,238037,1,0,0:0:0:0:
369,204,238245,1,0,0:0:0:0:
264,41,238453,1,0,0:0:0:0:
470,44,238662,1,0,0:0:0:0:
198,121,238870,1,0,0:0:0:0:
497,109,239078,1,0,0:0:0:0:
257,247,239287,5,0,0:0:0:0:
437,203,239495,1,0,0:0:0:0:
313,79,239703,1,0,0:0:0:0:
225,255,239912,1,0,0:0:0:0:
281,27,240120,1,0,0:0:0:0:
177,86,240328,2,0,P|261:178|380:167,1,227.499989585877
432,152,240953,6,0,P|396:237|353:258,1,131.25
225,307,241787,1,0,0:0:0:0:
258,125,241995,1,0,0:0:0:0:
366,275,242203,1,0,0:0:0:0:
184,199,242412,2,0,L|124:177,1,43.75
130,181,242724,1,0,0:0:0:0:
111,175,242828,1,0,0:0:0:0:
97,161,242933,1,0,0:0:0:0:
89,143,243037,1,0,0:0:0:0:
91,124,243141,1,0,0:0:0:0:
101,107,243245,1,0,0:0:0:0:
117,96,243349,1,0,0:0:0:0:
139,91,243453,2,0,P|234:84|274:93,1,131.25
196,211,244287,5,0,0:0:0:0:
356,312,244703,1,0,0:0:0:0:
336,216,244912,1,0,0:0:0:0:
116,140,245537,1,0,0:0:0:0:
168,40,245745,1,0,0:0:0:0:
336,216,246370,5,0,0:0:0:0:
136,188,246787,1,0,0:0:0:0:
220,100,246995,1,0,0:0:0:0:
220,100,247620,6,0,B|286:109|346:132|345:199,1,175
349,353,248662,1,0,0:0:0:0:
345,196,248870,1,0,0:0:0:0:
229,339,249078,1,0,0:0:0:0:
232,182,249287,1,0,0:0:0:0:
232,167,249703,5,0,0:0:0:0:
270,249,250120,2,0,P|204:250|176:224,1,87.5
116,48,250953,5,0,0:0:0:0:
200,196,251370,1,0,0:0:0:0:
224,104,251578,1,0,0:0:0:0:
312,224,252203,1,0,0:0:0:0:
352,308,252412,1,0,0:0:0:0:
200,196,253037,5,0,0:0:0:0:
224,80,253245,1,0,0:0:0:0:
56,296,253453,1,0,0:0:0:0:
240,152,253662,1,0,0:0:0:0:
240,152,254287,2,0,P|239:205|258:244,2,87.5
259,82,255537,1,0,0:0:0:0:
432,176,255745,1,0,0:0:0:0:
296,336,255953,2,0,P|232:316|216:286,1,87.5
192,48,256787,5,0,0:0:0:0:
80,256,256995,1,0,0:0:0:0:
316,132,257203,1,0,0:0:0:0:
44,128,257412,1,0,0:0:0:0:
272,264,257620,1,0,0:0:0:0:
28,56,258037,1,0,0:0:0:0:
368,252,258453,1,0,0:0:0:0:
44,0,258870,1,0,0:0:0:0:
448,212,259287,6,0,L|380:172,1,54.6875
280,192,259495,2,0,L|336:228,1,54.6875
384,336,259703,2,0,L|320:292,1,54.6875
208,224,259912,1,0,0:0:0:0:
48,100,260120,2,0,L|100:144,1,54.6875
204,108,260328,2,0,L|156:64,1,54.6875
276,183,260953,6,0,P|247:149|341:103,1,175
484,124,261787,1,0,0:0:0:0:
128,68,262203,5,0,0:0:0:0:
368,176,262412,1,0,0:0:0:0:
164,176,262620,1,0,0:0:0:0:
164,176,263037,1,0,0:0:0:0:
280,360,263453,1,0,0:0:0:0:
368,176,263870,1,0,0:0:0:0:
368,176,264287,5,0,0:0:0:0:
228,80,264495,1,0,0:0:0:0:
240,220,264703,1,0,0:0:0:0:
388,112,264912,1,0,0:0:0:0:
164,104,265120,1,0,0:0:0:0:
300,244,265328,1,0,0:0:0:0:
360,56,265537,1,0,0:0:0:0:
136,164,265745,1,0,0:0:0:0:
360,216,265953,1,0,0:0:0:0:
40,200,266370,1,0,0:0:0:0:
464,80,266787,1,0,0:0:0:0:
408,96,266891,1,0,0:0:0:0:
372,132,266995,1,0,0:0:0:0:
364,180,267099,1,0,0:0:0:0:
116,48,267620,6,0,B|96:132|96:140|200:152|232:88|232:88|270:150,1,262.500010013581
276,164,268141,1,0,0:0:0:0:
288,208,268245,1,0,0:0:0:0:
292,252,268349,1,0,0:0:0:0:
280,300,268453,1,0,0:0:0:0:
324,292,268558,1,0,0:0:0:0:
372,288,268662,1,0,0:0:0:0:
256,128,268870,1,0,0:0:0:0:
424,80,269078,1,0,0:0:0:0:
256,268,269287,1,0,0:0:0:0:
360,64,269495,1,0,0:0:0:0:
332,288,269703,1,0,0:0:0:0:
284,64,269912,1,0,0:0:0:0:
412,288,270120,1,0,0:0:0:0:
216,92,270328,1,0,0:0:0:0:
460,228,270537,1,0,0:0:0:0:
180,160,270745,1,0,0:0:0:0:
468,156,270953,1,0,0:0:0:0:
320,311,271370,6,0,B|321:169|296:136|151:151,1,262.500010013581
316,52,272203,2,0,P|320:156|162:226,1,262.500010013581
1,237,272828,1,0,0:0:0:0:
202,144,273037,1,0,0:0:0:0:
273,333,273245,1,0,0:0:0:0:
312,128,273453,5,0,0:0:0:0:
452,304,273662,1,0,0:0:0:0:
284,260,273870,1,0,0:0:0:0:
208,132,274287,6,0,B|136:168|136:168|336:247,1,262.500010013581
424,280,275120,1,0,0:0:0:0:
168,112,275537,1,0,0:0:0:0:
336,112,275745,1,0,0:0:0:0:
184,240,275953,1,0,0:0:0:0:
432,64,276370,5,0,0:0:0:0:
444,289,276787,1,0,0:0:0:0:
432,64,277203,5,0,0:0:0:0:
432,64,277620,6,0,B|428:144|416:184|228:244|237:217,1,262.500010013581
172,220,278245,2,0,B|176:148|220:148|280:144|294:142|312:112,1,131.25000500679
392,296,278870,1,0,0:0:0:0:
344,128,279078,2,0,B|320:48|308:48|217:80,1,131.25000500679
72,96,279703,5,0,0:0:0:0:
48,264,279912,1,0,0:0:0:0:
252,152,280120,1,0,0:0:0:0:
12,180,280328,1,0,0:0:0:0:
232,76,280537,1,0,0:0:0:0:
128,312,280745,1,0,0:0:0:0:
460,40,280953,6,0,B|448:116|432:144|304:84|244:104|294:228,1,262.500010013581
288,320,281787,1,0,0:0:0:0:
304,68,282203,2,0,B|304:156|292:168|172:168|160:156|160:68,1,262.500010013581
304,68,282828,1,0,0:0:0:0:
148,232,283037,1,0,0:0:0:0:
372,184,283245,1,0,0:0:0:0:
56,224,283453,1,0,0:0:0:0:
67,63,283870,6,0,B|82:130|171:159|192:232|114:288,1,262.500010013581
72,313,284495,1,0,0:0:0:0:
362,103,284703,1,0,0:0:0:0:
39,130,284912,1,0,0:0:0:0:
432,124,285120,1,0,0:0:0:0:
476,156,285224,1,0,0:0:0:0:
504,208,285328,1,0,0:0:0:0:
507,370,285953,5,0,0:0:0:0:
319,118,286370,1,0,0:0:0:0:
88,309,286787,1,0,0:0:0:0:
380,248,287203,1,0,0:0:0:0:
437,111,287620,5,0,0:0:0:0:
361,256,287828,1,0,0:0:0:0:
265,72,288037,1,0,0:0:0:0:
184,291,288245,1,0,0:0:0:0:
71,59,288453,1,0,0:0:0:0:
67,48,288870,1,0,0:0:0:0:
58,30,289287,2,0,P|91:122|117:209,1,131.25000500679
147,351,289703,1,0,0:0:0:0:
295,200,289912,1,0,0:0:0:0:
97,148,290120,1,0,0:0:0:0:
97,148,290537,1,0,0:0:0:0:
129,202,290953,5,0,0:0:0:0:
302,354,291162,1,0,0:0:0:0:
324,146,291370,1,0,0:0:0:0:
88,248,291578,1,0,0:0:0:0:
368,344,291787,1,0,0:0:0:0:
288,92,291995,1,0,0:0:0:0:
93,321,292203,1,0,0:0:0:0:
399,282,292412,1,0,0:0:0:0:
224,82,292620,1,0,0:0:0:0:
475,194,292828,1,0,0:0:0:0:
145,165,293037,1,0,0:0:0:0:
436,73,293245,1,0,0:0:0:0:
235,278,293453,1,0,0:0:0:0:
303,47,293662,1,0,0:0:0:0:
408,295,293870,1,0,0:0:0:0:
303,47,294078,1,0,0:0:0:0:
331,107,294287,6,0,P|365:192|372:247,1,131.25000500679
382,342,294912,1,0,0:0:0:0:
272,93,295120,1,0,0:0:0:0:
479,215,295328,1,0,0:0:0:0:
236,192,295537,2,0,L|92:177,1,131.25000500679
416,188,296370,1,0,0:0:0:0:
212,172,296578,2,0,P|210:259|210:259,1,65.6250025033952
300,248,296995,2,0,L|301:166,1,65.6250025033952
490,34,297620,6,0,P|399:47|365:102,1,131.25000500679
358,176,298245,2,0,B|266:250|220:154|224:160,1,131.25000500679
123,36,298870,1,0,0:0:0:0:
121,190,299078,2,0,L|121:271,1,65.6250025033952
259,147,299495,2,0,L|260:63,1,65.6250025033952
109,119,299912,1,0,0:0:0:0:
434,122,300120,1,0,0:0:0:0:
164,258,300328,1,0,0:0:0:0:
258,22,300537,1,0,0:0:0:0:
325,253,300745,1,0,0:0:0:0:
166,126,300953,5,0,0:0:0:0:
335,126,301162,1,0,0:0:0:0:
212,207,301370,1,0,0:0:0:0:
258,66,301578,1,0,0:0:0:0:
309,207,301787,2,0,L|257:139,1,65.6250025033952
239,108,302099,1,0,0:0:0:0:
203,57,302203,1,0,0:0:0:0:
155,18,302308,1,0,0:0:0:0:
103,6,302412,1,0,0:0:0:0:
105,57,302516,1,0,0:0:0:0:
105,115,302620,2,0,B|109:195|102:253|102:253|93:263,1,131.25000500679
208,343,303245,2,0,B|206:250|206:250|205:247,1,65.6250025033952
451,51,304287,5,0,0:0:0:0:
126,194,304703,1,0,0:0:0:0:
487,217,305120,1,0,0:0:0:0:
330,129,305328,1,0,0:0:0:0:
340,312,305537,1,0,0:0:0:0:
277,30,305953,1,0,0:0:0:0:
440,331,306370,1,0,0:0:0:0:
269,174,306578,1,0,0:0:0:0:
348,352,306787,2,0,P|283:379|196:352,1,164.062506258488
115,322,307620,5,0,0:0:0:0:
405,145,308037,1,0,0:0:0:0:
69,193,308453,1,0,0:0:0:0:
239,89,308662,1,0,0:0:0:0:
61,79,308870,1,0,0:0:0:0:
242,184,309078,1,0,0:0:0:0:
54,75,309287,6,0,L|128:104,1,65.6250025033952
264,144,309703,1,0,0:0:0:0:
376,240,309912,2,0,P|329:294|241:298,1,164.062506258488
349,134,310953,6,0,L|296:172,1,65.6250025033952
168,255,311370,2,0,L|237:212,1,65.6250025033952
256,42,311787,2,0,L|256:136,1,65.6250025033952
342,255,312203,2,0,L|289:206,1,65.6250025033952
155,131,312620,1,0,0:0:0:0:
204,134,312724,1,0,0:0:0:0:
243,158,312828,1,0,0:0:0:0:
280,196,312933,1,0,0:0:0:0:
337,224,313037,1,0,0:0:0:0:
406,216,313141,1,0,0:0:0:0:
450,165,313245,1,0,0:0:0:0:
437,101,313349,1,0,0:0:0:0:
393,56,313453,2,0,P|275:25|250:37,1,131.25000500679
427,146,314287,5,0,0:0:0:0:
182,152,314703,1,0,0:0:0:0:
341,341,315120,5,0,0:0:0:0:
328,195,315328,1,0,0:0:0:0:
423,309,315537,1,0,0:0:0:0:
277,274,315745,1,0,0:0:0:0:
419,222,315953,1,0,0:0:0:0:
153,335,316370,5,0,0:0:0:0:
105,52,316787,5,0,0:0:0:0:
186,193,316995,1,0,0:0:0:0:
200,44,317203,1,0,0:0:0:0:
89,151,317412,1,0,0:0:0:0:
249,125,317620,1,0,0:0:0:0:
411,55,318037,5,0,0:0:0:0:
139,67,318453,6,0,P|136:141|142:147,1,65.6250025033952
226,278,318870,2,0,P|246:225|228:195,1,65.6250025033952
340,73,319287,1,0,0:0:0:0:
288,93,319391,1,0,0:0:0:0:
260,133,319495,1,0,0:0:0:0:
85,286,319703,5,0,0:0:0:0:
144,288,319808,1,0,0:0:0:0:
196,267,319912,1,0,0:0:0:0:
237,233,320016,1,0,0:0:0:0:
270,178,320120,1,0,0:0:0:0:
300,131,320224,1,0,0:0:0:0:
338,81,320328,1,0,0:0:0:0:
393,48,320433,1,0,0:0:0:0:
454,52,320537,1,0,0:0:0:0:
503,96,320641,1,0,0:0:0:0:
508,162,320745,1,0,0:0:0:0:
479,222,320849,1,0,0:0:0:0:
426,261,320953,2,0,P|311:310|96:250,1,350
64,144,322203,5,0,0:0:0:0:
285,46,322620,2,0,B|425:21|425:21|323:134|392:216,1,350
488,332,323870,5,0,0:0:0:0:
328,332,324287,2,0,B|228:320|228:320|292:260|140:208|140:208|116:164|156:104,1,350
144,96,325537,5,0,0:0:0:0:
140,65,325953,5,0,0:0:0:0:
285,167,326162,1,0,0:0:0:0:
231,10,326370,1,0,0:0:0:0:
165,160,326578,1,0,0:0:0:0:
321,65,326787,1,0,0:0:0:0:
140,65,326995,1,0,0:0:0:0:
285,167,327203,1,0,0:0:0:0:
231,10,327412,1,0,0:0:0:0:
165,160,327620,1,0,0:0:0:0:
84,292,328037,5,0,0:0:0:0:
252,324,328453,2,0,P|352:320|408:240,1,175
448,108,329287,5,0,0:0:0:0:
264,40,329703,1,0,0:0:0:0:
352,204,330120,2,0,B|392:292|392:292|140:232,1,350
0,188,331370,5,0,0:0:0:0:
104,347,331787,1,0,0:0:0:0:
90,197,332203,2,0,P|118:107|189:53,1,175
162,311,333037,2,0,P|188:230|271:166,1,175
324,360,333870,2,0,P|393:275|370:178,1,175
349,60,334703,5,0,0:0:0:0:
188,62,335120,2,0,B|32:63|7:65|2:130|-11:229|108:161|87:125|143:168,1,350
255,293,336370,5,0,0:0:0:0:
310,185,336787,2,0,B|365:80|365:80|407:206|407:206|471:81,1,350
493,16,338037,5,0,0:0:0:0:
330,21,338453,2,0,P|245:30|154:116,1,175
280,118,339287,1,0,0:0:0:0:
452,244,339703,5,0,0:0:0:0:
288,184,339912,1,0,0:0:0:0:
440,116,340120,2,0,L|337:264,1,175
296,336,340953,1,0,0:0:0:0:
296,336,341370,5,0,0:0:0:0:
220,160,341578,1,0,0:0:0:0:
408,172,341787,1,0,0:0:0:0:
460,216,341995,5,0,0:0:0:0:
352,40,342203,2,0,P|288:72|212:172,1,175
164,328,343037,5,0,0:0:0:0:
188,276,343141,1,0,0:0:0:0:
220,232,343245,1,0,0:0:0:0:
256,192,343349,1,0,0:0:0:0:
296,164,343453,1,0,0:0:0:0:
440,64,343662,1,0,0:0:0:0:
360,208,343870,1,0,0:0:0:0:
256,72,344078,1,0,0:0:0:0:
40,72,344287,6,0,B|108:136|124:200|204:156,1,175
168,60,345120,2,0,B|252:60|316:64|316:132,1,175
256,324,345953,2,0,B|168:228|112:253|56:152|168:28|256:116|256:116|365:30|465:179|350:250|304:267,1,700
