osu file format v14

[General]
AudioFilename: audio.mp3
AudioLeadIn: 0
PreviewTime: -1
Countdown: 0
SampleSet: Normal
StackLeniency: 0.7
Mode: 0
LetterboxInBreaks: 0
WidescreenStoryboard: 0

[Editor]
DistanceSpacing: 1.2
BeatDivisor: 4
GridSize: 4
TimelineZoom: 1

[Metadata]
Title:ZIMNA VODKA
TitleUnicode:ZIMNA VODKA
Artist:EFECT
ArtistUnicode:EFECT
Creator:Hydra
Version:HYDRĂ“WKA
Source:
Tags:
BeatmapID:1140222
BeatmapSetID:538227

[Difficulty]
HPDrainRate:6
CircleSize:4
OverallDifficulty:5
ApproachRate:9
SliderMultiplier:1.6
SliderTickRate:1

[Events]
//Background and Video events
0,0,"ca8bd128fdbfb6d7d62df9ad0c6d00dd.jpg",0,0
//Break Periods
//Storyboard Layer 0 (Background)
//Storyboard Layer 1 (Fail)
//Storyboard Layer 2 (Pass)
//Storyboard Layer 3 (Foreground)
//Storyboard Sound Samples

[TimingPoints]
15441,441.176470588235,4,1,0,100,1,0
32536,-66.6666666666667,4,1,0,100,0,0
33308,-100,4,1,0,100,0,0
43345,-66.6666666666667,4,1,0,100,0,0
43786,-100,4,1,0,100,0,0
50404,-66.6666666666667,4,1,0,100,0,0
50845,-100,4,1,0,100,0,0
71360,-66.6666666666667,4,1,0,100,0,0
71801,-100,4,1,0,100,0,0
78418,-66.6666666666667,4,1,0,100,0,0
78860,-100,4,1,0,100,0,0
85477,-66.6666666666667,4,1,0,100,0,0
85918,-100,4,1,0,100,0,0
106213,-66.6666666666667,4,1,0,100,0,0
106764,-100,4,1,0,100,0,0
113492,-66.6666666666667,4,1,0,100,0,0
113933,-100,4,1,0,100,0,0
120551,-66.6666666666667,4,1,0,100,0,0
120992,-100,4,1,0,100,0,0
141507,-66.6666666666667,4,1,0,100,0,0
141948,-100,4,1,0,100,0,0
155624,-66.6666666666667,4,1,0,100,0,0
156065,-100,4,1,0,100,0,0

[HitObjects]
72,96,15882,5,0,0:0:0:0:
252,268,16213,1,0,0:0:0:0:
308,96,16654,2,0,P|348:64|416:72,1,120
400,180,17315,1,0,0:0:0:0:
396,216,17426,1,0,0:0:0:0:
384,256,17536,1,0,0:0:0:0:
264,196,17757,1,0,0:0:0:0:
264,196,17978,1,0,0:0:0:0:
108,92,18198,1,0,0:0:0:0:
100,244,18418,1,0,0:0:0:0:
328,52,19081,1,0,0:0:0:0:
368,72,19191,1,0,0:0:0:0:
380,108,19301,1,0,0:0:0:0:
392,200,19521,1,0,0:0:0:0:
248,132,19742,1,0,0:0:0:0:
120,224,19963,1,0,0:0:0:0:
136,64,20183,2,0,P|96:44|104:48,4,40
136,64,20845,1,0,0:0:0:0:
224,248,21066,1,0,0:0:0:0:
336,76,21286,1,0,0:0:0:0:
404,268,21507,1,0,0:0:0:0:
240,124,21728,1,0,0:0:0:0:
100,240,21948,1,0,0:0:0:0:
100,108,22610,5,0,0:0:0:0:
332,68,22831,1,0,0:0:0:0:
116,204,23052,1,0,0:0:0:0:
348,172,23272,1,0,0:0:0:0:
124,296,23493,1,0,0:0:0:0:
360,296,23713,1,0,0:0:0:0:
384,92,24374,5,0,0:0:0:0:
384,132,24485,1,0,0:0:0:0:
384,168,24595,1,0,0:0:0:0:
208,92,24816,1,0,0:0:0:0:
352,248,25036,1,0,0:0:0:0:
388,88,25257,1,0,0:0:0:0:
208,248,25477,1,0,0:0:0:0:
92,68,26139,5,0,0:0:0:0:
152,276,26360,1,0,0:0:0:0:
252,72,26580,1,0,0:0:0:0:
312,272,26801,1,0,0:0:0:0:
392,76,27021,1,0,0:0:0:0:
448,272,27242,1,0,0:0:0:0:
316,140,27463,1,0,0:0:0:0:
240,220,27683,1,0,0:0:0:0:
201,228,27793,1,0,0:0:0:0:
162,221,27903,1,0,0:0:0:0:
112,88,28124,5,0,0:0:0:0:
400,68,28345,1,0,0:0:0:0:
384,272,28566,1,0,0:0:0:0:
144,264,28786,1,0,0:0:0:0:
184,64,29007,1,0,0:0:0:0:
380,76,29779,5,0,0:0:0:0:
356,224,29999,2,0,P|328:260|280:272,1,80
236,152,30441,1,0,0:0:0:0:
88,160,30661,2,0,P|84:104|112:80,1,80
244,64,31102,1,0,0:0:0:0:
312,152,31323,2,0,P|300:200|312:236,1,80
404,188,31764,1,0,0:0:0:0:
396,296,31985,2,0,P|344:344|320:336,1,80
256,264,32426,1,0,0:0:0:0:
88,180,32646,2,0,B|64:212|120:224|140:188|88:172,1,80
188,180,32977,2,0,B|164:212|220:224|240:188|188:172,1,80
344,96,33308,6,0,P|396:104|428:132,1,80
320,264,33749,2,0,P|296:296|248:304,1,80
208,240,34191,1,0,0:0:0:0:
144,28,34411,1,0,0:0:0:0:
184,248,34632,1,0,0:0:0:0:
208,72,34852,1,0,0:0:0:0:
416,128,35073,1,0,0:0:0:0:
88,272,35293,1,0,0:0:0:0:
236,36,35514,1,0,0:0:0:0:
400,308,35735,1,0,0:0:0:0:
204,136,35955,1,0,0:0:0:0:
336,180,36176,1,0,0:0:0:0:
336,180,36286,2,0,P|292:222|240:204,1,120
88,68,36838,5,0,0:0:0:0:
88,68,37058,1,0,0:0:0:0:
200,140,37279,1,0,0:0:0:0:
284,52,37720,1,0,0:0:0:0:
288,56,37940,1,0,0:0:0:0:
368,124,38161,1,0,0:0:0:0:
68,212,38602,6,0,P|84:268|112:280,1,80
248,176,39043,2,0,L|308:232,1,80
400,136,39484,2,0,P|384:88|340:72,1,80
168,64,39926,2,0,P|120:96|96:128,1,80
144,308,40367,5,0,0:0:0:0:
424,176,40588,1,0,0:0:0:0:
432,264,40808,1,0,0:0:0:0:
68,220,41029,1,0,0:0:0:0:
396,72,41249,1,0,0:0:0:0:
420,236,41470,1,0,0:0:0:0:
112,100,41690,1,0,0:0:0:0:
96,264,41911,1,0,0:0:0:0:
260,72,42132,1,0,0:0:0:0:
400,264,42352,1,0,0:0:0:0:
260,72,42573,1,0,0:0:0:0:
108,264,42793,1,0,0:0:0:0:
252,200,43014,1,0,0:0:0:0:
376,152,43235,1,0,0:0:0:0:
328,56,43455,2,0,B|236:56|236:112|288:96,1,120
72,144,43896,5,0,0:0:0:0:
184,144,44117,1,0,0:0:0:0:
304,148,44338,1,0,0:0:0:0:
380,260,44779,1,0,0:0:0:0:
240,260,44999,1,0,0:0:0:0:
88,260,45220,1,0,0:0:0:0:
76,64,45551,5,0,0:0:0:0:
176,292,45771,1,0,0:0:0:0:
240,60,45992,1,0,0:0:0:0:
412,288,46213,1,0,0:0:0:0:
444,128,46433,1,0,0:0:0:0:
276,124,46654,1,0,0:0:0:0:
116,120,46874,1,0,0:0:0:0:
368,76,47426,5,0,0:0:0:0:
88,208,47647,1,0,0:0:0:0:
80,120,47867,1,0,0:0:0:0:
444,164,48088,1,0,0:0:0:0:
116,312,48308,1,0,0:0:0:0:
92,148,48529,1,0,0:0:0:0:
400,284,48749,1,0,0:0:0:0:
416,120,48970,1,0,0:0:0:0:
252,312,49191,1,0,0:0:0:0:
112,120,49411,1,0,0:0:0:0:
252,312,49632,1,0,0:0:0:0:
404,120,49852,1,0,0:0:0:0:
260,184,50073,1,0,0:0:0:0:
136,232,50294,1,0,0:0:0:0:
184,328,50514,2,0,B|276:328|276:272|224:288,1,120
440,288,50955,5,0,0:0:0:0:
260,116,51286,1,0,0:0:0:0:
204,288,51727,2,0,P|164:320|96:312,1,120
112,204,52388,1,0,0:0:0:0:
116,168,52499,1,0,0:0:0:0:
128,128,52609,1,0,0:0:0:0:
248,188,52830,1,0,0:0:0:0:
248,188,53051,1,0,0:0:0:0:
404,292,53271,1,0,0:0:0:0:
412,140,53491,1,0,0:0:0:0:
184,332,54154,1,0,0:0:0:0:
144,312,54264,1,0,0:0:0:0:
132,276,54374,1,0,0:0:0:0:
120,184,54594,1,0,0:0:0:0:
264,252,54815,1,0,0:0:0:0:
392,160,55036,1,0,0:0:0:0:
376,320,55256,2,0,P|416:340|408:336,4,40
376,320,55918,1,0,0:0:0:0:
288,136,56139,1,0,0:0:0:0:
176,308,56359,1,0,0:0:0:0:
108,116,56580,1,0,0:0:0:0:
272,260,56801,1,0,0:0:0:0:
412,144,57021,1,0,0:0:0:0:
104,72,57683,5,0,0:0:0:0:
276,140,57904,1,0,0:0:0:0:
108,272,58124,1,0,0:0:0:0:
284,272,58345,1,0,0:0:0:0:
428,276,58565,1,0,0:0:0:0:
280,136,58786,1,0,0:0:0:0:
400,68,59448,5,0,0:0:0:0:
384,212,59668,1,0,0:0:0:0:
228,272,59889,1,0,0:0:0:0:
136,124,60110,1,0,0:0:0:0:
120,280,60330,1,0,0:0:0:0:
268,124,60551,1,0,0:0:0:0:
172,64,61213,5,0,0:0:0:0:
280,156,61433,1,0,0:0:0:0:
168,244,61654,1,0,0:0:0:0:
288,300,61874,1,0,0:0:0:0:
388,204,62095,1,0,0:0:0:0:
120,104,62315,1,0,0:0:0:0:
112,220,62536,2,0,L|72:240,4,40
232,240,63198,1,0,0:0:0:0:
388,240,63418,1,0,0:0:0:0:
436,108,63639,1,0,0:0:0:0:
288,52,63860,1,0,0:0:0:0:
104,84,64080,1,0,0:0:0:0:
176,204,65073,1,0,0:0:0:0:
308,248,65294,1,0,0:0:0:0:
112,76,65514,1,0,0:0:0:0:
276,348,65735,1,0,0:0:0:0:
424,112,65956,1,0,0:0:0:0:
96,256,66176,1,0,0:0:0:0:
304,312,66397,1,0,0:0:0:0:
328,136,66617,1,0,0:0:0:0:
368,356,66838,1,0,0:0:0:0:
304,144,67058,1,0,0:0:0:0:
253,78,67280,2,0,P|215:88|192:120,1,80
94,264,67721,2,0,P|128:285|168:288,1,80
144,308,68381,5,0,0:0:0:0:
424,176,68602,1,0,0:0:0:0:
432,264,68822,1,0,0:0:0:0:
68,220,69043,1,0,0:0:0:0:
396,72,69263,1,0,0:0:0:0:
420,236,69484,1,0,0:0:0:0:
112,100,69704,1,0,0:0:0:0:
96,264,69925,1,0,0:0:0:0:
260,72,70146,1,0,0:0:0:0:
400,264,70366,1,0,0:0:0:0:
260,72,70587,1,0,0:0:0:0:
108,264,70807,1,0,0:0:0:0:
252,200,71028,1,0,0:0:0:0:
376,152,71249,1,0,0:0:0:0:
328,56,71469,2,0,B|236:56|236:112|288:96,1,120
424,312,71911,5,0,0:0:0:0:
424,312,72131,1,0,0:0:0:0:
312,240,72352,1,0,0:0:0:0:
228,328,72793,1,0,0:0:0:0:
224,324,73013,1,0,0:0:0:0:
144,256,73234,1,0,0:0:0:0:
444,168,73675,6,0,P|428:112|400:100,1,80
264,204,74116,2,0,L|204:148,1,80
112,244,74557,2,0,P|128:292|172:308,1,80
344,316,74999,2,0,P|392:284|416:252,1,80
368,72,75440,5,0,0:0:0:0:
88,204,75661,1,0,0:0:0:0:
80,116,75881,1,0,0:0:0:0:
444,160,76102,1,0,0:0:0:0:
116,308,76322,1,0,0:0:0:0:
92,144,76543,1,0,0:0:0:0:
400,280,76763,1,0,0:0:0:0:
416,116,76984,1,0,0:0:0:0:
252,308,77205,1,0,0:0:0:0:
112,116,77425,1,0,0:0:0:0:
252,308,77646,1,0,0:0:0:0:
404,116,77866,1,0,0:0:0:0:
260,180,78087,1,0,0:0:0:0:
136,228,78308,1,0,0:0:0:0:
184,324,78528,2,0,B|276:324|276:268|224:284,1,120
88,312,78970,5,0,0:0:0:0:
88,312,79190,1,0,0:0:0:0:
200,240,79411,1,0,0:0:0:0:
284,328,79853,1,0,0:0:0:0:
288,324,80073,1,0,0:0:0:0:
368,256,80294,1,0,0:0:0:0:
68,168,80735,6,0,P|84:112|112:100,1,80
248,204,81176,2,0,L|308:148,1,80
400,244,81617,2,0,P|384:292|340:308,1,80
168,316,82059,2,0,P|120:284|96:252,1,80
144,72,82500,5,0,0:0:0:0:
424,204,82721,1,0,0:0:0:0:
432,116,82941,1,0,0:0:0:0:
68,160,83162,1,0,0:0:0:0:
396,308,83382,1,0,0:0:0:0:
420,144,83603,1,0,0:0:0:0:
112,280,83823,1,0,0:0:0:0:
96,116,84044,1,0,0:0:0:0:
260,308,84265,1,0,0:0:0:0:
400,116,84485,1,0,0:0:0:0:
260,308,84706,1,0,0:0:0:0:
108,116,84926,1,0,0:0:0:0:
252,180,85147,1,0,0:0:0:0:
376,228,85368,1,0,0:0:0:0:
328,324,85588,2,0,B|236:324|236:268|288:284,1,120
72,96,86029,5,0,0:0:0:0:
252,268,86360,1,0,0:0:0:0:
308,96,86801,2,0,P|348:64|416:72,1,120
400,180,87462,1,0,0:0:0:0:
396,216,87573,1,0,0:0:0:0:
384,256,87683,1,0,0:0:0:0:
264,196,87904,1,0,0:0:0:0:
264,196,88125,1,0,0:0:0:0:
108,92,88345,1,0,0:0:0:0:
100,244,88565,1,0,0:0:0:0:
328,52,89228,1,0,0:0:0:0:
368,72,89338,1,0,0:0:0:0:
380,108,89448,1,0,0:0:0:0:
392,200,89668,1,0,0:0:0:0:
248,132,89889,1,0,0:0:0:0:
120,224,90110,1,0,0:0:0:0:
136,64,90330,2,0,P|96:44|104:48,3,40
136,64,90771,1,0,0:0:0:0:
224,248,90992,1,0,0:0:0:0:
336,76,91212,1,0,0:0:0:0:
404,268,91433,1,0,0:0:0:0:
240,124,91654,1,0,0:0:0:0:
100,240,91874,1,0,0:0:0:0:
380,124,92095,1,0,0:0:0:0:
412,108,92757,5,0,0:0:0:0:
180,68,92978,1,0,0:0:0:0:
396,204,93199,1,0,0:0:0:0:
164,172,93419,1,0,0:0:0:0:
388,296,93640,1,0,0:0:0:0:
152,296,93860,1,0,0:0:0:0:
128,92,94521,5,0,0:0:0:0:
128,132,94632,1,0,0:0:0:0:
128,168,94742,1,0,0:0:0:0:
304,92,94963,1,0,0:0:0:0:
160,248,95183,1,0,0:0:0:0:
124,88,95404,1,0,0:0:0:0:
304,248,95624,1,0,0:0:0:0:
420,68,96286,5,0,0:0:0:0:
360,276,96507,1,0,0:0:0:0:
260,72,96727,1,0,0:0:0:0:
200,272,96948,1,0,0:0:0:0:
120,76,97168,1,0,0:0:0:0:
64,272,97389,1,0,0:0:0:0:
196,140,97610,1,0,0:0:0:0:
272,220,97830,1,0,0:0:0:0:
311,228,97940,1,0,0:0:0:0:
350,221,98050,1,0,0:0:0:0:
400,88,98271,5,0,0:0:0:0:
112,68,98492,1,0,0:0:0:0:
128,272,98713,1,0,0:0:0:0:
368,264,98933,1,0,0:0:0:0:
328,64,99154,1,0,0:0:0:0:
380,76,99926,5,0,0:0:0:0:
356,224,100146,2,0,P|328:260|280:272,1,80
236,152,100588,1,0,0:0:0:0:
88,160,100808,2,0,P|84:104|112:80,1,80
244,64,101249,1,0,0:0:0:0:
312,152,101470,2,0,P|300:200|312:236,1,80
404,188,101911,1,0,0:0:0:0:
396,296,102132,2,0,P|344:344|320:336,1,80
256,264,102573,1,0,0:0:0:0:
52,256,102793,2,0,B|64:212|120:224|140:188|88:172,1,120
188,180,103124,2,0,B|164:212|220:224|240:188|188:172,1,80
344,96,103455,6,0,P|396:104|428:132,1,80
320,264,103896,2,0,P|296:296|248:304,1,80
208,240,104338,1,0,0:0:0:0:
144,28,104558,1,0,0:0:0:0:
184,248,104779,1,0,0:0:0:0:
208,72,104999,1,0,0:0:0:0:
416,128,105220,1,0,0:0:0:0:
88,272,105440,1,0,0:0:0:0:
236,36,105661,1,0,0:0:0:0:
400,308,105882,1,0,0:0:0:0:
204,136,106102,1,0,0:0:0:0:
320,148,106323,2,0,B|276:253|276:253|200:208,1,180.000006866455
424,312,106984,5,0,0:0:0:0:
424,312,107204,1,0,0:0:0:0:
312,240,107425,1,0,0:0:0:0:
228,328,107867,1,0,0:0:0:0:
224,324,108087,1,0,0:0:0:0:
144,256,108308,1,0,0:0:0:0:
444,168,108749,6,0,P|428:112|400:100,1,80
264,204,109190,2,0,L|204:148,1,80
112,244,109631,2,0,P|128:292|172:308,1,80
344,316,110073,2,0,P|392:284|416:252,1,80
368,72,110514,5,0,0:0:0:0:
88,204,110735,1,0,0:0:0:0:
80,116,110955,1,0,0:0:0:0:
444,160,111176,1,0,0:0:0:0:
116,308,111396,1,0,0:0:0:0:
92,144,111617,1,0,0:0:0:0:
400,280,111837,1,0,0:0:0:0:
416,116,112058,1,0,0:0:0:0:
252,308,112279,1,0,0:0:0:0:
112,116,112499,1,0,0:0:0:0:
252,308,112720,1,0,0:0:0:0:
404,116,112940,1,0,0:0:0:0:
260,180,113161,1,0,0:0:0:0:
136,228,113382,1,0,0:0:0:0:
184,324,113602,2,0,B|276:324|276:268|224:284,1,120
88,72,114043,5,0,0:0:0:0:
88,72,114263,1,0,0:0:0:0:
200,144,114484,1,0,0:0:0:0:
284,56,114926,1,0,0:0:0:0:
288,60,115146,1,0,0:0:0:0:
368,128,115367,1,0,0:0:0:0:
68,216,115808,6,0,P|84:272|112:284,1,80
248,180,116249,2,0,L|308:236,1,80
400,140,116690,2,0,P|384:92|340:76,1,80
168,68,117132,2,0,P|120:100|96:132,1,80
144,312,117573,5,0,0:0:0:0:
424,180,117794,1,0,0:0:0:0:
432,268,118014,1,0,0:0:0:0:
68,224,118235,1,0,0:0:0:0:
396,76,118455,1,0,0:0:0:0:
420,240,118676,1,0,0:0:0:0:
112,104,118896,1,0,0:0:0:0:
96,268,119117,1,0,0:0:0:0:
260,76,119338,1,0,0:0:0:0:
400,268,119558,1,0,0:0:0:0:
260,76,119779,1,0,0:0:0:0:
108,268,119999,1,0,0:0:0:0:
252,204,120220,1,0,0:0:0:0:
252,204,120441,1,0,0:0:0:0:
328,60,120661,2,0,B|236:60|236:116|288:100,1,120
72,96,121102,5,0,0:0:0:0:
252,268,121433,1,0,0:0:0:0:
308,96,121874,2,0,P|348:64|416:72,1,120
400,180,122535,1,0,0:0:0:0:
396,216,122646,1,0,0:0:0:0:
384,256,122756,1,0,0:0:0:0:
264,196,122977,1,0,0:0:0:0:
264,196,123198,1,0,0:0:0:0:
108,92,123418,1,0,0:0:0:0:
100,244,123638,1,0,0:0:0:0:
328,52,124301,1,0,0:0:0:0:
368,72,124411,1,0,0:0:0:0:
380,108,124521,1,0,0:0:0:0:
392,200,124741,1,0,0:0:0:0:
248,132,124962,1,0,0:0:0:0:
120,224,125183,1,0,0:0:0:0:
136,64,125403,2,0,P|96:44|104:48,4,40
136,64,126065,1,0,0:0:0:0:
224,248,126286,1,0,0:0:0:0:
336,76,126506,1,0,0:0:0:0:
404,268,126727,1,0,0:0:0:0:
240,124,126948,1,0,0:0:0:0:
100,240,127168,1,0,0:0:0:0:
100,108,127830,5,0,0:0:0:0:
332,68,128051,1,0,0:0:0:0:
116,204,128272,1,0,0:0:0:0:
348,172,128492,1,0,0:0:0:0:
124,296,128713,1,0,0:0:0:0:
360,296,128933,1,0,0:0:0:0:
384,92,129594,5,0,0:0:0:0:
384,132,129705,1,0,0:0:0:0:
384,168,129815,1,0,0:0:0:0:
208,92,130036,1,0,0:0:0:0:
352,248,130256,1,0,0:0:0:0:
388,88,130477,1,0,0:0:0:0:
208,248,130697,1,0,0:0:0:0:
92,68,131359,5,0,0:0:0:0:
152,276,131580,1,0,0:0:0:0:
252,72,131800,1,0,0:0:0:0:
312,272,132021,1,0,0:0:0:0:
392,76,132241,1,0,0:0:0:0:
448,272,132462,1,0,0:0:0:0:
316,140,132683,1,0,0:0:0:0:
240,220,132903,1,0,0:0:0:0:
201,228,133013,1,0,0:0:0:0:
162,221,133123,1,0,0:0:0:0:
112,88,133344,5,0,0:0:0:0:
400,68,133565,1,0,0:0:0:0:
384,272,133786,1,0,0:0:0:0:
144,264,134006,1,0,0:0:0:0:
184,64,134227,1,0,0:0:0:0:
88,312,135000,5,0,0:0:0:0:
88,312,135220,1,0,0:0:0:0:
200,240,135441,1,0,0:0:0:0:
284,328,135882,1,0,0:0:0:0:
288,324,136102,1,0,0:0:0:0:
368,256,136323,1,0,0:0:0:0:
68,168,136764,6,0,P|84:112|112:100,1,80
248,204,137205,2,0,L|308:148,1,80
400,244,137646,2,0,P|384:292|340:308,1,80
168,316,138088,2,0,P|120:284|96:252,1,80
144,72,138529,5,0,0:0:0:0:
424,204,138750,1,0,0:0:0:0:
432,116,138970,1,0,0:0:0:0:
68,160,139191,1,0,0:0:0:0:
396,308,139411,1,0,0:0:0:0:
420,144,139632,1,0,0:0:0:0:
112,280,139852,1,0,0:0:0:0:
96,116,140073,1,0,0:0:0:0:
260,308,140294,1,0,0:0:0:0:
400,116,140514,1,0,0:0:0:0:
260,308,140735,1,0,0:0:0:0:
108,116,140955,1,0,0:0:0:0:
252,180,141176,1,0,0:0:0:0:
376,228,141397,1,0,0:0:0:0:
328,324,141617,2,0,B|236:324|236:268|288:284,1,120
136,156,142058,5,0,0:0:0:0:
260,204,142278,1,0,0:0:0:0:
404,268,142499,1,0,0:0:0:0:
252,76,142719,1,0,0:0:0:0:
112,268,142940,1,0,0:0:0:0:
252,76,143160,5,0,0:0:0:0:
416,268,143381,1,0,0:0:0:0:
400,104,143602,1,0,0:0:0:0:
92,240,143822,1,0,0:0:0:0:
116,76,144043,5,0,0:0:0:0:
444,224,144263,1,0,0:0:0:0:
80,268,144484,1,0,0:0:0:0:
88,180,144704,1,0,0:0:0:0:
368,312,144925,1,0,0:0:0:0:
406,116,145146,2,0,P|378:88|344:68,1,80
152,80,145588,6,0,P|120:103|112:141,1,80
205,234,146029,2,0,L|264:180,1,80
412,281,146470,2,0,P|441:254|444:216,1,80
144,128,146911,1,0,0:0:0:0:
224,60,147132,1,0,0:0:0:0:
228,56,147352,1,0,0:0:0:0:
312,144,147573,1,0,0:0:0:0:
424,72,147794,1,0,0:0:0:0:
424,72,148014,1,0,0:0:0:0:
112,212,148235,1,0,0:0:0:0:
344,284,148455,1,0,0:0:0:0:
404,76,148676,1,0,0:0:0:0:
172,32,148896,1,0,0:0:0:0:
88,72,149117,5,0,0:0:0:0:
88,72,149337,1,0,0:0:0:0:
200,144,149558,1,0,0:0:0:0:
284,56,149999,1,0,0:0:0:0:
288,60,150219,1,0,0:0:0:0:
368,128,150440,1,0,0:0:0:0:
68,216,150881,6,0,P|84:272|112:284,1,80
248,180,151322,2,0,L|308:236,1,80
400,140,151763,2,0,P|384:92|340:76,1,80
168,68,152205,2,0,P|120:100|96:132,1,80
144,312,152646,5,0,0:0:0:0:
424,180,152867,1,0,0:0:0:0:
432,268,153087,1,0,0:0:0:0:
68,224,153308,1,0,0:0:0:0:
396,76,153528,1,0,0:0:0:0:
420,240,153749,1,0,0:0:0:0:
112,104,153969,1,0,0:0:0:0:
96,268,154190,1,0,0:0:0:0:
260,76,154411,1,0,0:0:0:0:
400,268,154631,1,0,0:0:0:0:
260,76,154852,1,0,0:0:0:0:
108,268,155072,1,0,0:0:0:0:
252,204,155293,1,0,0:0:0:0:
376,156,155514,1,0,0:0:0:0:
328,60,155734,2,0,B|236:60|236:116|288:100,1,120
376,156,156286,5,0,0:0:0:0:
252,204,156506,1,0,0:0:0:0:
108,268,156727,1,0,0:0:0:0:
260,76,156947,1,0,0:0:0:0:
400,268,157168,1,0,0:0:0:0:
260,76,157388,5,0,0:0:0:0:
96,268,157609,1,0,0:0:0:0:
112,104,157830,1,0,0:0:0:0:
420,240,158050,1,0,0:0:0:0:
396,76,158271,5,0,0:0:0:0:
68,224,158491,1,0,0:0:0:0:
432,268,158712,1,0,0:0:0:0:
424,180,158932,1,0,0:0:0:0:
144,312,159153,1,0,0:0:0:0:
105,116,159374,2,0,P|133:88|168:68,1,80
360,80,159816,6,0,P|391:103|399:141,1,80
306,234,160257,2,0,L|248:180,1,80
99,281,160698,2,0,P|70:254|68:216,1,80
368,128,161139,1,0,0:0:0:0:
288,60,161360,1,0,0:0:0:0:
284,56,161580,1,0,0:0:0:0:
200,144,161801,1,0,0:0:0:0:
88,72,162022,1,0,0:0:0:0:
88,72,162242,1,0,0:0:0:0:
400,212,162463,1,0,0:0:0:0:
168,284,162683,1,0,0:0:0:0:
108,76,162904,1,0,0:0:0:0:
72,96,163235,5,0,0:0:0:0:
252,268,163566,1,0,0:0:0:0:
308,96,164007,2,0,P|348:64|416:72,1,120
400,180,164668,1,0,0:0:0:0:
396,216,164779,1,0,0:0:0:0:
384,256,164889,1,0,0:0:0:0:
264,196,165110,1,0,0:0:0:0:
264,196,165331,1,0,0:0:0:0:
108,92,165551,1,0,0:0:0:0:
100,244,165771,1,0,0:0:0:0:
328,52,166434,1,0,0:0:0:0:
368,72,166544,1,0,0:0:0:0:
380,108,166654,1,0,0:0:0:0:
392,200,166874,1,0,0:0:0:0:
248,132,167095,1,0,0:0:0:0:
120,224,167316,1,0,0:0:0:0:
136,64,167536,2,0,P|96:44|104:48,4,40
136,64,168198,1,0,0:0:0:0:
224,248,168419,1,0,0:0:0:0:
336,76,168639,1,0,0:0:0:0:
404,268,168860,1,0,0:0:0:0:
240,124,169081,1,0,0:0:0:0:
100,240,169301,1,0,0:0:0:0:
100,108,169963,5,0,0:0:0:0:
332,68,170184,1,0,0:0:0:0:
116,204,170405,1,0,0:0:0:0:
348,172,170625,1,0,0:0:0:0:
124,296,170846,1,0,0:0:0:0:
360,296,171066,1,0,0:0:0:0:
384,92,171727,5,0,0:0:0:0:
384,132,171838,1,0,0:0:0:0:
384,168,171948,1,0,0:0:0:0:
208,92,172169,1,0,0:0:0:0:
352,248,172389,1,0,0:0:0:0:
208,248,172830,1,0,0:0:0:0:
424,56,173492,5,0,0:0:0:0:
424,56,173713,1,0,0:0:0:0:
416,232,173933,1,0,0:0:0:0:
416,232,174154,1,0,0:0:0:0:
232,144,174374,1,0,0:0:0:0:
92,240,174595,2,0,P|56:264|48:284,2,40
100,80,175036,1,0,0:0:0:0:
100,80,175146,1,0,0:0:0:0:
96,80,175257,1,0,0:0:0:0:
260,48,175477,5,0,0:0:0:0:
396,240,175698,1,0,0:0:0:0:
380,52,175918,1,0,0:0:0:0:
256,236,176139,1,0,0:0:0:0:
256,236,176360,1,0,0:0:0:0:
