osu file format v14

[General]
AudioFilename: audio.mp3
AudioLeadIn: 0
PreviewTime: 29955
Countdown: 0
SampleSet: Soft
StackLeniency: 0.5
Mode: 0
LetterboxInBreaks: 0
WidescreenStoryboard: 1

[Editor]
DistanceSpacing: 1.1
BeatDivisor: 4
GridSize: 4
TimelineZoom: 1.5

[Metadata]
Title:WONDERFUL WONDER (TV Size)
TitleUnicode:WONDERFUL WONDER (TV Size)
Artist:EDOGA-SULLIVAN
ArtistUnicode:エドガー・サリヴァン
Creator:wafer
Version:Hard
Source:みだらな青ちゃんは勉強ができない
Tags:Midara na Ao-chan wa Benkyou ga Dekinai Ao-chan Can't Study! Opening Japanese Anime 佐々木萌 Moe Sasaki 坂本遥 Haruka Sakamoto iwaifu nana abe takeki hanasaka yui [mad] mad takekii wenect unranked mapper mimari never log off
BeatmapID:2183818
BeatmapSetID:1044450

[Difficulty]
HPDrainRate:4.6
CircleSize:3.8
OverallDifficulty:6.5
ApproachRate:7.5
SliderMultiplier:1.4
SliderTickRate:1

[Events]
//Background and Video events
0,0,"e67924ec9075aa9a755029973822817e9593c470_s2_n1.jpg",0,0
//Break Periods
//Storyboard Layer 0 (Background)
//Storyboard Layer 1 (Fail)
//Storyboard Layer 2 (Pass)
//Storyboard Layer 3 (Foreground)
//Storyboard Layer 4 (Overlay)
//Storyboard Sound Samples

[TimingPoints]
49,375,4,2,1,60,1,0
17486,-100,4,2,1,65,0,0
17674,-100,4,2,1,70,0,0
17861,-100,4,2,1,75,0,0
18049,-90.9090909090909,4,2,1,80,0,0
19830,-90.9090909090909,4,2,1,5,0,0
19924,-90.9090909090909,4,2,1,80,0,0
20205,-90.9090909090909,4,2,1,5,0,0
20299,-90.9090909090909,4,2,1,80,0,0
22830,-90.9090909090909,4,2,1,5,0,0
22924,-90.9090909090909,4,2,1,80,0,0
23205,-90.9090909090909,4,2,1,5,0,0
23299,-90.9090909090909,4,2,1,80,0,0
25830,-90.9090909090909,4,2,1,5,0,0
25924,-90.9090909090909,4,2,1,80,0,0
26205,-90.9090909090909,4,2,1,5,0,0
26299,-90.9090909090909,4,2,1,80,0,0
27049,-83.3333333333333,4,2,1,80,0,0
27330,-83.3333333333333,4,2,1,5,0,0
27424,-83.3333333333333,4,2,1,80,0,0
27892,-83.3333333333333,4,2,1,5,0,0
27986,-83.3333333333333,4,2,1,80,0,0
28174,-250,4,2,1,80,0,0
28549,-250,4,2,1,5,0,0
29299,-250,4,2,2,70,0,0
29674,-250,4,2,3,60,0,0
30049,-83.3333333333333,4,2,1,100,0,0
39049,-90.9090909090909,4,2,1,100,0,0
42049,-83.3333333333333,4,2,1,100,0,0
51049,-90.9090909090909,4,2,1,100,0,0
54049,-100,4,2,1,90,0,0
57236,-100,4,2,1,30,0,0

[Colours]
Combo1 : 132,193,255
Combo2 : 128,128,192
Combo3 : 255,128,192

[HitObjects]
61,96,5486,5,0,3:0:0:0:
61,96,5674,2,0,P|69:130|69:176,1,70,8|0,3:2|3:0,0:0:0:0:
44,237,6049,6,0,P|101:198|171:219,1,140,4|8,3:2|3:2,0:0:0:0:
236,263,6611,1,0,0:0:0:0:
236,263,6799,2,0,P|236:234|264:184,1,70,0|0,0:0|3:0,0:0:0:0:
318,158,7174,2,0,B|390:151|373:208|452:199,1,140,8|0,3:2|3:0,0:0:0:0:
488,134,7736,1,0,0:0:0:0:
488,134,7924,2,0,P|465:81|373:62,1,140,8|0,3:2|0:0,0:0:0:0:
316,88,8486,1,0,3:0:0:0:
316,88,8674,2,0,L|318:184,1,70,8|0,3:2|3:0,0:0:0:0:
375,208,9049,6,0,B|363:241|363:241|373:304,1,70,4|0,3:2|0:0,0:0:0:0:
301,313,9424,2,0,P|259:324|214:306,1,70,8|0,3:2|0:0,0:0:0:0:
198,249,9799,1,0,0:0:0:0:
198,249,9986,1,0,3:0:0:0:
160,181,10174,5,8,3:2:0:0:
105,324,10549,1,0,3:0:0:0:
7,204,10924,2,0,P|7:175|35:125,1,70,8|0,3:2|0:0,0:0:0:0:
167,84,11486,2,0,P|167:55|139:5,2,70,0|8|0,3:0|3:2|3:0,0:0:0:0:
169,164,12049,5,4,3:2:0:0:
169,164,12236,1,0,0:0:0:0:
241,136,12424,2,0,L|330:128,1,70,8|0,3:2|0:0,0:0:0:0:
363,75,12799,2,0,L|452:83,1,70,0|0,0:0|3:0,0:0:0:0:
453,155,13174,2,0,L|364:163,1,70,8|0,3:2|0:0,0:0:0:0:
318,202,13549,2,0,B|304:239|304:239|315:342,1,140,0|8,3:0|3:2,0:0:0:0:
393,346,14111,1,0,0:0:0:0:
385,186,14486,2,0,P|356:186|306:214,2,70,0|8|0,3:0|3:2|3:0,0:0:0:0:
426,250,15049,5,4,3:2:0:0:
351,279,15236,1,0,0:0:0:0:
351,279,15424,2,0,L|262:287,1,70,8|0,3:2|0:0,0:0:0:0:
210,255,15799,2,0,P|170:238|133:248,1,70,0|0,0:0|3:0,0:0:0:0:
99,304,16174,2,0,P|139:321|176:311,1,70,8|0,3:2|0:0,0:0:0:0:
144,242,16549,2,0,P|140:194|118:98,1,140,0|8,3:0|3:2,0:0:0:0:
54,65,17111,1,0,0:0:0:0:
197,8,17486,1,0,3:0:0:0:
250,67,17674,2,0,B|278:83|278:83|320:73,1,70,8|0,3:2|3:0,0:0:0:0:
440,31,18049,6,0,P|389:88|379:163,1,154.000004699707,4|8,3:2|3:2,0:0:0:0:
405,243,18611,2,0,B|337:270|338:186|254:225,1,154.000004699707,0|0,0:0|3:0,0:0:0:0:
205,287,19174,1,8,3:2:0:0:
129,248,19361,1,0,0:0:0:0:
55,290,19549,2,0,P|47:228|9:122,1,154.000004699707,0|8,3:0|3:2,0:0:0:0:
131,267,20299,2,0,L|195:314,1,77.0000023498536,0|0,0:0|3:0,0:0:0:0:
275,292,20674,2,0,B|307:277|307:277|361:298,1,77.0000023498536,8|0,3:2|3:0,0:0:0:0:
467,344,21049,6,0,B|399:317|400:401|316:362,1,154.000004699707,4|8,3:2|3:2,0:0:0:0:
275,292,21611,2,0,P|246:220|262:147,1,154.000004699707,0|0,0:0|3:0,0:0:0:0:
314,79,22174,1,8,3:2:0:0:
238,40,22361,1,0,3:0:0:0:
159,73,22549,2,0,B|120:85|120:85|0:49,2,154.000004699707,0|8|0,3:0|3:2|0:0,0:0:0:0:
238,40,23486,1,0,3:0:0:0:
314,79,23674,2,0,P|311:118|281:159,1,77.0000023498536,8|0,3:2|3:0,0:0:0:0:
153,158,24049,6,0,P|219:179|241:262,1,154.000004699707,4|8,3:2|3:2,0:0:0:0:
184,323,24611,2,0,B|139:359|98:366|98:366|59:355|36:328,1,154.000004699707,0|0,0:0|3:0,0:0:0:0:
55,255,25174,2,0,L|203:232,1,115.50000352478,8|0,3:2|0:0,0:0:0:0:
216,248,25549,2,0,L|364:271,1,115.50000352478,0|0,3:0|0:0,0:0:0:0:
373,250,25924,2,0,P|441:255|478:327,2,154.000004699707,8|0|8,3:2|0:0|3:2,0:0:0:0:
337,335,26861,1,0,3:0:0:0:
337,335,27049,6,0,B|292:275|292:275|310:155,1,167.999994873047,4|8,3:2|3:2,0:0:0:0:
273,60,27611,2,0,B|243:128|243:128|130:173,1,167.999994873047,0|0,3:0|0:0,0:0:0:0:
32,21,28174,6,0,B|106:12|106:12|201:87,1,167.999994873047,4|0,3:0|0:0,0:0:0:0:
179,69,30049,6,0,P|221:90|276:78,1,83.9999974365235,4|0,3:2|3:0,0:0:0:0:
363,112,30424,2,0,P|323:137|306:191,1,83.9999974365235,8|0,3:2|0:0,0:0:0:0:
407,265,30799,2,0,P|404:218|366:176,1,83.9999974365235,0|0,3:0|3:0,0:0:0:0:
319,277,31174,1,8,3:2:0:0:
218,234,31361,1,0,0:0:0:0:
146,365,31549,6,0,B|250:375|208:309|339:324,1,167.999994873047,4|8,3:2|3:2,0:0:0:0:
405,363,32111,1,0,3:0:0:0:
429,145,32486,2,0,L|525:136,1,83.9999974365235,0|8,3:0|3:2,0:0:0:0:
445,223,32861,1,0,3:0:0:0:
313,149,33049,6,0,P|271:128|216:140,1,83.9999974365235,4|0,3:2|0:0,0:0:0:0:
135,84,33424,2,0,P|137:130|175:172,1,83.9999974365235,8|0,3:2|3:0,0:0:0:0:
169,269,33799,2,0,P|208:243|225:189,1,83.9999974365235,0|0,0:0|3:0,0:0:0:0:
91,207,34174,1,8,3:2:0:0:
91,207,34361,1,0,0:0:0:0:
22,359,34549,6,0,P|24:302|0:179,1,167.999994873047,4|8,3:2|3:2,0:0:0:0:
41,90,35111,1,0,3:0:0:0:
243,8,35486,2,0,L|333:17,2,83.9999974365235,0|8|0,3:0|3:2|0:0,0:0:0:0:
351,114,36049,6,0,P|270:114|221:178,1,167.999994873047,4|8,3:2|3:2,0:0:0:0:
378,205,36611,2,0,P|321:147|241:158,1,167.999994873047,0|0,3:0|3:0,0:0:0:0:
192,256,37174,1,8,3:2:0:0:
192,256,37361,1,0,3:0:0:0:
345,342,37549,6,0,B|287:336|287:336|260:298|260:298|184:282,1,167.999994873047,4|8,3:2|3:2,0:0:0:0:
105,343,38111,2,0,P|64:347|25:318,1,83.9999974365235,0|0,3:0|0:0,0:0:0:0:
12,216,38486,2,0,B|55:221|55:221|90:274,2,83.9999974365235,0|8|0,3:0|3:2|3:0,0:0:0:0:
109,88,39049,6,0,P|101:134|104:172,1,77.0000023498536,4|0,3:2|0:0,0:0:0:0:
193,206,39424,2,0,B|211:170|211:170|197:127,1,77.0000023498536,8|0,3:2|0:0,0:0:0:0:
78,60,39799,6,0,B|163:67|127:12|253:20,1,154.000004699707,0|8,3:0|3:2,0:0:0:0:
311,65,40361,2,0,P|384:78|423:13,1,154.000004699707,0|0,3:0|3:0,0:0:0:0:
465,109,40924,1,8,3:2:0:0:
408,191,41111,1,0,3:0:0:0:
408,191,41299,1,0,0:0:0:0:
457,317,41486,2,0,P|425:287|359:282,1,77.0000023498536,0|8,3:0|3:2,0:0:0:0:
348,299,41767,1,8,3:2:0:0:
348,299,41861,1,0,3:0:0:0:
164,342,42049,6,0,P|206:321|261:333,1,83.9999974365235,4|0,3:2|3:0,0:0:0:0:
348,299,42424,2,0,P|308:274|291:220,1,83.9999974365235,8|0,3:2|0:0,0:0:0:0:
392,146,42799,2,0,P|389:193|351:235,1,83.9999974365235,0|0,3:0|3:0,0:0:0:0:
304,134,43174,1,8,3:2:0:0:
203,177,43361,1,0,0:0:0:0:
59,138,43549,6,0,B|115:140|149:183|149:183|171:162|216:161,1,167.999994873047,4|8,3:2|3:2,0:0:0:0:
302,122,44111,1,0,3:0:0:0:
109,18,44486,2,0,L|99:101,1,83.9999974365235,0|8,3:0|3:2,0:0:0:0:
37,191,44861,1,0,0:0:0:0:
157,335,45049,6,0,P|178:293|166:238,1,83.9999974365235,4|0,3:2|0:0,0:0:0:0:
222,157,45424,2,0,P|176:159|134:197,1,83.9999974365235,8|0,3:2|3:0,0:0:0:0:
37,191,45799,2,0,P|63:230|117:247,1,83.9999974365235,0|0,0:0|3:0,0:0:0:0:
84,126,46174,1,8,3:2:0:0:
84,126,46361,1,0,0:0:0:0:
198,237,46549,6,0,B|227:265|267:269|267:269|318:261|378:215,1,167.999994873047,4|8,3:2|3:2,0:0:0:0:
430,160,47111,1,0,3:0:0:0:
254,30,47486,2,0,P|250:75|263:120,2,83.9999974365235,0|8|0,3:0|3:2|0:0,0:0:0:0:
401,135,48049,6,0,L|206:142,1,167.999994873047,4|8,3:2|3:2,0:0:0:0:
430,160,48611,2,0,L|235:167,1,167.999994873047,0|0,0:0|3:0,0:0:0:0:
206,260,49174,1,8,3:2:0:0:
206,260,49361,1,0,0:0:0:0:
348,328,49549,6,0,P|282:338|221:253,1,167.999994873047,4|8,3:2|3:2,0:0:0:0:
130,208,50111,2,0,L|126:302,1,83.9999974365235,0|0,3:0|0:0,0:0:0:0:
37,355,50486,2,0,B|73:370|73:370|125:364,2,83.9999974365235,0|8|0,3:0|3:2|0:0,0:0:0:0:
29,189,51049,6,0,B|17:223|17:223|35:259,1,77.0000023498536,4|0,3:2|0:0,0:0:0:0:
130,208,51424,2,0,P|131:169|123:131,1,77.0000023498536,8|0,3:2|0:0,0:0:0:0:
21,47,51799,6,0,B|60:76|60:76|191:37,1,154.000004699707,0|8,3:0|3:2,0:0:0:0:
260,35,52361,2,0,P|333:22|372:87,1,154.000004699707,0|0,3:0|3:0,0:0:0:0:
343,178,52924,1,8,3:2:0:0:
248,146,53111,1,0,3:0:0:0:
366,86,53299,1,8,3:2:0:0:
422,277,53674,1,8,3:2:0:0:
468,100,54049,6,0,B|408:116|408:116|468:172,1,140,4|8,3:2|3:2,0:0:0:0:
379,198,54611,2,0,B|353:293|353:293|313:238,1,140,0|8,3:0|3:2,0:0:0:0:
258,198,55174,2,0,B|283:293|283:293|323:238,1,140,0|8,3:0|3:2,0:0:0:0:
120,151,55736,2,0,B|180:167|180:167|120:223,1,140,0|0,3:0|3:0,0:0:0:0:
31,96,56299,5,0,3:0:0:0:
19,111,56674,2,0,P|12:176|34:330,1,210,4|0,3:0|0:0,0:0:0:0:
