osu file format v14

[General]
AudioFilename: audio.mp3
AudioLeadIn: 0
PreviewTime: 29955
Countdown: 0
SampleSet: Soft
StackLeniency: 0.5
Mode: 0
LetterboxInBreaks: 0
WidescreenStoryboard: 0

[Editor]
DistanceSpacing: 2
BeatDivisor: 4
GridSize: 4
TimelineZoom: 1.5

[Metadata]
Title:WONDERFUL WONDER (TV Size)
TitleUnicode:WONDERFUL WONDER (TV Size)
Artist:EDOGA-SULLIVAN
ArtistUnicode:エドガー・サリヴァン
Creator:wafer
Version:Charm
Source:みだらな青ちゃんは勉強ができない
Tags:Midara na Ao-chan wa Benkyou ga Dekinai Ao-chan Can't Study! Opening Japanese Anime 佐々木萌 Moe Sasaki 坂本遥 Haruka Sakamoto iwaifu nana abe takeki hanasaka yui [mad] mad takekii wenect unranked mapper mimari never log off
BeatmapID:2183434
BeatmapSetID:1044450

[Difficulty]
HPDrainRate:4.6
CircleSize:4
OverallDifficulty:8
ApproachRate:8.4
SliderMultiplier:1.7
SliderTickRate:1

[Events]
//Background and Video events
0,0,"e67924ec9075aa9a755029973822817e9593c470_s2_n1.jpg",0,0
//Break Periods
//Storyboard Layer 0 (Background)
//Storyboard Layer 1 (Fail)
//Storyboard Layer 2 (Pass)
//Storyboard Layer 3 (Foreground)
//Storyboard Layer 4 (Overlay)
//Storyboard Sound Samples

[TimingPoints]
49,375,4,2,1,60,1,0
17486,-100,4,2,1,65,0,0
17674,-100,4,2,1,70,0,0
17861,-100,4,2,1,75,0,0
18049,-90.9090909090909,4,2,1,80,0,0
19830,-90.9090909090909,4,2,1,5,0,0
19924,-90.9090909090909,4,2,1,80,0,0
20205,-90.9090909090909,4,2,1,5,0,0
20299,-90.9090909090909,4,2,1,80,0,0
22830,-90.9090909090909,4,2,1,5,0,0
22924,-90.9090909090909,4,2,1,80,0,0
23205,-90.9090909090909,4,2,1,5,0,0
23299,-90.9090909090909,4,2,1,80,0,0
24049,-83.3333333333333,4,2,1,80,0,0
25830,-83.3333333333333,4,2,1,5,0,0
25924,-83.3333333333333,4,2,1,80,0,0
26205,-83.3333333333333,4,2,1,5,0,0
26299,-83.3333333333333,4,2,1,80,0,0
27049,-66.6666666666667,4,2,1,80,0,0
27330,-66.6666666666667,4,2,1,5,0,0
27424,-66.6666666666667,4,2,1,80,0,0
27892,-66.6666666666667,4,2,1,5,0,0
27986,-66.6666666666667,4,2,1,80,0,0
28174,-227.272727272727,4,2,1,80,0,0
28549,-227.272727272727,4,2,1,5,0,0
29299,-227.272727272727,4,2,2,70,0,0
29674,-227.272727272727,4,2,3,60,0,0
30049,-76.9230769230769,4,2,1,100,0,0
36049,-71.4285714285714,4,2,1,100,0,0
36611,-83.3333333333333,4,2,1,100,0,0
37174,-100,4,2,1,100,0,0
37549,-83.3333333333333,4,2,1,100,0,0
42049,-76.9230769230769,4,2,1,100,0,0
48049,-71.4285714285714,4,2,1,100,0,0
48611,-83.3333333333333,4,2,1,100,0,0
49174,-100,4,2,1,100,0,0
49549,-83.3333333333333,4,2,1,100,0,0
54049,-100,4,2,1,90,0,0
56674,-125,4,2,1,90,0,0
57236,-125,4,2,1,30,0,0

[Colours]
Combo1 : 132,193,255
Combo2 : 128,128,192
Combo3 : 255,128,192

[HitObjects]
53,199,5486,5,0,3:0:0:0:
68,102,5674,2,0,P|69:139|69:222,1,85,8|0,3:2|3:0,0:0:0:0:
199,344,6049,6,0,B|106:347|147:266|26:287,1,170,4|8,3:2|3:2,0:0:0:0:
187,245,6611,1,0,0:0:0:0:
202,333,6799,2,0,P|186:274|197:248,1,85,0|0,0:0|3:0,0:0:0:0:
414,262,7174,6,0,B|385:301|385:301|264:289,1,170,8|0,3:2|3:0,0:0:0:0:
193,253,7736,1,0,0:0:0:0:
193,253,7924,2,0,P|187:211|151:153,1,85,8|0,3:2|0:0,0:0:0:0:
84,131,8299,1,0,0:0:0:0:
84,131,8486,1,0,3:0:0:0:
217,31,8674,2,0,P|183:57|151:117,1,85,8|0,3:2|3:0,0:0:0:0:
327,205,9049,5,4,3:2:0:0:
368,123,9236,1,0,0:0:0:0:
226,45,9424,5,8,3:2:0:0:
291,137,9611,1,0,0:0:0:0:
393,35,9799,5,0,0:0:0:0:
304,57,9986,1,0,3:0:0:0:
426,228,10174,6,0,L|445:98,1,127.5,8|0,3:2|0:0,0:0:0:0:
452,103,10549,2,0,L|434:230,1,127.5,0|0,3:0|0:0,0:0:0:0:
437,239,10924,2,0,L|426:324,2,85,8|0|0,3:2|0:0|0:0,0:0:0:0:
353,351,11486,5,0,3:0:0:0:
296,230,11674,1,8,3:2:0:0:
436,330,11861,1,0,3:0:0:0:
237,275,12049,6,0,P|217:238|225:197,1,85,4|0,3:2|0:0,0:0:0:0:
231,359,12424,2,0,P|191:346|167:312,1,85,8|0,3:2|0:0,0:0:0:0:
296,230,12799,1,0,0:0:0:0:
375,326,12986,1,0,3:0:0:0:
308,148,13174,2,0,B|235:136|264:194|170:181,1,127.5,8|0,3:2|0:0,0:0:0:0:
132,135,13549,6,0,P|60:115|-3:183,1,170,0|8,3:0|3:2,0:0:0:0:
76,285,14111,2,0,B|92:244|92:244|79:190,1,85
1,329,14486,5,0,3:0:0:0:
159,311,14674,1,8,3:2:0:0:
8,249,14861,1,0,3:0:0:0:
133,60,15049,6,0,L|125:145,1,85,4|0,3:2|0:0,0:0:0:0:
249,43,15424,1,8,3:2:0:0:
87,0,15611,1,0,0:0:0:0:
133,144,15799,2,0,L|141:59,1,85,0|0,0:0|3:0,0:0:0:0:
269,188,16174,2,0,B|240:227|240:227|151:210,1,127.5,8|0,3:2|0:0,0:0:0:0:
133,144,16549,6,0,P|69:134|4:215,1,170,0|8,3:0|3:2,0:0:0:0:
83,306,17111,2,0,B|99:265|99:265|86:211,1,85
10,363,17486,1,0,3:0:0:0:
102,317,17674,2,0,B|118:276|118:276|105:222,1,85,8|0,3:2|3:0,0:0:0:0:
278,374,18049,6,0,B|386:379|342:298|442:305,1,187.000005706787,4|8,3:2|3:2,0:0:0:0:
272,361,18611,2,0,B|380:366|336:285|436:292,1,187.000005706787,0|0,0:0|3:0,0:0:0:0:
297,181,19174,2,0,L|297:283,1,93.5000028533936,8|0,3:2|0:0,0:0:0:0:
443,94,19549,6,0,L|300:79,1,140.25000428009,0|0,3:0|0:0,0:0:0:0:
305,70,19924,2,0,L|397:79,1,93.5000028533936,8|0,3:2|0:0,0:0:0:0:
266,141,20299,2,0,P|231:103|232:51,1,93.5000028533936,0|0,0:0|3:0,0:0:0:0:
73,17,20674,2,0,P|123:5|167:32,1,93.5000028533936,8|0,3:2|3:0,0:0:0:0:
52,232,21049,6,0,B|86:223|114:195|114:195|128:146|111:71,1,187.000005706787,4|8,3:2|3:2,0:0:0:0:
61,242,21611,2,0,B|95:233|123:205|123:205|137:156|120:81,1,187.000005706787,0|0,0:0|3:0,0:0:0:0:
1,189,22174,1,8,3:2:0:0:
66,271,22361,1,0,3:0:0:0:
234,168,22549,6,0,P|167:169|128:224,1,140.25000428009,0|0,3:0|0:0,0:0:0:0:
133,232,22924,2,0,P|172:177|239:176,1,140.25000428009,8|0,3:2|0:0,0:0:0:0:
300,222,23299,2,0,P|342:238|400:219,1,93.5000028533936,0|0,0:0|3:0,0:0:0:0:
465,107,23674,1,8,3:2:0:0:
394,50,23861,1,0,3:0:0:0:
464,288,24049,6,0,B|412:294|412:294|353:341|353:341|262:342,1,203.999993774414,4|8,3:2|3:2,0:0:0:0:
463,302,24611,2,0,B|411:308|411:308|352:355|352:355|261:356,1,203.999993774414,0|0,0:0|3:0,0:0:0:0:
174,211,25174,2,0,B|210:220|236:207|236:207|213:246|212:306,1,152.999995330811,8|0,3:2|0:0,0:0:0:0:
146,352,25549,6,0,B|71:383|71:314|0:341,1,152.999995330811,0|0,3:0|0:0,0:0:0:0:
7,264,25924,2,0,P|33:194|20:120,1,152.999995330811,8|0,3:2|0:0,0:0:0:0:
43,111,26299,2,0,P|56:185|29:255,1,101.999996887207
122,280,26674,2,0,P|165:244|167:197,1,101.999996887207,8|0,3:2|3:0,0:0:0:0:
425,61,27049,6,0,B|290:36|321:145|186:114,1,255.000009727478,4|8,3:2|3:2,0:0:0:0:
448,89,27611,2,0,B|312:63|343:172|209:141,1,255.000009727478,0|0,3:0|0:0,0:0:0:0:
464,163,28174,6,0,B|339:139|368:240|243:219,1,224.400006848145,4|0,3:0|0:0,0:0:0:0:
445,203,30049,5,4,3:2:0:0:
367,266,30236,1,0,3:0:0:0:
378,80,30424,1,8,3:2:0:0:
455,122,30611,1,0,0:0:0:0:
286,188,30799,5,0,3:0:0:0:
205,86,30986,1,0,3:0:0:0:
369,171,31174,1,8,3:2:0:0:
294,278,31361,1,0,0:0:0:0:
81,128,31549,6,0,B|203:120|155:218|286:205,1,220.999989883423,4|8,3:2|3:2,0:0:0:0:
38,280,32111,2,0,P|60:229|108:204,1,110.499994941712,0|0,3:0|0:0,0:0:0:0:
292,287,32486,2,0,P|237:292|185:276,1,110.499994941712,0|8,3:0|3:2,0:0:0:0:
82,98,32861,1,0,0:0:0:0:
82,98,33049,6,0,P|135:103|190:155,1,110.499994941712,4|0,3:2|0:0,0:0:0:0:
128,339,33424,1,8,3:2:0:0:
42,290,33611,1,0,3:0:0:0:
255,180,33799,1,0,0:0:0:0:
241,319,33986,1,0,3:0:0:0:
168,134,34174,1,8,3:2:0:0:
289,59,34361,1,0,0:0:0:0:
468,252,34549,6,0,B|345:259|393:161|263:175,1,220.999989883423,4|8,3:2|3:2,0:0:0:0:
452,69,35111,2,0,P|465:121|445:171,1,110.499994941712,0|0,3:0|0:0,0:0:0:0:
269,42,35486,1,0,3:0:0:0:
269,42,35674,2,0,L|379:33,1,110.499994941712,8|0,3:2|0:0,0:0:0:0:
249,279,36049,6,0,P|305:179|420:170,1,237.999992736817,4|8,3:2|3:2,0:0:0:0:
230,263,36611,2,0,P|286:163|401:154,1,203.999993774414,0|0,3:0|3:0,0:0:0:0:
208,255,37174,2,0,P|224:199|264:151,1,85,8|0,3:2|3:0,0:0:0:0:
439,373,37549,6,0,B|383:367|383:367|319:321|319:321|201:318,1,203.999993774414,4|8,3:2|3:2,0:0:0:0:
94,363,38111,2,0,P|162:346|173:295,1,101.999996887207,0|0,3:0|0:0,0:0:0:0:
113,134,38486,5,0,3:0:0:0:
110,291,38674,1,8,3:2:0:0:
193,90,38861,1,0,3:0:0:0:
19,192,39049,6,0,B|73:189|73:189|124:141,1,101.999996887207,4|0,3:2|0:0,0:0:0:0:
252,32,39424,2,0,P|181:13|118:60,1,152.999995330811,8|0,3:2|0:0,0:0:0:0:
181,108,39799,2,0,P|191:149|201:223,1,101.999996887207,0|0,3:0|3:0,0:0:0:0:
256,41,40174,1,8,3:2:0:0:
378,208,40361,6,0,B|355:111|418:114|424:34|351:37|357:101,1,203.999993774414,0|0,3:0|3:0,0:0:0:0:
454,275,40924,1,8,3:2:0:0:
454,275,41111,1,0,3:0:0:0:
326,325,41299,1,0,0:0:0:0:
196,203,41486,1,0,3:0:0:0:
135,379,41674,1,8,3:2:0:0:
129,365,41767,1,8,3:2:0:0:
122,351,41861,1,0,3:0:0:0:
115,337,41955,1,0,3:0:0:0:
92,326,42049,6,0,P|149:336|201:299,1,110.499994941712,4|0,3:2|3:0,0:0:0:0:
234,133,42424,2,0,P|177:123|125:160,1,110.499994941712,8|0,3:2|0:0,0:0:0:0:
258,345,42799,5,0,3:0:0:0:
342,258,42986,1,0,3:0:0:0:
199,200,43174,1,8,3:2:0:0:
338,345,43361,1,0,0:0:0:0:
401,115,43549,6,0,P|364:208|337:373,1,220.999989883423,4|8,3:2|3:2,0:0:0:0:
471,139,44111,2,0,P|467:84|431:44,1,110.499994941712,0|0,3:0|0:0,0:0:0:0:
294,142,44486,2,0,B|401:114,1,110.499994941712,0|8,3:0|3:2,0:0:0:0:
203,0,44861,1,0,0:0:0:0:
203,0,45049,6,0,P|155:33|145:96,1,110.499994941712,4|0,3:2|0:0,0:0:0:0:
240,223,45424,1,8,3:2:0:0:
287,142,45611,1,0,3:0:0:0:
79,128,45799,1,0,0:0:0:0:
123,250,45986,1,0,3:0:0:0:
229,11,46174,1,8,3:2:0:0:
285,132,46361,1,0,0:0:0:0:
67,195,46549,6,0,B|167:153|182:263|305:193,1,220.999989883423,4|8,3:2|3:2,0:0:0:0:
48,120,47111,2,0,L|43:240,1,110.499994941712,0|0,3:0|0:0,0:0:0:0:
204,345,47486,1,0,3:0:0:0:
203,344,47674,2,0,P|171:301|118:295,1,110.499994941712,8|0,3:2|0:0,0:0:0:0:
369,373,48049,6,0,L|388:135,1,237.999992736817,4|8,3:2|3:2,0:0:0:0:
350,336,48611,2,0,L|367:133,1,203.999993774414,0|0,0:0|3:0,0:0:0:0:
326,299,49174,2,0,L|332:214,1,85,8|0,3:2|0:0,0:0:0:0:
496,79,49549,6,0,B|374:85|428:8|295:25,1,203.999993774414,4|8,3:2|3:2,0:0:0:0:
144,80,50111,1,0,3:0:0:0:
148,96,50486,5,0,3:0:0:0:
290,104,50674,1,8,3:2:0:0:
110,9,50861,1,0,0:0:0:0:
33,202,51049,6,0,L|22:67,1,101.999996887207,4|0,3:2|0:0,0:0:0:0:
159,288,51424,2,0,B|82:313|82:313|6:271,1,152.999995330811,8|0,3:2|0:0,0:0:0:0:
40,209,51799,2,0,L|29:74,1,101.999996887207,0|0,3:0|0:0,0:0:0:0:
179,203,52174,1,8,3:2:0:0:
23,373,52361,5,0,3:0:0:0:
51,372,52736,1,0,3:0:0:0:
22,210,52924,1,8,3:2:0:0:
188,175,53111,1,0,3:0:0:0:
232,347,53299,2,0,B|200:240,1,101.999996887207,8|0,3:2|3:0,0:0:0:0:
383,240,53674,2,0,P|356:271|279:236,1,101.999996887207,8|0,3:2|3:0,0:0:0:0:
411,71,54049,6,0,P|451:28|449:101,1,170,4|8,3:2|3:2,0:0:0:0:
322,60,54611,2,0,B|295:162|295:162|252:103,1,170,0|8,3:0|3:2,0:0:0:0:
192,60,55174,2,0,B|219:162|219:162|262:103,1,170,0|8,3:0|3:2,0:0:0:0:
101,71,55736,2,0,P|61:28|63:101,1,170,0|0,3:0|3:0,0:0:0:0:
282,28,56299,5,0,3:0:0:0:
286,52,56674,6,0,B|336:118|246:151|303:258,1,204,4|0,3:0|0:0,0:0:0:0:
