osu file format v14

[General]
AudioFilename: audio.mp3
AudioLeadIn: 0
PreviewTime: 96
Countdown: 1
SampleSet: Soft
StackLeniency: 0.7
Mode: 0
LetterboxInBreaks: 0
WidescreenStoryboard: 1

[Editor]
DistanceSpacing: 1
BeatDivisor: 4
GridSize: 4
TimelineZoom: 1

[Metadata]
Title:WONDERFUL WONDER (TV Size)
TitleUnicode:WONDERFUL WONDER (TV Size)
Artist:EDOGA-SULLIVAN
ArtistUnicode:エドガー・サリヴァン
Creator:tomadoi
Version:Normal
Source:みだらな青ちゃんは勉強ができない
Tags:anime ao-chan can't study! op opening shiinoha kotone japanese Midara na wa Benkyou ga Dekinai 佐々木萌 Moe Sasaki 坂本遥 Haruka Sakamoto
BeatmapID:2006495
BeatmapSetID:958314

[Difficulty]
HPDrainRate:4
CircleSize:3.5
OverallDifficulty:4
ApproachRate:5
SliderMultiplier:1
SliderTickRate:1

[Events]
//Background and Video events
0,0,"bg anime.jpg",0,0
//Break Periods
//Storyboard Layer 0 (Background)
//Storyboard Layer 1 (Fail)
//Storyboard Layer 2 (Pass)
//Storyboard Layer 3 (Foreground)
//Storyboard Layer 4 (Overlay)
//Storyboard Sound Samples

[TimingPoints]
96,375,4,2,0,58,1,0
18096,-100,4,2,0,42,0,0
27096,-100,4,2,0,58,0,0
30096,-100,4,2,0,72,0,0

[Colours]
Combo1 : 0,191,96
Combo2 : 107,107,182
Combo3 : 255,194,166
Combo4 : 255,128,255

[HitObjects]
334,338,96,6,0,P|410:325|490:317,2,150,2|8|8,0:3|0:1|0:1,0:0:0:0:
249,285,1596,2,0,P|260:242|256:176,1,100,0|8,3:0|0:1,0:0:0:0:
227,146,2158,2,0,P|184:157|116:166,1,100,8|0,0:1|3:0,0:0:0:0:
80,150,2721,1,8,0:1:0:0:
13,246,3096,6,0,B|101:252|57:295|149:321,2,150,2|8|8,3:0|0:1|0:1,0:0:0:0:
69,163,4596,2,0,P|64:122|76:54,1,100,0|8,3:0|0:1,0:0:0:0:
114,37,5158,2,0,P|158:47|225:52,1,100,8|0,0:1|3:0,0:0:0:0:
260,37,5721,1,8,0:1:0:0:
354,20,6096,6,0,P|370:57|369:121,1,100,4|8,3:1|0:1,0:0:0:0:
339,155,6658,1,8,0:1:0:0:
339,155,6846,2,0,P|323:192|324:256,1,100,0|8,0:0|0:1,0:0:0:0:
378,355,7596,2,0,B|339:332|339:332|277:341,1,100,0|8,3:0|0:1,0:0:0:0:
235,350,8158,2,0,B|163:359|163:359|97:311,1,150,8|8,0:1|0:1,0:0:0:0:
32,239,9096,6,0,P|41:207|43:135,1,100,4|8,3:1|0:1,0:0:0:0:
15,44,9846,2,0,P|54:29|130:40,1,100,0|8,0:0|0:1,0:0:0:0:
180,104,10596,2,0,P|246:142|329:139,2,150,0|8|8,3:0|0:1|0:1,0:0:0:0:
159,58,11908,1,0,3:0:0:0:
159,58,12096,6,0,L|275:51,1,100,4|8,3:1|0:1,0:0:0:0:
352,85,12846,2,0,B|327:127|327:127|341:180,1,100,0|8,0:0|0:1,0:0:0:0:
408,250,13596,2,0,B|361:280|361:280|207:251,1,200,0|0,3:0|0:0,0:0:0:0:
183,218,14533,1,0,3:0:0:0:
183,218,14721,2,0,L|125:224,1,50,8|0,0:1|3:0,0:0:0:0:
97,258,15096,6,0,P|105:301|96:357,1,100,4|8,3:1|0:1,0:0:0:0:
8,307,15846,2,0,P|0:264|9:208,1,100,0|8,0:0|0:1,0:0:0:0:
87,146,16596,2,0,B|106:48|63:87|78:-15,2,150,0|8|8,3:0|0:1|0:1,0:0:0:0:
116,186,17908,1,0,3:0:0:0:
116,186,18096,6,0,B|234:169|193:244|308:236,1,200,4|0,3:1|0:0,0:0:0:0:
401,225,19221,2,0,P|397:196|382:167,1,50,8|0,0:1|0:0,0:0:0:0:
404,129,19596,2,0,P|410:92|408:24,1,100,0|8,3:0|0:1,0:0:0:0:
318,72,20346,2,0,P|284:84|220:82,1,100,0|8,0:0|0:1,0:0:0:0:
177,107,20908,1,0,3:0:0:0:
177,107,21096,6,0,P|256:104|324:200,1,200,4|0,3:1|0:0,0:0:0:0:
320,294,22221,2,0,P|302:311|290:333,1,50,8|0,0:1|0:0,0:0:0:0:
254,368,22596,2,0,P|223:351|150:352,1,100,0|8,3:0|0:1,0:0:0:0:
64,379,23346,2,0,L|56:274,1,100,0|8,0:0|0:1,0:0:0:0:
68,230,23908,1,0,3:0:0:0:
68,230,24096,6,0,B|93:113|30:149|65:24,1,200,4|0,3:1|0:0,0:0:0:0:
155,83,25221,1,8,0:1:0:0:
233,21,25596,2,0,P|275:19|325:52,1,100,0|8,3:0|0:1,0:0:0:0:
346,146,26346,2,0,P|305:174|256:173,1,100,0|8,0:0|0:1,0:0:0:0:
220,207,26908,1,0,3:0:0:0:
220,207,27096,6,0,B|135:215|169:256|80:268,2,150,4|0|4,3:1|3:0|3:1,0:0:0:0:
220,207,29346,1,2,0:0:0:0:
290,278,29721,1,2,0:0:0:0:
361,347,30096,6,0,P|364:305|384:241,1,100,4|8,3:1|0:1,0:0:0:0:
411,210,30658,1,0,0:0:0:0:
411,210,30846,2,0,L|398:104,1,100,0|8,3:0|0:1,0:0:0:0:
334,34,31596,2,0,B|212:19|249:141|119:146,1,250,4|0,3:1|3:0,0:0:0:0:
44,205,32908,1,0,3:0:0:0:
44,205,33096,6,0,P|51:240|48:307,1,100,4|8,3:1|0:1,0:0:0:0:
76,345,33658,1,0,3:0:0:0:
76,345,33846,2,0,L|177:335,1,100,0|8,0:0|0:1,0:0:0:0:
243,261,34596,2,0,P|268:316|446:325,1,250,4|0,3:1|3:0,0:0:0:0:
394,227,35908,1,0,3:0:0:0:
394,227,36096,6,0,B|370:190|370:190|396:87,2,150,4|0|8,3:1|3:0|0:1,0:0:0:0:
433,265,37408,1,0,0:0:0:0:
433,265,37596,2,0,P|352:252|261:325,1,200,4|0,3:1|0:0,0:0:0:0:
160,360,38721,2,0,P|132:351|106:350,1,50,8|0,0:1|3:0,0:0:0:0:
80,304,39096,6,0,P|90:267|94:202,1,100,4|8,3:1|0:1,0:0:0:0:
191,154,39846,2,0,P|181:117|177:52,1,100,0|8,3:0|0:1,0:0:0:0:
221,23,40408,2,0,B|311:26|278:71|378:86,1,150,4|8,3:1|0:1,0:0:0:0:
454,64,41346,2,0,B|473:108|473:108|454:161,1,100,0|8,0:0|3:0,0:0:0:0:
424,196,41908,1,0,3:0:0:0:
424,196,42096,6,0,P|388:180|321:182,1,100,4|8,3:1|0:1,0:0:0:0:
284,203,42658,1,0,0:0:0:0:
284,203,42846,2,0,P|234:200|188:219,1,100,0|8,3:0|0:1,0:0:0:0:
104,272,43596,2,0,B|74:127|156:175|119:19,1,250,4|0,3:1|3:0,0:0:0:0:
219,44,44908,1,0,0:0:0:0:
219,44,45096,6,0,P|208:91|205:153,1,100,4|8,3:1|0:1,0:0:0:0:
207,192,45658,1,0,3:0:0:0:
207,192,45846,2,0,L|217:302,1,100,0|8,0:0|0:1,0:0:0:0:
307,354,46596,2,0,P|342:318|343:205,2,150,4|0|8,3:1|3:0|0:1,0:0:0:0:
213,302,48096,6,0,B|123:291|158:350|61:352,2,150,4|0|8,3:1|3:0|0:1,0:0:0:0:
262,277,49408,1,0,0:0:0:0:
262,277,49596,2,0,P|241:187|276:72,1,200,4|0,3:1|0:0,0:0:0:0:
357,20,50721,2,0,P|381:34|410:41,1,50,8|0,0:1|0:0,0:0:0:0:
444,75,51096,6,0,P|435:119|440:180,1,100,4|8,3:1|0:1,0:0:0:0:
495,268,51846,2,0,L|386:289,1,100,0|8,3:0|0:1,0:0:0:0:
362,329,52408,2,0,P|320:288|225:307,1,150,0|8,3:0|0:1,0:0:0:0:
192,324,53158,1,0,3:0:0:0:
192,324,53346,2,0,B|172:279|172:279|190:221,1,100,8|8,0:1|0:1,0:0:0:0:
153,136,54096,6,0,L|0:114,2,150,4|4|4,3:1|3:1|3:1,0:0:0:0:
258,242,55783,1,4,3:1:0:0:
377,151,56346,2,0,L|484:142,1,100,2|2,3:0|3:0,0:0:0:0:
