osu file format v14

[General]
AudioFilename: audio.mp3
AudioLeadIn: 0
PreviewTime: 96
Countdown: 1
SampleSet: Soft
StackLeniency: 0.7
Mode: 0
LetterboxInBreaks: 0
WidescreenStoryboard: 0

[Editor]
DistanceSpacing: 1
BeatDivisor: 4
GridSize: 4
TimelineZoom: 1

[Metadata]
Title:WONDERFUL WONDER (TV Size)
TitleUnicode:WONDERFUL WONDER (TV Size)
Artist:EDOGA-SULLIVAN
ArtistUnicode:エドガー・サリヴァン
Creator:tomadoi
Version:Insane
Source:みだらな青ちゃんは勉強ができない
Tags:anime ao-chan can't study! op opening shiinoha kotone japanese Midara na wa Benkyou ga Dekinai 佐々木萌 Moe Sasaki 坂本遥 Haruka Sakamoto
BeatmapID:2006494
BeatmapSetID:958314

[Difficulty]
HPDrainRate:6
CircleSize:4
OverallDifficulty:7.5
ApproachRate:8.5
SliderMultiplier:1.4
SliderTickRate:1

[Events]
//Background and Video events
0,0,"bg anime.jpg",0,0
//Break Periods
//Storyboard Layer 0 (Background)
//Storyboard Layer 1 (Fail)
//Storyboard Layer 2 (Pass)
//Storyboard Layer 3 (Foreground)
//Storyboard Layer 4 (Overlay)
//Storyboard Sound Samples

[TimingPoints]
96,375,4,2,0,58,1,0
18096,-125,4,2,0,42,0,0
27096,-100,4,2,0,58,0,0
28221,-125,4,2,0,58,0,0
28502,-125,4,2,0,5,0,0
28596,-125,4,2,0,35,0,0
28689,-125,4,2,0,40,0,0
28783,-125,4,2,0,45,0,0
28877,-125,4,2,0,50,0,0
28971,-125,4,2,0,55,0,0
29064,-125,4,2,0,60,0,0
29158,-125,4,2,0,65,0,0
29252,-125,4,2,0,70,0,0
30096,-83.3333333333333,4,2,0,72,0,0
56627,-83.3333333333333,4,2,0,5,0,0
56721,-83.3333333333333,4,2,0,58,0,0

[Colours]
Combo1 : 0,191,96
Combo2 : 107,107,182
Combo3 : 255,194,166
Combo4 : 255,128,255

[HitObjects]
430,309,96,6,0,P|360:320|287:335,1,140,2|8,0:3|0:1,0:0:0:0:
455,171,658,2,0,P|385:160|312:145,1,140,8|0,0:1|3:0,0:0:0:0:
455,171,1221,1,8,0:1:0:0:
181,317,1596,6,0,P|211:281|202:194,1,140,0|8,3:0|0:1,0:0:0:0:
79,80,2158,2,0,P|93:157|101:227,1,140,8|0,0:1|3:0,0:0:0:0:
189,88,2721,1,8,0:1:0:0:
195,71,2908,1,0,3:0:0:0:
296,178,3096,6,0,B|387:172|355:213|442:221,1,140,2|8,3:0|0:1,0:0:0:0:
247,374,3658,2,0,P|238:304|222:236,1,140,8|0,0:1|3:0,0:0:0:0:
334,311,4221,1,8,0:1:0:0:
29,349,4596,6,0,P|75:315|166:323,1,140,0|8,3:0|0:1,0:0:0:0:
250,156,5158,2,0,P|214:150|183:134,1,70,8|0,0:1|0:0,0:0:0:0:
294,258,5533,1,0,3:0:0:0:
348,314,5721,2,0,P|379:298|413:292,1,70,8|0,0:1|3:0,0:0:0:0:
466,107,6096,6,0,P|403:102|362:160,1,140,4|8,3:1|0:1,0:0:0:0:
281,52,6658,1,8,0:1:0:0:
189,160,6846,2,0,P|220:168|255:187,1,70,0|0,0:0|3:0,0:0:0:0:
189,160,7221,1,8,0:1:0:0:
275,288,7408,6,0,P|244:304|210:313,1,70,0|0,0:0|3:0,0:0:0:0:
335,203,7783,1,0,0:0:0:0:
382,357,7971,1,8,0:1:0:0:
382,357,8158,2,0,P|442:367|487:293,1,140,8|0,0:1|3:0,0:0:0:0:
408,154,8721,2,0,P|401:117|399:80,1,70,8|0,0:1|3:0,0:0:0:0:
296,217,9096,5,4,3:1:0:0:
430,248,9283,1,0,0:0:0:0:
288,332,9471,2,0,P|254:340|222:353,1,70,8|8,0:1|0:1,0:0:0:0:
108,234,9846,5,0,0:0:0:0:
108,234,10033,1,0,3:0:0:0:
211,119,10221,2,0,P|197:151|189:185,1,70,8|0,0:1|0:0,0:0:0:0:
31,337,10596,6,0,L|16:187,1,140,0|8,3:0|0:1,0:0:0:0:
132,329,11158,2,0,B|168:350|168:350|276:334,1,140,8|0,0:1|3:0,0:0:0:0:
382,155,11721,2,0,L|306:136,1,70,8|0,0:1|3:0,0:0:0:0:
446,228,12096,5,4,3:1:0:0:
446,228,12283,1,0,0:0:0:0:
355,345,12471,2,0,L|278:365,1,70,8|8,0:1|0:1,0:0:0:0:
175,207,12846,5,0,0:0:0:0:
68,177,13033,1,0,3:0:0:0:
129,45,13221,2,0,L|140:121,1,70,8|0,0:1|0:0,0:0:0:0:
204,314,13596,6,0,L|223:168,1,140,0|8,3:0|0:1,0:0:0:0:
44,330,14158,2,0,B|131:306|111:356|185:337,1,140,8|0,0:1|3:0,0:0:0:0:
361,243,14721,2,0,P|401:256|428:276,1,70,8|0,0:1|3:0,0:0:0:0:
293,304,15096,5,4,3:1:0:0:
293,304,15283,1,0,0:0:0:0:
335,132,15471,2,0,L|350:60,1,70,8|8,0:1|0:1,0:0:0:0:
179,235,15846,6,0,B|211:219|211:219|246:224,1,70,0|0,0:0|3:0,0:0:0:0:
251,36,16221,2,0,B|217:40|217:40|185:24,1,70,8|0,0:1|0:0,0:0:0:0:
15,151,16596,6,0,L|166:132,1,140,0|8,3:0|0:1,0:0:0:0:
320,272,17158,2,0,P|377:288|425:358,1,140,8|0,0:1|3:0,0:0:0:0:
184,384,17721,2,0,P|194:345|197:311,1,70,8|0,0:1|3:0,0:0:0:0:
283,347,18096,6,0,P|273:300|273:232,1,112,4|8,3:1|0:1,0:0:0:0:
69,243,18658,2,0,P|79:290|79:358,1,112,0|0,0:0|3:0,0:0:0:0:
178,290,19221,5,8,0:1:0:0:
159,171,19408,1,0,0:0:0:0:
143,94,19596,2,0,L|133:37,1,56,0|0,3:0|0:0,0:0:0:0:
250,207,19971,2,0,L|260:150,1,56,8|0,0:1|0:0,0:0:0:0:
250,207,20346,1,0,0:0:0:0:
68,290,20533,2,0,L|58:233,1,56,0|8,3:0|0:1,0:0:0:0:
172,281,20908,1,0,3:0:0:0:
307,353,21096,6,0,L|439:375,1,112,4|8,3:1|0:1,0:0:0:0:
252,242,21658,2,0,P|232:194|248:133,1,112,0|0,0:0|3:0,0:0:0:0:
396,52,22221,2,0,P|391:83|389:118,1,56,8|0,0:1|0:0,0:0:0:0:
175,106,22596,6,0,P|201:94|230:98,1,56,0|0,3:0|0:0,0:0:0:0:
373,208,22971,2,0,P|347:196|318:200,1,56,8|0,0:1|0:0,0:0:0:0:
177,303,23346,1,0,0:0:0:0:
274,276,23533,1,0,3:0:0:0:
159,217,23721,2,0,P|165:246|168:275,1,56,8|0,0:1|3:0,0:0:0:0:
7,384,24096,6,0,P|33:363|118:368,1,112,4|8,3:1|0:1,0:0:0:0:
110,140,24658,2,0,P|84:161|-1:156,1,112,0|0,0:0|3:0,0:0:0:0:
191,291,25221,2,0,L|250:282,1,56,8|0,0:1|0:0,0:0:0:0:
426,132,25596,6,0,B|411:102|411:102|332:88,1,112,0|8,3:0|0:1,0:0:0:0:
205,181,26158,1,0,0:0:0:0:
287,198,26346,2,0,B|292:171|292:171|281:144,1,56,0|0,0:0|3:0,0:0:0:0:
170,308,26721,1,8,0:1:0:0:
358,357,26908,1,0,3:0:0:0:
248,335,27096,6,0,L|101:357,1,140,4|8,3:1|0:1,0:0:0:0:
293,218,27658,2,0,L|440:240,1,140,0|0,3:0|0:0,0:0:0:0:
187,85,28221,6,0,L|96:96,1,84,4|0,3:1|0:0,0:0:0:0:
103,95,28596,5,2,0:0:0:0:
116,112,28689,1,2,0:0:0:0:
126,135,28783,1,2,0:0:0:0:
129,162,28877,1,2,0:0:0:0:
124,192,28971,1,2,0:0:0:0:
104,219,29064,1,2,0:0:0:0:
92,253,29158,1,2,0:0:0:0:
93,292,29252,1,2,0:0:0:0:
45,26,30096,5,4,3:1:0:0:
152,145,30283,1,0,3:0:0:0:
63,231,30471,1,8,0:1:0:0:
115,150,30658,1,0,0:0:0:0:
200,276,30846,2,0,P|189:317|184:365,1,83.9999974365235,0|0,3:0|3:0,0:0:0:0:
286,173,31221,2,0,P|275:132|270:84,1,83.9999974365235,8|0,0:1|0:0,0:0:0:0:
483,261,31596,6,0,P|416:251|354:328,1,167.999994873047,4|8,3:1|0:1,0:0:0:0:
483,141,32158,2,0,P|435:76|354:81,1,167.999994873047,0|0,3:0|3:0,0:0:0:0:
236,223,32721,2,0,L|152:239,1,83.9999974365235,8|0,0:1|3:0,0:0:0:0:
238,128,33096,5,4,3:1:0:0:
419,224,33283,1,0,0:0:0:0:
269,250,33471,1,8,0:1:0:0:
344,184,33658,1,0,3:0:0:0:
191,207,33846,2,0,P|148:212|95:212,1,83.9999974365235,0|0,0:0|3:0,0:0:0:0:
307,332,34221,2,0,P|348:336|390:337,1,83.9999974365235,8|0,0:1|0:0,0:0:0:0:
171,341,34596,6,0,B|148:240|196:270|173:176,1,167.999994873047,4|8,3:1|0:1,0:0:0:0:
378,253,35158,2,0,B|401:152|353:182|376:88,1,167.999994873047,0|0,3:0|3:0,0:0:0:0:
277,338,35721,2,0,P|316:344|362:358,1,83.9999974365235,8|0,0:1|3:0,0:0:0:0:
239,87,36096,6,0,P|194:84|128:187,1,167.999994873047,4|8,3:1|0:1,0:0:0:0:
357,241,36658,2,0,P|402:238|468:341,1,167.999994873047,0|0,3:0|3:0,0:0:0:0:
169,318,37221,5,8,0:1:0:0:
78,362,37408,1,0,0:0:0:0:
187,235,37596,6,0,L|270:248,1,83.9999974365235,4|0,3:1|0:0,0:0:0:0:
187,235,37971,1,8,0:1:0:0:
59,84,38158,2,0,L|142:71,1,83.9999974365235,0|0,3:0|0:0,0:0:0:0:
340,166,38533,5,0,3:0:0:0:
441,213,38721,1,8,0:1:0:0:
285,266,38908,1,0,3:0:0:0:
435,126,39096,5,4,3:1:0:0:
455,110,39283,1,0,3:0:0:0:
306,63,39471,2,0,P|273:57|222:38,1,83.9999974365235,8|0,0:1|0:0,0:0:0:0:
104,186,39846,2,0,P|151:163|264:161,1,167.999994873047,0|8,3:0|0:1,0:0:0:0:
407,358,40408,6,0,P|366:338|317:334,1,83.9999974365235,4|0,3:1|0:0,0:0:0:0:
221,249,40783,1,0,3:0:0:0:
423,109,40971,2,0,P|382:129|333:133,1,83.9999974365235,8|0,0:1|3:0,0:0:0:0:
163,96,41346,5,0,0:0:0:0:
315,218,41533,1,0,3:0:0:0:
247,146,41721,1,8,3:0:0:0:
237,186,41814,1,8,3:0:0:0:
227,226,41908,1,0,3:0:0:0:
378,44,42096,5,4,3:1:0:0:
450,230,42283,1,0,3:0:0:0:
478,79,42471,1,8,0:1:0:0:
406,203,42658,1,0,0:0:0:0:
493,343,42846,2,0,P|452:350|411:365,1,83.9999974365235,0|0,3:0|3:0,0:0:0:0:
312,230,43221,2,0,P|271:223|230:208,1,83.9999974365235,8|0,0:1|0:0,0:0:0:0:
62,338,43596,6,0,L|230:359,1,167.999994873047,4|8,3:1|0:1,0:0:0:0:
15,164,44158,2,0,L|181:143,1,167.999994873047,0|0,3:0|3:0,0:0:0:0:
0,2,44721,2,0,L|93:19,1,83.9999974365235,8|0,0:1|0:0,0:0:0:0:
263,150,45096,5,4,3:1:0:0:
441,98,45283,1,0,0:0:0:0:
292,66,45471,1,8,0:1:0:0:
386,181,45658,1,0,3:0:0:0:
427,73,45846,2,0,P|434:30|450:-15,1,83.9999974365235,0|0,0:0|3:0,0:0:0:0:
268,96,46221,2,0,P|281:135|288:177,1,83.9999974365235,8|0,0:1|0:0,0:0:0:0:
397,372,46596,6,0,P|404:307|500:259,1,167.999994873047,4|8,3:1|0:1,0:0:0:0:
309,344,47158,2,0,P|212:356|131:371,1,167.999994873047,0|0,3:0|3:0,0:0:0:0:
291,196,47721,2,0,P|329:201|381:216,1,83.9999974365235,8|0,0:1|3:0,0:0:0:0:
126,283,48096,6,0,B|168:229|168:229|128:131,1,167.999994873047,4|8,3:1|0:1,0:0:0:0:
368,380,48658,2,0,B|326:326|326:326|366:228,1,167.999994873047,0|0,3:0|3:0,0:0:0:0:
259,139,49221,5,8,0:1:0:0:
232,21,49408,1,0,0:0:0:0:
306,68,49596,6,0,L|393:85,1,83.9999974365235,4|0,3:1|3:0,0:0:0:0:
259,139,49971,1,8,0:1:0:0:
164,240,50158,2,0,L|-1:275,1,167.999994873047,0|0,3:0|3:0,0:0:0:0:
210,309,50721,1,8,0:1:0:0:
286,333,50908,1,0,0:0:0:0:
189,333,51096,6,0,P|150:340|105:362,1,83.9999974365235,4|0,3:1|3:0,0:0:0:0:
295,193,51471,2,0,P|256:186|211:164,1,83.9999974365235,8|0,0:1|0:0,0:0:0:0:
429,339,51846,2,0,P|398:293|431:185,1,167.999994873047,0|8,3:0|0:1,0:0:0:0:
268,353,52408,6,0,P|309:360|353:381,1,83.9999974365235,0|0,3:0|0:0,0:0:0:0:
229,220,52783,5,0,3:0:0:0:
189,70,52971,1,8,0:1:0:0:
327,174,53158,1,0,3:0:0:0:
440,6,53346,6,0,P|425:45|417:97,1,83.9999974365235,8|0,0:1|3:0,0:0:0:0:
126,264,53721,2,0,P|141:225|149:173,1,83.9999974365235,8|0,0:1|3:0,0:0:0:0:
419,285,54096,6,0,L|234:319,1,167.999994873047,4|8,3:1|0:1,0:0:0:0:
174,97,54658,2,0,L|359:63,1,167.999994873047,4|8,3:1|0:1,0:0:0:0:
419,285,55221,2,0,L|234:319,1,167.999994873047,4|8,3:1|0:1,0:0:0:0:
174,97,55783,2,0,L|359:63,1,167.999994873047,4|0,3:1|3:0,0:0:0:0:
419,285,56346,2,0,L|285:311,1,125.999996154785,2|0,3:0|0:0,0:0:0:0:
253,315,56721,1,2,3:0:0:0:
